osu file format v14

[General]
AudioFilename: audio.mp3
AudioLeadIn: 0
PreviewTime: 158296
Countdown: 0
SampleSet: Drum
StackLeniency: 0.6
Mode: 0
LetterboxInBreaks: 0
WidescreenStoryboard: 1

[Editor]
Bookmarks: 11154,20296,29439,38582,47725,56868,75153,93439,103725,112868,122010,131153,140296,158582,176867,187154,196295,204295,205438,223724,244294
DistanceSpacing: 0.3
BeatDivisor: 8
GridSize: 4
TimelineZoom: 2.2

[Metadata]
Title:Elusion
TitleUnicode:Ēlusion
Artist:Yousei Teikoku
ArtistUnicode:妖精帝國
Creator:IsomirDiAngelo
Version:Extreme
Source:
Tags:net0 kyuusei argryos Άργυρóϛ das feenreich fairy empire yui itsuki rock japanese
BeatmapID:2384031
BeatmapSetID:1116379

[Difficulty]
HPDrainRate:5
CircleSize:4
OverallDifficulty:8.7
ApproachRate:9.3
SliderMultiplier:1.9
SliderTickRate:1

[Events]
//Background and Video events
0,0,"bg.jpg",0,0
//Break Periods
//Storyboard Layer 0 (Background)
//Storyboard Layer 1 (Fail)
//Storyboard Layer 2 (Pass)
//Storyboard Layer 3 (Foreground)
//Storyboard Layer 4 (Overlay)
//Storyboard Sound Samples

[TimingPoints]
11154,285.714285714286,4,2,1,50,1,0
19582,-200,4,2,1,50,0,0
19725,-200,4,2,1,50,0,0
20296,-166.666666666667,4,2,1,60,0,0
24296,-250.000000000001,4,2,1,60,0,0
24582,-142.857142857143,4,2,1,60,0,0
24868,-166.666666666667,4,2,1,60,0,0
26868,-142.857142857143,4,2,1,60,0,0
27154,-166.666666666667,4,2,1,60,0,0
29154,-166.666666666667,4,3,2,70,0,0
29439,-142.857142857143,4,2,1,70,0,0
33725,-142.857142857143,4,2,1,70,0,0
34011,-142.857142857143,4,2,1,70,0,0
38011,-142.857142857143,4,3,2,70,0,0
38154,-142.857142857143,4,2,1,70,0,0
38296,-142.857142857143,4,3,2,70,0,0
38582,-250.000000000001,4,2,1,50,0,0
47725,-125,4,2,1,70,0,0
52082,-125,4,2,1,70,0,0
52296,-125,4,2,1,70,0,0
56296,-100,4,2,1,70,0,0
56582,-100,4,2,1,70,0,0
56868,-100,4,2,2,80,0,0
57011,-100,4,2,1,80,0,0
58582,-90.9090909090909,4,2,1,80,0,0
58868,-90.9090909090909,4,3,2,80,0,0
59011,-90.9090909090909,4,2,1,80,0,0
59154,-100,4,2,2,80,0,0
59296,-100,4,2,1,80,0,0
60868,-83.3333333333333,4,2,1,80,0,0
61439,-100,4,2,2,80,0,0
61582,-100,4,2,1,80,0,0
63154,-90.9090909090909,4,2,1,80,0,0
63439,-90.9090909090909,4,3,2,80,0,0
63582,-90.9090909090909,4,2,1,80,0,0
63725,-100,4,2,2,80,0,0
63868,-100,4,2,1,80,0,0
66011,-100,4,2,2,80,0,0
66154,-100,4,2,1,80,0,0
68011,-100,4,3,2,80,0,0
68154,-100,4,2,1,80,0,0
68296,-100,4,2,2,80,0,0
68439,-100,4,2,1,80,0,0
70011,-83.3333333333333,4,2,1,80,0,0
70582,-100,4,2,2,80,0,0
70725,-100,4,2,1,80,0,0
72582,-100,4,3,2,80,0,0
72725,-100,4,2,1,80,0,0
72868,-100,4,2,2,80,0,0
73011,-100,4,2,1,80,0,0
74154,-100,4,3,2,80,0,0
74582,-100,4,2,1,80,0,0
74868,-100,4,3,2,80,0,0
75154,-100,4,2,2,80,0,0
75296,-100,4,2,1,80,0,0
79725,-100,4,2,2,80,0,0
79868,-100,4,2,1,80,0,0
83725,-83.3333333333333,4,2,1,80,0,0
84296,-100,4,2,2,80,0,0
84439,-100,4,2,1,80,0,0
88868,-100,4,2,2,80,0,0
89011,-100,4,2,1,80,0,0
93154,-100,4,3,2,80,0,0
93439,-90.9090909090909,4,2,3,70,0,1
93796,-90.9090909090909,4,2,3,5,0,1
93868,-90.9090909090909,4,2,3,70,0,1
94225,-90.9090909090909,4,2,3,5,0,1
94296,-90.9090909090909,4,2,3,70,0,1
94654,-90.9090909090909,4,2,3,5,0,1
94725,-90.9090909090909,4,2,3,70,0,1
95082,-90.9090909090909,4,2,3,5,0,1
95154,-90.9090909090909,4,2,3,70,0,1
96082,-90.9090909090909,4,2,3,5,0,1
96154,-90.9090909090909,4,2,3,70,0,1
96511,-90.9090909090909,4,2,3,5,0,1
96582,-90.9090909090909,4,2,3,70,0,1
96939,-90.9090909090909,4,2,3,5,0,1
97011,-90.9090909090909,4,2,3,70,0,1
97368,-90.9090909090909,4,2,3,5,0,1
97439,-90.9090909090909,4,2,3,70,0,1
97725,-90.9090909090909,4,3,2,80,0,1
98011,-90.9090909090909,4,2,3,70,0,1
98368,-90.9090909090909,4,2,3,5,0,1
98439,-90.9090909090909,4,2,3,70,0,1
98796,-90.9090909090909,4,2,3,5,0,1
98868,-90.9090909090909,4,2,3,70,0,1
99225,-90.9090909090909,4,2,3,5,0,1
99296,-90.9090909090909,4,2,3,70,0,1
99654,-90.9090909090909,4,2,3,5,0,1
99725,-90.9090909090909,4,2,3,70,0,1
100654,-90.9090909090909,4,2,3,5,0,1
100725,-90.9090909090909,4,2,3,70,0,1
101082,-90.9090909090909,4,2,3,5,0,1
101154,-90.9090909090909,4,2,3,70,0,1
101511,-90.9090909090909,4,2,3,5,0,1
101582,-90.9090909090909,4,2,3,70,0,1
102011,-90.9090909090909,4,3,2,85,0,1
102154,-90.9090909090909,4,3,2,5,0,1
102296,-90.9090909090909,4,3,2,85,0,1
102439,-90.9090909090909,4,2,1,5,0,0
103725,-200,4,2,1,40,0,0
112582,-200,4,2,1,70,0,0
112868,-125,4,2,1,70,0,0
121011,-125,4,3,2,70,0,0
121439,-125,4,3,2,80,0,0
122011,-166.666666666667,4,2,1,60,0,0
128154,-166.666666666667,4,2,1,30,0,0
128296,-166.666666666667,4,2,1,50,0,0
131154,-100,4,2,1,80,0,0
139582,-100,4,3,2,70,0,0
139725,-100,4,3,2,80,0,0
140011,-100,4,3,2,60,0,0
140296,-100,4,2,2,80,0,0
140439,-100,4,2,1,80,0,0
142296,-100,4,3,2,80,0,0
142439,-100,4,2,1,80,0,0
142582,-100,4,2,2,80,0,0
142725,-100,4,2,1,80,0,0
144296,-83.3333333333333,4,2,1,80,0,0
144868,-100,4,2,2,80,0,0
145011,-100,4,2,1,80,0,0
146868,-100,4,3,2,80,0,0
147011,-100,4,2,1,80,0,0
147154,-100,4,2,2,80,0,0
147296,-100,4,2,1,80,0,0
149154,-100,4,3,2,80,0,0
149439,-100,4,2,2,80,0,0
149582,-100,4,2,1,80,0,0
151439,-100,4,3,2,80,0,0
151582,-100,4,2,1,80,0,0
151725,-100,4,2,2,80,0,0
151868,-100,4,2,1,80,0,0
153439,-83.3333333333333,4,2,1,80,0,0
154011,-100,4,2,2,80,0,0
154154,-100,4,2,1,80,0,0
156296,-100,4,2,2,80,0,0
156439,-100,4,2,1,80,0,0
157582,-100,4,2,1,40,0,0
157725,-100,4,2,1,50,0,0
157868,-100,4,2,1,60,0,0
158011,-100,4,2,1,70,0,0
158296,-100,4,3,2,70,0,0
158582,-90.9090909090909,4,2,2,80,0,1
158725,-90.9090909090909,4,2,1,80,0,1
166582,-90.9090909090909,4,2,1,80,0,0
167725,-90.9090909090909,4,2,2,80,0,1
167796,-90.9090909090909,4,2,1,80,0,1
176296,-90.9090909090909,4,3,2,85,0,0
176582,-90.9090909090909,4,3,2,70,0,0
176725,-90.9090909090909,4,3,2,60,0,0
176868,-83.3333333333333,4,2,3,70,0,1
177225,-83.3333333333333,4,2,3,5,0,1
177297,-83.3333333333333,4,2,3,70,0,1
177654,-83.3333333333333,4,2,3,5,0,1
177725,-83.3333333333333,4,2,3,70,0,1
178083,-83.3333333333333,4,2,3,5,0,1
178154,-83.3333333333333,4,2,3,70,0,1
178511,-83.3333333333333,4,2,3,5,0,1
178583,-83.3333333333333,4,2,3,70,0,1
179511,-83.3333333333333,4,2,3,5,0,1
179583,-83.3333333333333,4,2,3,70,0,1
179940,-83.3333333333333,4,2,3,5,0,1
180011,-83.3333333333333,4,2,3,70,0,1
180368,-83.3333333333333,4,2,3,5,0,1
180440,-83.3333333333333,4,2,3,70,0,1
180797,-83.3333333333333,4,2,3,5,0,1
180868,-83.3333333333333,4,2,3,70,0,1
181154,-83.3333333333333,4,3,3,70,0,1
181439,-83.3333333333333,4,2,3,70,0,1
181797,-83.3333333333333,4,2,3,5,0,1
181868,-83.3333333333333,4,2,3,70,0,1
182225,-83.3333333333333,4,2,3,5,0,1
182297,-83.3333333333333,4,2,3,70,0,1
182654,-83.3333333333333,4,2,3,5,0,1
182725,-83.3333333333333,4,2,3,70,0,1
183083,-83.3333333333333,4,2,3,5,0,1
183154,-83.3333333333333,4,2,3,70,0,1
184083,-83.3333333333333,4,2,3,5,0,1
184154,-83.3333333333333,4,2,3,70,0,1
184511,-83.3333333333333,4,2,3,5,0,1
184583,-83.3333333333333,4,2,3,70,0,1
184940,-83.3333333333333,4,2,3,5,0,1
185011,-83.3333333333333,4,2,3,70,0,1
185439,-83.3333333333333,4,3,2,85,0,1
185582,-83.3333333333333,4,3,2,5,0,1
185725,-83.3333333333333,4,3,2,85,0,1
185868,-83.3333333333333,4,2,1,5,0,0
187154,-125,4,2,2,60,0,0
187296,-125,4,2,1,60,0,0
196011,-125,4,2,1,70,0,0
196296,-100,4,2,2,70,0,0
196439,-100,4,2,1,70,0,0
204868,-100,4,3,2,80,0,0
205011,-100,4,3,2,70,0,0
205439,-83.3333333333333,4,2,1,70,0,0
207154,-76.9230769230769,4,2,1,70,0,0
207725,-83.3333333333333,4,2,1,70,0,0
209296,-71.4285714285714,4,2,1,70,0,0
209582,-71.4285714285714,4,3,2,80,0,0
209725,-83.3333333333333,4,2,1,70,0,0
211868,-83.3333333333333,4,3,2,80,0,0
211939,-83.3333333333333,4,2,1,70,0,0
214439,-83.3333333333333,4,3,1,80,0,0
214582,-83.3333333333333,4,2,1,70,0,0
221011,-83.3333333333333,4,3,2,80,0,0
221082,-83.3333333333333,4,2,1,70,0,0
221725,-76.9230769230769,4,2,1,80,0,0
221868,-76.9230769230769,4,3,2,90,0,0
222011,-76.9230769230769,4,2,1,70,0,0
222154,-76.9230769230769,4,2,1,80,0,0
222296,-76.9230769230769,4,3,2,90,0,0
222439,-76.9230769230769,4,2,1,70,0,0
222582,-76.9230769230769,4,2,1,80,0,0
222725,-76.9230769230769,4,3,2,90,0,0
222868,-76.9230769230769,4,2,1,70,0,0
223011,-76.9230769230769,4,2,1,80,0,0
223296,-76.9230769230769,4,3,2,80,0,0
223439,-76.9230769230769,4,3,2,70,0,0
223582,-76.9230769230769,4,3,2,60,0,0
223725,-125,4,2,1,70,0,0
226011,-125,4,2,1,40,0,0
234296,-71.4285714285714,4,3,2,90,0,0
234725,-71.4285714285714,4,3,2,70,0,0
235154,-100,4,3,1,70,0,0
242296,-100,4,3,1,40,0,0
242439,-100,4,3,1,43,0,0
242582,-100,4,3,1,47,0,0
242725,-100,4,3,1,50,0,0
242868,-100,4,3,1,53,0,0
243011,-100,4,3,1,57,0,0
243154,-100,4,3,1,59,0,0
243296,-100,4,3,1,61,0,0
243439,-100,4,3,1,63,0,0
243582,-100,4,3,1,65,0,0
243725,-100,4,3,1,70,0,0
243868,-100,4,3,1,75,0,0
244011,-100,4,3,1,80,0,0
244154,-100,4,3,1,85,0,0
244296,-83.3333333333333,4,2,2,80,0,1
244439,-83.3333333333333,4,2,1,80,0,1
252296,-83.3333333333333,4,2,1,80,0,0
252439,-83.3333333333333,4,2,1,50,0,0
252511,-83.3333333333333,4,2,1,80,0,0
252582,-83.3333333333333,4,2,3,70,0,0
252654,-83.3333333333333,4,2,1,80,0,0
252725,-83.3333333333333,4,2,1,50,0,0
252868,-83.3333333333333,4,2,1,60,0,0
253154,-83.3333333333333,4,3,2,90,0,0
253439,-83.3333333333333,4,2,2,80,0,1
253511,-83.3333333333333,4,2,1,80,0,1
262296,-83.3333333333333,4,3,2,70,0,0
262582,-76.9230769230769,4,2,3,80,0,1
262939,-76.9230769230769,4,2,3,5,0,1
263011,-76.9230769230769,4,2,3,70,0,1
263368,-76.9230769230769,4,2,3,5,0,1
263439,-76.9230769230769,4,2,3,70,0,1
263797,-76.9230769230769,4,2,3,5,0,1
263868,-76.9230769230769,4,2,3,70,0,1
264225,-76.9230769230769,4,2,3,5,0,1
264297,-76.9230769230769,4,2,3,70,0,1
265225,-76.9230769230769,4,2,3,5,0,1
265297,-76.9230769230769,4,2,3,70,0,1
265654,-76.9230769230769,4,2,3,5,0,1
265725,-76.9230769230769,4,2,3,70,0,1
266082,-76.9230769230769,4,2,3,5,0,1
266154,-76.9230769230769,4,2,3,70,0,1
266511,-76.9230769230769,4,2,3,5,0,1
266582,-76.9230769230769,4,3,3,80,0,1
266654,-76.9230769230769,4,2,3,80,0,1
267154,-76.9230769230769,4,2,3,70,0,1
267511,-76.9230769230769,4,2,3,5,0,1
267582,-76.9230769230769,4,2,3,70,0,1
267939,-76.9230769230769,4,2,3,5,0,1
268011,-76.9230769230769,4,2,3,70,0,1
268368,-76.9230769230769,4,2,3,5,0,1
268439,-76.9230769230769,4,2,3,70,0,1
268797,-76.9230769230769,4,2,3,5,0,1
268868,-76.9230769230769,4,2,3,70,0,1
269797,-76.9230769230769,4,2,3,5,0,1
269868,-76.9230769230769,4,2,3,70,0,1
270225,-76.9230769230769,4,2,3,5,0,1
270297,-76.9230769230769,4,2,3,70,0,1
270654,-76.9230769230769,4,2,3,5,0,1
270725,-76.9230769230769,4,2,3,70,0,1
271154,-76.9230769230769,4,2,3,80,0,0
271725,-76.9230769230769,4,3,3,80,0,1
280296,-71.4285714285714,4,3,2,100,0,1
280582,-66.6666666666667,4,2,3,100,0,1
280868,-66.6666666666667,4,3,3,80,0,0

[Colours]
Combo1 : 224,210,205
Combo2 : 159,152,165
Combo3 : 213,101,85

[HitObjects]
13,211,20296,6,0,L|208:201,1,170.999994781494,6|2,3:2|0:0,0:0:0:0:
183,202,20868,1,0,3:0:0:0:
500,193,21154,6,0,L|366:183,1,113.999996520996,2|0,3:2|3:0,0:0:0:0:
294,180,21582,1,10,0:0:0:0:
294,180,21726,1,0,3:0:0:0:
278,335,22011,5,2,3:2:0:0:
278,335,22154,1,0,3:0:0:0:
278,335,22296,2,0,L|282:253,1,56.9999982604981,2|0,3:2|3:0,0:0:0:0:
211,106,22582,6,0,P|167:30|81:23,1,170.999994781494,6|2,3:2|0:0,0:0:0:0:
89,20,23154,1,0,3:0:0:0:
294,180,23439,6,0,P|330:137|395:120,1,113.999996520996,2|0,3:2|3:0,0:0:0:0:
480,112,23868,1,10,0:0:0:0:
480,112,24011,1,0,3:0:0:0:
450,359,24296,6,0,L|386:354,1,57,2|0,3:2|0:0,0:0:0:0:
365,335,24582,6,0,L|268:340,1,66.4999979705811,10|0,3:2|3:0,0:0:0:0:
182,289,24868,6,0,B|90:280|109:355|5:325,1,170.999994781494,6|2,3:2|0:0,0:0:0:0:
21,329,25439,1,0,3:0:0:0:
0,130,25725,6,0,B|64:129|46:183|110:182,1,113.999996520996,2|0,3:2|3:0,0:0:0:0:
200,190,26154,1,2,3:2:0:0:
200,190,26225,1,0,3:0:0:0:
200,190,26296,1,0,3:0:0:0:
251,10,26582,6,0,L|244:94,1,56.9999982604981,2|0,3:2|3:0,0:0:0:0:
297,154,26868,2,0,L|302:228,1,66.4999979705811,2|0,3:2|3:0,0:0:0:0:
446,381,27154,6,0,P|481:322|440:210,1,170.999994781494,6|2,3:2|0:0,0:0:0:0:
457,227,27725,1,0,3:0:0:0:
403,41,28011,6,0,P|379:98|406:163,1,113.999996520996,2|0,3:2|3:0,0:0:0:0:
374,233,28439,1,10,0:0:0:0:
374,233,28582,1,0,3:0:0:0:
254,358,28868,6,0,L|146:346,1,85.4999973907472,2|0,3:2|0:0,0:0:0:0:
140,369,29154,1,0,3:2:0:0:
133,277,29296,1,0,3:0:0:0:
17,229,29439,6,0,P|23:166|33:75,1,132.999995941162,6|0,3:2|3:0,0:0:0:0:
19,21,29868,1,2,0:0:0:0:
19,21,30011,2,0,P|53:44|51:87,1,66.4999979705811,0|0,3:0|0:0,0:0:0:0:
138,160,30296,6,0,P|135:112|214:76,1,132.999995941162,2|0,3:2|3:0,0:0:0:0:
289,22,30725,1,10,0:0:0:0:
289,22,30868,2,0,P|294:63|297:98,1,66.4999979705811,0|0,3:0|0:0,0:0:0:0:
475,237,31154,5,2,3:2:0:0:
475,237,31296,1,0,3:0:0:0:
475,237,31439,1,2,3:2:0:0:
227,373,31725,6,0,P|219:311|209:210,1,132.999995941162,6|0,3:2|3:0,0:0:0:0:
254,169,32154,1,2,0:0:0:0:
254,169,32296,2,0,P|261:206|250:231,1,66.4999979705811,0|0,3:0|0:0,0:0:0:0:
126,340,32582,6,0,P|54:292|57:233,1,132.999995941162,2|0,3:2|3:0,0:0:0:0:
2,165,33011,2,0,P|50:93|109:96,1,132.999995941162,10|0,0:0|0:0,0:0:0:0:
183,23,33439,6,0,P|188:58|194:104,1,66.4999979705811,2|0,3:2|3:0,0:0:0:0:
144,249,33725,1,6,3:2:0:0:
364,41,34011,6,0,P|419:37|462:105,1,132.999995941162,6|0,3:2|3:0,0:0:0:0:
497,175,34439,1,2,0:0:0:0:
497,175,34582,2,0,P|492:138|486:106,1,66.4999979705811,0|0,3:0|0:0,0:0:0:0:
392,186,34868,6,0,P|383:260|377:334,1,132.999995941162,2|0,3:2|3:0,0:0:0:0:
261,242,35296,2,0,P|270:316|276:390,1,132.999995941162,10|0,0:2|0:0,0:0:0:0:
46,343,35725,6,0,P|83:331|126:327,1,66.4999979705811,2|0,3:2|3:0,0:0:0:0:
94,227,36011,2,0,P|131:239|174:243,1,66.4999979705811,10|0,3:2|3:0,0:0:0:0:
248,128,36296,6,0,P|245:95|250:52,1,66.4999979705811,6|0,3:2|0:0,0:0:0:0:
248,128,36582,1,0,3:0:0:0:
335,79,36725,2,0,P|406:91|431:149,1,132.999995941162,2|0,0:0|0:0,0:0:0:0:
512,211,37154,2,0,P|440:223|415:281,1,132.999995941162,2|0,3:2|3:0,0:0:0:0:
323,384,37582,1,10,0:0:0:0:
323,384,37654,1,0,0:0:0:0:
323,384,37725,2,0,P|324:344|329:299,1,66.4999979705811,0|0,3:0|0:0,0:0:0:0:
198,90,38011,5,2,3:2:0:0:
96,382,38296,1,0,3:2:0:0:
96,382,38439,1,0,3:0:0:0:
96,382,38582,6,0,P|45:370|12:358,2,76,4|0|0,3:1|0:0|0:0,0:0:0:0:
203,325,39439,2,0,P|195:248|184:162,1,152,8|0,0:0|3:0,0:0:0:0:
185,174,40296,1,8,0:0:0:0:
185,174,40582,1,0,0:0:0:0:
101,22,40868,6,0,P|62:30|19:32,2,76,4|0|0,0:0|0:0|0:0,0:0:0:0:
214,62,41725,2,0,P|292:65|346:8,1,152,8|0,3:2|3:0,0:0:0:0:
499,83,42582,1,8,0:0:0:0:
499,83,42725,1,0,3:0:0:0:
499,83,42868,1,0,0:0:0:0:
406,230,43154,6,0,P|405:189|400:145,2,76,4|0|0,0:0|0:0|0:0,0:0:0:0:
375,348,44011,2,0,P|280:332|223:319,1,152,4|0,3:2|3:0,0:0:0:0:
92,357,44868,1,8,0:0:0:0:
92,357,45011,1,0,3:0:0:0:
92,357,45154,1,0,0:0:0:0:
98,204,45439,6,0,P|58:206|11:211,2,76,4|0|0,0:0|0:0|0:0,0:0:0:0:
252,176,46296,2,0,P|213:114|131:123,1,152,8|0,3:2|3:0,0:0:0:0:
44,22,47154,1,8,0:0:0:0:
44,22,47439,1,0,0:0:0:0:
221,70,47725,6,0,P|284:70|395:64,1,152,6|0,3:1|3:1,0:0:0:0:
482,187,48154,2,0,P|475:222|474:282,2,76,2|0|0,0:1|3:1|0:0,0:0:0:0:
363,166,48582,2,0,P|363:202|373:260,2,76,2|0|0,3:1|0:0|3:1,0:0:0:0:
246,205,49011,2,0,P|253:240|272:296,2,76,10|0|0,0:1|3:1|0:0,0:0:0:0:
110,59,49439,6,0,P|69:56|10:79,1,76,2|0,3:1|3:1,0:0:0:0:
213,109,49725,2,0,P|254:106|313:129,1,76,2|0,3:1|3:1,0:0:0:0:
54,164,50011,6,0,P|9:211|36:309,1,152,2|0,3:1|3:1,0:0:0:0:
138,378,50439,2,0,P|133:329|128:284,2,76,2|0|0,0:1|3:1|0:0,0:0:0:0:
246,205,50868,2,0,L|236:297,2,76,2|0|0,3:1|0:0|3:1,0:0:0:0:
348,384,51296,2,0,P|343:335|338:290,2,76,10|0|0,0:1|3:1|0:0,0:0:0:0:
510,232,51725,6,0,P|434:217|368:225,1,114,2|0,3:1|0:0,0:0:0:0:
370,189,52011,1,10,3:1:0:0:
367,174,52082,1,0,3:0:0:0:
364,158,52154,1,0,3:1:0:0:
361,143,52225,1,0,3:0:0:0:
389,120,52296,6,0,P|447:90|414:10,1,152,2|0,3:1|3:1,0:0:0:0:
277,47,52725,2,0,L|197:32,2,76,2|0|0,0:1|3:1|0:0,0:0:0:0:
100,93,53154,2,0,P|60:114|17:138,2,76,2|0|0,3:1|0:0|3:1,0:0:0:0:
39,250,53582,2,0,P|27:284|14:339,2,76,10|0|0,0:1|3:1|0:0,0:0:0:0:
278,152,54011,6,0,P|280:193|282:228,1,76,2|0,3:1|3:1,0:0:0:0:
205,370,54296,2,0,P|207:329|209:294,1,76,10|0,3:1|3:1,0:0:0:0:
389,141,54582,6,0,P|433:141|481:171,1,76,2|0,3:1|0:0,0:0:0:0:
512,75,54868,1,0,3:1:0:0:
371,47,55011,2,0,P|278:38|200:33,1,152,2|0,0:1|0:0,0:0:0:0:
115,179,55439,2,0,P|128:218|155:251,2,76,2|0|0,3:1|0:0|3:1,0:0:0:0:
43,11,55868,1,10,0:1:0:0:
43,11,56011,1,0,3:1:0:0:
321,276,56296,6,0,B|384:290|384:290|427:254|427:254|495:271,1,190,14|0,3:1|3:0,0:0:0:0:
321,276,56725,1,0,3:0:0:0:
316,155,56868,6,0,P|314:108|290:65,1,95,6|0,0:0|0:0,0:0:0:0:
291,67,57154,1,0,0:0:0:0:
179,59,57296,2,0,P|143:115|141:168,1,95,10|0,0:0|0:0,0:0:0:0:
221,200,57582,2,0,P|233:90|243:-3,1,190,2|2,0:0|0:0,0:0:0:0:
391,105,58011,5,2,0:0:0:0:
492,63,58154,1,2,3:2:0:0:
395,22,58296,1,2,0:0:0:0:
296,71,58439,1,2,0:0:0:0:
387,195,58582,6,0,B|382:237|382:237|390:258|390:258|386:314,1,104.500003189087,10|0,0:0|3:0,0:0:0:0:
395,22,58868,1,2,0:2:0:0:
285,297,59154,6,0,P|226:361|114:344,1,190,6|2,0:0|0:0,0:0:0:0:
16,243,59582,2,0,P|67:253|148:276,1,95,10|0,0:0|0:0,0:0:0:0:
203,201,59868,2,0,P|254:191|335:167,1,95,2|0,0:0|3:0,0:0:0:0:
318,76,60154,1,2,0:0:0:0:
177,20,60296,5,2,0:0:0:0:
198,98,60439,1,2,3:2:0:0:
94,217,60582,5,2,0:0:0:0:
123,77,60725,1,2,0:0:0:0:
308,174,60868,6,0,B|390:202|390:202|374:336,1,170.999994781494,10|0,0:0|0:0,0:0:0:0:
419,318,61154,1,8,0:0:0:0:
419,318,61296,1,8,0:0:0:0:
273,357,61439,6,0,P|132:327|73:311,1,190,6|0,0:0|0:0,0:0:0:0:
11,143,61868,2,0,P|22:195|30:253,1,95,10|0,0:0|0:0,0:0:0:0:
47,147,62154,2,0,P|58:95|66:37,2,95,2|0|2,0:0|3:0|0:0,0:0:0:0:
149,215,62582,6,0,P|193:186|236:150,1,95,2|0,0:0|3:2,0:0:0:0:
319,94,62868,1,2,0:0:0:0:
319,94,63011,1,2,0:0:0:0:
261,266,63154,6,0,B|277:316|277:316|325:353,1,104.500003189087,10|0,0:0|3:0,0:0:0:0:
512,264,63439,1,2,0:2:0:0:
357,18,63725,6,0,B|313:-11|249:1|211:117,1,190,6|0,0:0|0:0,0:0:0:0:
24,117,64154,2,0,B|68:88|132:100|170:216,1,190,10|0,0:0|0:0,0:0:0:0:
122,369,64582,2,0,P|68:366|1:362,1,95,2|0,3:2|0:0,0:0:0:0:
201,299,64868,5,2,0:0:0:0:
297,357,65011,1,0,3:0:0:0:
300,246,65154,1,0,0:0:0:0:
266,298,65296,5,0,0:0:0:0:
400,329,65439,1,8,0:0:0:0:
512,275,65582,1,0,3:0:0:0:
512,275,65725,5,4,0:0:0:0:
349,39,66011,5,6,0:0:0:0:
437,92,66154,1,0,0:0:0:0:
405,186,66296,1,0,0:0:0:0:
319,132,66439,2,0,P|278:104|229:76,1,95,10|0,0:0|0:0,0:0:0:0:
139,13,66725,2,0,P|157:108|177:224,1,190,2|2,0:0|0:0,0:0:0:0:
108,277,67154,5,2,0:0:0:0:
259,351,67296,1,2,3:2:0:0:
328,278,67439,1,2,0:0:0:0:
328,278,67582,1,2,0:0:0:0:
157,355,67725,6,0,P|107:349|52:338,1,95,10|0,0:0|3:0,0:0:0:0:
49,102,68011,1,2,0:2:0:0:
348,38,68296,5,6,0:0:0:0:
329,129,68439,1,0,0:0:0:0:
505,120,68582,1,2,0:0:0:0:
469,38,68725,2,0,L|363:19,1,95,10|0,0:0|0:0,0:0:0:0:
423,191,69011,2,0,P|442:307|465:389,1,190,2|2,0:0|0:0,0:0:0:0:
329,323,69439,5,2,0:0:0:0:
223,276,69582,1,2,3:2:0:0:
113,286,69725,1,2,0:0:0:0:
36,360,69868,1,2,0:0:0:0:
156,188,70011,6,0,P|168:119|93:57,1,170.999994781494,10|0,0:0|0:0,0:0:0:0:
95,17,70296,1,8,0:0:0:0:
95,17,70439,1,8,0:0:0:0:
53,200,70582,6,0,P|110:205|179:217,1,95,6|0,0:0|0:0,0:0:0:0:
330,188,70868,1,0,0:0:0:0:
296,87,71011,2,0,P|239:92|170:106,1,95,10|0,0:0|0:0,0:0:0:0:
385,16,71296,2,0,P|485:55|488:135,1,190,2|2,0:0|0:0,0:0:0:0:
362,289,71725,5,2,0:0:0:0:
400,384,71868,1,0,3:2:0:0:
434,198,72011,1,2,0:0:0:0:
469,297,72154,1,2,0:0:0:0:
255,267,72296,6,0,P|198:252|157:218,1,95,10|0,0:0|3:0,0:0:0:0:
283,6,72582,1,2,0:2:0:0:
31,79,72868,6,0,P|42:170|58:288,1,190,6|0,0:0|0:0,0:0:0:0:
245,171,73296,2,0,P|234:262|218:380,1,190,10|0,0:0|0:0,0:0:0:0:
220,359,73725,1,0,3:2:0:0:
142,68,74011,5,8,0:0:0:0:
142,68,74154,1,0,3:0:0:0:
308,96,74296,1,0,0:0:0:0:
308,96,74439,1,0,0:0:0:0:
183,283,74582,5,8,0:0:0:0:
476,377,74868,6,0,P|471:322|467:271,1,95
506,63,75154,6,0,B|392:22|429:103|282:49,1,190,6|0,0:0|3:0,0:0:0:0:
320,61,75582,1,0,0:0:0:0:
340,254,75725,2,0,P|412:251|446:138,2,190,12|0|0,0:0|3:0|0:0,0:0:0:0:
340,254,76439,1,0,3:0:0:0:
233,299,76582,1,0,0:0:0:0:
333,360,76725,1,0,3:0:0:0:
252,188,76868,6,0,P|148:182|23:172,1,190,14|0,0:0|0:0,0:0:0:0:
62,175,77296,1,0,0:0:0:0:
234,82,77439,6,0,B|288:95|357:82|385:-11,1,190,2|0,3:2|3:0,0:0:0:0:
487,4,77868,1,2,0:0:0:0:
491,166,78011,2,0,P|430:160|370:155,1,95,12|0,0:0|0:0,0:0:0:0:
331,359,78296,1,2,3:2:0:0:
331,359,78582,5,2,0:0:0:0:
439,322,78725,1,0,3:0:0:0:
330,272,78868,1,0,0:0:0:0:
226,231,79011,1,0,3:0:0:0:
281,97,79154,6,0,P|288:190|295:302,1,190,12|2,0:0|0:0,0:0:0:0:
62,384,79582,1,2,0:0:0:0:
18,293,79725,6,0,B|138:267|87:335|203:318,1,190,6|0,3:2|3:0,0:0:0:0:
290,383,80154,1,2,0:0:0:0:
364,195,80296,2,0,B|244:169|295:237|179:220,1,190,12|2,0:0|3:2,0:0:0:0:
72,184,80725,1,0,0:0:0:0:
36,3,80868,5,2,0:0:0:0:
36,3,81011,2,0,P|125:24|146:121,1,190,0|2,3:0|3:2,0:0:0:0:
263,256,81439,2,0,P|258:165|259:62,1,190,12|2,0:0|0:0,0:0:0:0:
370,8,81868,1,0,0:0:0:0:
480,181,82011,5,2,0:0:0:0:
480,181,82296,1,0,3:0:0:0:
96,171,82582,1,14,0:0:0:0:
480,181,82868,6,0,B|445:186|413:188|413:188|373:151|373:151|330:153|272:160,1,190,2|0,3:2|0:0,0:0:0:0:
195,262,83296,1,0,3:0:0:0:
195,262,83439,1,0,0:0:0:0:
195,262,83582,1,0,3:0:0:0:
40,101,83725,6,0,B|-12:168|-12:168|40:250,1,170.999994781494,12|0,0:0|0:0,0:0:0:0:
17,343,84011,1,8,0:0:0:0:
17,343,84154,1,8,0:0:0:0:
195,378,84296,6,0,B|211:272|133:297|146:191,1,190,6|0,3:2|3:0,0:0:0:0:
155,97,84725,1,2,0:0:0:0:
283,16,84868,2,0,P|273:73|268:146,1,95,12|0,0:0|0:0,0:0:0:0:
371,241,85154,2,0,P|366:190|358:124,1,95,2|0,3:2|0:0,0:0:0:0:
506,5,85439,5,2,0:0:0:0:
415,65,85582,2,0,P|406:120|399:182,1,95,0|0,3:0|0:0,0:0:0:0:
312,26,85868,1,2,3:2:0:0:
264,222,86011,2,0,P|182:180|191:73,1,190,12|2,0:0|0:0,0:0:0:0:
512,320,86582,6,0,B|402:266|423:348|296:300,1,190,2|0,3:2|3:0,0:0:0:0:
215,355,87011,1,2,0:0:0:0:
88,192,87154,2,0,P|98:276|107:385,2,190,12|2|2,0:0|3:2|0:0,0:0:0:0:
88,192,87868,1,0,3:0:0:0:
205,136,88011,1,0,0:0:0:0:
72,99,88154,1,0,3:0:0:0:
255,53,88296,6,0,P|339:66|363:175,1,190,12|2,0:0|0:0,0:0:0:0:
237,238,88725,1,2,0:0:0:0:
412,330,88868,6,0,B|447:224|368:244|399:140,1,190,6|0,3:2|3:0,0:0:0:0:
473,75,89296,1,2,0:0:0:0:
300,37,89439,2,0,P|302:83|307:147,1,95,12|0,0:0|0:0,0:0:0:0:
382,278,89725,2,0,P|384:232|389:168,1,95,2|0,3:2|0:0,0:0:0:0:
136,160,90011,5,2,0:0:0:0:
136,160,90154,2,0,P|235:190|241:283,1,190,0|2,3:0|3:2,0:0:0:0:
69,375,90582,1,12,0:0:0:0:
1,305,90725,1,0,0:0:0:0:
103,278,90868,1,2,0:0:0:0:
168,359,91011,1,2,0:0:0:0:
33,201,91154,6,0,P|25:158|20:82,1,95,2|0,0:0|0:0,0:0:0:0:
147,86,91439,2,0,P|155:129|160:205,1,95,0|2,3:0|0:0,0:0:0:0:
320,369,91725,2,0,P|262:314|303:239,1,142.5,12|0,0:0|0:0,0:0:0:0:
334,202,92011,2,0,P|326:155|301:-2,1,190,2|0,3:2|0:0,0:0:0:0:
503,228,92439,5,8,0:0:0:0:
439,161,92582,1,0,3:0:0:0:
503,228,92725,1,0,3:0:0:0:
317,347,92868,5,8,0:0:0:0:
34,116,93154,5,0,0:0:0:0:
439,167,93439,6,0,P|363:121|228:247,1,261.250007972718,4|0,3:2|0:0,0:0:0:0:
350,32,93868,2,0,P|264:53|258:237,1,261.250007972718,4|0,3:2|0:0,0:0:0:0:
193,0,94296,2,0,P|147:75|273:210,1,261.250007972718,4|0,3:2|0:0,0:0:0:0:
57,87,94725,2,0,P|78:172|262:178,1,261.250007972718,4|0,3:2|0:0,0:0:0:0:
332,253,95154,6,0,P|325:319|319:394,1,104.500003189087,4|0,3:2|0:0,0:0:0:0:
433,155,95439,2,0,P|426:88|420:14,1,104.500003189087,8|0,0:0|0:0,0:0:0:0:
27,122,95725,6,0,B|165:204|155:50|316:141,1,261.250007972718,4|0,3:2|0:0,0:0:0:0:
147,264,96154,2,0,B|229:126|75:136|166:-25,1,261.250007972718,4|0,3:2|0:0,0:0:0:0:
296,124,96582,2,0,B|153:42|163:196|25:114,1,261.250007972718,4|0,3:2|0:0,0:0:0:0:
158,6,97011,2,0,B|76:148|230:138|148:276,1,261.250007972718,4|0,3:2|0:0,0:0:0:0:
60,365,97439,5,12,3:2:0:0:
494,238,97725,5,0,0:0:0:0:
494,238,97868,1,0,0:0:0:0:
428,72,98011,6,0,P|329:65|362:209,1,261.250007972718,4|0,3:2|0:0,0:0:0:0:
254,313,98439,2,0,P|353:320|320:176,1,261.250007972718,4|0,3:2|0:0,0:0:0:0:
369,42,98868,2,0,P|275:75|364:194,1,261.250007972718,4|0,3:2|0:0,0:0:0:0:
312,342,99296,2,0,P|405:308|316:189,1,261.250007972718,4|0,3:2|0:0,0:0:0:0:
244,143,99725,5,4,3:2:0:0:
17,39,100011,5,8,0:0:0:0:
131,374,100296,6,0,P|151:287|262:127,1,261.250007972718,4|0,3:2|0:0,0:0:0:0:
165,21,100725,2,0,P|230:81|313:257,1,261.250007972718,4|0,3:2|0:0,0:0:0:0:
456,223,101154,2,0,P|370:249|176:233,1,261.250007972718,4|0,3:2|0:0,0:0:0:0:
32,323,101582,5,12,3:2:0:0:
372,41,102011,6,0,B|363:97|355:160,1,104.500003189087,0|0,3:0|0:0,0:0:0:0:
408,347,102296,2,0,B|399:291|391:228,1,104.500003189087
41,142,103725,5,4,0:1:0:0:
137,100,105154,2,0,L|139:44,2,47.5,0|0|4,0:0|0:0|0:0,0:0:0:0:
485,207,106011,5,4,0:1:0:0:
401,157,106868,1,4,0:0:0:0:
325,222,107439,2,0,L|329:277,2,47.5,0|0|4,0:0|0:0|0:0,0:0:0:0:
57,363,108296,5,4,0:1:0:0:
64,267,109154,1,4,0:0:0:0:
74,167,109725,1,0,0:0:0:0:
57,363,110011,1,4,0:0:0:0:
443,365,110582,5,4,0:1:0:0:
433,266,111439,1,4,0:0:0:0:
418,163,112011,1,4,0:0:0:0:
443,365,112582,6,0,P|425:364|404:366,1,23.75,8|0,0:0|0:0,0:0:0:0:
352,307,112725,2,0,P|334:308|313:306,1,23.75,8|0,0:0|0:0,0:0:0:0:
204,360,112868,6,0,P|130:363|47:369,1,152,6|0,3:2|3:0,0:0:0:0:
20,222,113296,1,2,0:0:0:0:
20,222,113439,2,0,P|61:239|68:289,1,76,0|0,3:0|0:0,0:0:0:0:
254,193,113725,6,0,P|328:196|411:202,1,152,2|0,3:2|3:0,0:0:0:0:
469,82,114154,1,2,0:0:0:0:
469,82,114296,1,0,3:0:0:0:
161,28,114582,5,2,3:2:0:0:
161,28,114725,1,0,0:0:0:0:
161,28,114868,1,2,3:2:0:0:
383,107,115154,6,0,P|452:111|499:201,1,152,2|0,3:2|3:0,0:0:0:0:
460,334,115582,1,2,0:0:0:0:
460,334,115725,2,0,P|455:288|447:240,1,76,0|0,3:0|0:0,0:0:0:0:
292,172,116011,6,0,P|302:252|306:327,1,152,2|0,3:2|3:0,0:0:0:0:
183,180,116439,2,0,P|193:100|197:25,1,152,2|0,0:0|0:0,0:0:0:0:
17,91,116868,2,0,P|23:141|29:192,1,76,2|0,3:2|0:0,0:0:0:0:
10,302,117154,1,2,3:2:0:0:
10,302,117296,1,0,3:0:0:0:
190,369,117439,6,0,P|257:348|269:250,1,152,2|0,3:2|3:0,0:0:0:0:
183,180,117868,1,2,0:0:0:0:
183,180,118011,2,0,P|177:129|173:82,1,76,0|0,3:0|0:0,0:0:0:0:
293,11,118296,2,0,P|287:62|283:109,1,76,2|0,3:2|0:0,0:0:0:0:
423,186,118582,5,0,3:0:0:0:
423,186,118725,1,2,0:0:0:0:
423,186,118868,2,0,P|371:191|338:163,1,76,0|0,3:0|0:0,0:0:0:0:
200,289,119154,5,2,3:2:0:0:
200,289,119296,1,4,0:0:0:0:
281,339,119439,1,2,3:2:0:0:
483,291,119725,5,2,3:2:0:0:
483,291,119868,1,0,0:0:0:0:
398,344,120011,1,0,3:0:0:0:
374,217,120154,2,0,P|379:150|392:29,1,152,2|0,0:0|0:0,0:0:0:0:
251,9,120582,2,0,P|254:49|259:103,1,76,2|0,3:2|0:0,0:0:0:0:
224,240,120868,5,0,3:0:0:0:
97,216,121011,1,0,0:0:0:0:
224,240,121154,1,0,0:0:0:0:
59,64,121439,5,0,0:0:0:0:
14,343,121725,5,0,0:0:0:0:
348,351,122011,6,0,L|357:280,1,56.9999982604981,4|0,3:1|0:0,0:0:0:0:
383,188,122296,2,0,L|317:215,1,56.9999982604981,0|8,0:0|0:0,0:0:0:0:
224,240,122582,2,0,L|280:283,1,56.9999982604981
100,337,122868,6,0,P|111:284|125:198,1,113.999996520996,0|0,3:0|0:0,0:0:0:0:
171,134,123296,2,0,P|160:81|146:-5,1,113.999996520996,0|0,3:0|3:0,0:0:0:0:
171,134,123725,1,8,3:2:0:0:
171,134,124011,1,0,0:0:0:0:
448,107,124296,6,0,P|453:148|460:185,1,56.9999982604981,4|0,3:2|0:0,0:0:0:0:
378,217,124582,2,0,P|373:188|370:160,1,56.9999982604981,0|8,0:0|0:0,0:0:0:0:
278,119,124868,2,0,P|283:160|290:197,1,56.9999982604981
358,302,125154,6,0,P|413:299|458:237,1,113.999996520996,0|0,3:0|0:0,0:0:0:0:
339,330,125582,2,0,P|287:304|220:319,1,113.999996520996,0|0,3:0|0:0,0:0:0:0:
146,337,126011,1,0,3:2:0:0:
146,337,126296,1,8,0:0:0:0:
44,125,126582,6,0,P|40:90|51:44,1,56.9999982604981,4|0,3:2|0:0,0:0:0:0:
146,20,126868,2,0,P|177:34|212:66,1,56.9999982604981,0|8,0:0|0:0,0:0:0:0:
194,170,127154,2,0,P|165:190|120:204,1,56.9999982604981
135,104,127439,6,0,P|203:104|276:111,1,113.999996520996,0|0,3:0|0:0,0:0:0:0:
337,54,127868,2,0,L|415:52,1,56.9999982604981,8|0,0:0|0:0,0:0:0:0:
458,218,128154,1,0,3:0:0:0:
458,218,128225,1,0,3:0:0:0:
458,218,128296,1,8,3:2:0:0:
483,76,128439,1,8,0:0:0:0:
425,134,128582,1,0,0:0:0:0:
512,150,128725,1,8,0:0:0:0:
458,218,128868,6,0,P|454:254|448:282,1,56.9999982604981,4|0,3:2|0:0,0:0:0:0:
350,218,129154,2,0,P|352:254|352:282,1,56.9999982604981,0|8,0:0|0:0,0:0:0:0:
252,249,129439,2,0,P|261:283|266:312,1,56.9999982604981
135,364,129725,6,0,P|162:309|141:261,1,113.999996520996,0|0,3:0|0:0,0:0:0:0:
135,364,130154,1,8,0:0:0:0:
43,78,130582,1,8,0:0:0:0:
129,51,130868,5,8,0:0:0:0:
129,51,131011,1,8,0:0:0:0:
209,93,131154,6,0,P|293:101|412:152,1,190,6|8,3:1|0:0,0:0:0:0:
499,17,131582,2,0,P|437:25|381:44,1,95,2|0,3:1|0:0,0:0:0:0:
308,0,131868,1,0,3:0:0:0:
299,142,132011,6,0,P|312:242|319:337,1,190,10|0,3:1|3:0,0:0:0:0:
500,185,132439,1,2,3:1:0:0:
500,185,132582,1,8,0:0:0:0:
158,358,132868,6,0,B|204:339|204:339|266:365,1,95,2|0,3:1|3:0,0:0:0:0:
427,317,133154,2,0,B|381:336|381:336|319:310,1,95,10|0,0:1|0:0,0:0:0:0:
242,206,133439,6,0,P|314:166|313:56,1,190,2|8,3:1|0:0,0:0:0:0:
170,1,133868,1,2,3:1:0:0:
155,105,134011,1,0,0:0:0:0:
170,1,134154,1,0,3:0:0:0:
37,114,134296,2,0,P|43:158|50:222,1,95,10|0,3:1|0:0,0:0:0:0:
37,114,134582,5,0,3:0:0:0:
140,232,134725,1,2,3:1:0:0:
60,316,134868,1,8,0:0:0:0:
410,298,135154,5,2,3:1:0:0:
410,298,135296,1,0,3:0:0:0:
294,374,135439,2,0,P|308:326|312:270,1,95,10|0,0:1|0:0,0:0:0:0:
241,169,135725,6,0,B|336:133|324:228|439:176,1,190,2|8,3:1|0:0,0:0:0:0:
500,61,136154,1,2,3:1:0:0:
431,146,136296,1,0,0:0:0:0:
402,44,136439,1,0,3:0:0:0:
257,127,136582,6,0,P|275:241|285:332,1,190,10|0,3:1|3:0,0:0:0:0:
124,372,137011,1,2,3:1:0:0:
30,320,137154,1,8,0:0:0:0:
33,64,137439,5,2,3:1:0:0:
151,26,137582,1,0,3:0:0:0:
125,147,137725,2,0,P|116:207|109:273,1,95,10|0,0:1|0:0,0:0:0:0:
259,363,138011,6,0,P|308:353|383:340,1,95,6|0,3:1|0:0,0:0:0:0:
470,367,138296,1,8,0:0:0:0:
479,228,138439,2,0,P|432:236|385:246,1,95,2|0,3:1|0:0,0:0:0:0:
278,192,138725,1,0,3:0:0:0:
358,41,138868,2,0,B|385:87|385:87|380:154,1,95,10|0,3:1|0:0,0:0:0:0:
385,246,139154,1,0,3:0:0:0:
219,294,139296,5,2,3:1:0:0:
323,337,139439,1,8,0:0:0:0:
219,294,139582,1,0,0:0:0:0:
64,368,139725,5,2,3:1:0:0:
64,368,139868,1,0,3:0:0:0:
64,368,140011,1,0,0:1:0:0:
64,368,140154,1,0,0:0:0:0:
118,290,140296,6,0,P|121:241|123:180,1,95,6|0,0:0|0:0,0:0:0:0:
39,128,140582,1,0,0:0:0:0:
139,7,140725,2,0,P|137:54|134:101,1,95,10|0,0:0|0:0,0:0:0:0:
215,229,141011,2,0,B|310:240|376:135,1,190,2|2,0:0|0:0,0:0:0:0:
376,353,141439,5,2,0:0:0:0:
408,259,141582,1,2,3:2:0:0:
376,353,141725,1,2,0:0:0:0:
316,169,141868,1,2,0:0:0:0:
245,343,142011,6,0,L|112:329,1,95,10|0,0:0|3:0,0:0:0:0:
19,229,142296,1,2,0:2:0:0:
258,13,142582,6,0,B|267:116|205:93|217:218,1,190,6|2,0:0|0:0,0:0:0:0:
29,131,143011,2,0,P|82:124|156:116,1,95,10|0,0:0|0:0,0:0:0:0:
316,169,143296,2,0,P|363:175|410:180,1,95,2|0,0:0|3:0,0:0:0:0:
512,125,143582,1,2,0:0:0:0:
438,0,143725,6,0,P|430:53|423:104,1,95,2|0,0:0|3:0,0:0:0:0:
477,237,144011,1,2,0:0:0:0:
344,299,144154,1,2,0:0:0:0:
267,159,144296,6,0,B|176:144|176:144|99:204,1,170.999994781494,10|0,0:0|0:0,0:0:0:0:
75,180,144582,1,8,0:0:0:0:
75,180,144725,1,8,0:0:0:0:
159,69,144868,5,6,0:0:0:0:
199,235,145011,1,0,0:0:0:0:
271,138,145154,1,0,0:0:0:0:
250,336,145296,6,0,P|201:328|121:316,1,95,10|0,0:0|0:0,0:0:0:0:
323,242,145582,2,0,P|397:233|531:228,1,190,2|2,0:0|0:0,0:0:0:0:
431,366,146011,5,2,0:0:0:0:
419,251,146154,1,2,3:2:0:0:
282,112,146296,5,2,0:0:0:0:
299,235,146439,1,2,0:0:0:0:
475,106,146582,6,0,P|423:95|338:91,1,95,10|0,0:0|3:0,0:0:0:0:
214,5,146868,1,2,0:2:0:0:
62,276,147154,6,0,P|145:276|181:151,1,190,6|0,0:0|0:0,0:0:0:0:
75,0,147582,2,0,P|83:93|96:196,1,190,10|0,0:0|0:0,0:0:0:0:
188,283,148011,2,0,P|187:348|190:405,1,95,2|0,3:2|0:0,0:0:0:0:
293,121,148296,5,2,0:0:0:0:
293,121,148439,1,0,3:0:0:0:
293,121,148582,1,0,0:0:0:0:
505,328,148868,5,8,0:0:0:0:
373,266,149011,1,0,3:0:0:0:
512,228,149154,1,0,0:0:0:0:
512,228,149296,1,0,0:0:0:0:
378,342,149439,5,6,0:0:0:0:
274,299,149582,1,0,0:0:0:0:
374,251,149725,1,0,0:0:0:0:
266,214,149868,6,0,P|260:168|256:90,1,95,10|0,0:0|0:0,0:0:0:0:
159,271,150154,2,0,P|86:328|10:277,1,190,2|2,0:0|0:0,0:0:0:0:
22,95,150582,5,2,0:0:0:0:
0,197,150725,1,2,3:2:0:0:
159,177,150868,1,2,0:0:0:0:
119,85,151011,1,2,0:0:0:0:
256,8,151154,6,0,P|248:66|243:119,1,95,10|0,0:0|3:0,0:0:0:0:
257,324,151439,1,2,0:2:0:0:
512,156,151725,6,0,B|405:193|434:91|302:131,1,190,6|2,0:0|0:0,0:0:0:0:
350,314,152154,2,0,P|348:267|360:209,1,95,10|0,0:0|0:0,0:0:0:0:
226,113,152439,2,0,P|240:157|245:216,1,95,2|0,0:0|3:0,0:0:0:0:
222,335,152725,1,2,0:0:0:0:
77,310,152868,5,2,0:0:0:0:
9,333,153011,1,2,3:2:0:0:
192,251,153154,1,2,0:0:0:0:
265,264,153296,1,2,0:0:0:0:
23,214,153439,6,0,L|17:42,1,170.999994781494,10|0,0:0|0:0,0:0:0:0:
61,16,153725,1,8,0:0:0:0:
61,16,153868,1,8,0:0:0:0:
224,148,154011,5,6,0:0:0:0:
225,31,154154,1,0,0:0:0:0:
126,106,154296,1,0,0:0:0:0:
221,247,154439,6,0,P|265:245|332:241,1,95,10|0,0:0|0:0,0:0:0:0:
458,192,154725,2,0,P|405:105|328:143,1,190,2|2,0:0|0:0,0:0:0:0:
417,288,155154,6,0,P|409:339|403:425,1,95,2|0,0:0|3:2,0:0:0:0:
253,350,155439,1,2,0:0:0:0:
133,242,155582,1,2,0:0:0:0:
288,199,155725,5,10,0:0:0:0:
288,199,155868,1,0,3:0:0:0:
159,85,156011,1,2,0:2:0:0:
9,361,156296,6,0,P|64:337|83:198,1,190,6|0,0:0|0:0,0:0:0:0:
106,0,156725,2,0,P|51:24|32:163,1,190,10|0,0:0|0:0,0:0:0:0:
105,336,157154,1,0,3:2:0:0:
105,336,157439,5,8,0:0:0:0:
174,271,157582,1,8,0:0:0:0:
208,358,157725,5,8,0:0:0:0:
294,275,157868,1,8,0:0:0:0:
395,377,158011,5,8,0:0:0:0:
494,125,158296,5,0,0:0:0:0:
485,122,158368,1,0,0:0:0:0:
475,119,158439,1,0,0:0:0:0:
465,116,158511,1,0,0:0:0:0:
444,86,158582,6,0,P|371:97|314:105,1,104.500003189087,6|0,3:2|0:0,0:0:0:0:
174,13,158868,2,0,P|247:24|304:32,1,104.500003189087,8|0,3:2|0:0,0:0:0:0:
95,140,159154,2,0,P|146:132|198:124,1,104.500003189087,0|0,3:0|3:0,0:0:0:0:
168,344,159439,1,8,3:2:0:0:
168,344,159582,6,0,B|52:317|133:250|-14:213,1,209.000006378174,0|0,3:0|3:0,0:0:0:0:
268,200,160011,2,0,P|259:258|241:323,1,104.500003189087,8|0,3:2|0:0,0:0:0:0:
460,369,160296,1,2,3:2:0:0:
450,273,160439,1,0,3:0:0:0:
352,282,160582,1,8,3:2:0:0:
364,384,160725,1,0,0:0:0:0:
507,175,160868,6,0,P|394:169|277:142,1,209.000006378174,6|8,3:2|3:2,0:0:0:0:
241,13,161296,2,0,P|128:19|11:46,1,209.000006378174,2|0,0:0|3:0,0:0:0:0:
215,122,161725,2,0,P|278:126|338:139,1,104.500003189087,10|0,3:2|3:0,0:0:0:0:
229,239,162011,5,2,0:0:0:0:
199,321,162154,1,0,3:0:0:0:
117,358,162296,1,8,3:2:0:0:
41,313,162439,1,0,0:0:0:0:
130,161,162582,6,0,P|121:221|114:308,1,104.500003189087,0|0,3:2|3:0,0:0:0:0:
29,105,162868,1,10,3:2:0:0:
29,105,163011,1,2,0:0:0:0:
212,31,163154,6,0,P|279:49|293:177,1,209.000006378174,6|8,3:2|3:2,0:0:0:0:
414,293,163582,2,0,P|346:275|332:147,1,209.000006378174,2|0,0:0|3:0,0:0:0:0:
427,83,164011,2,0,P|420:152|414:217,1,104.500003189087,10|0,3:2|3:0,0:0:0:0:
302,261,164296,6,0,P|304:316|307:374,1,104.500003189087,2|0,0:0|3:0,0:0:0:0:
200,198,164582,2,0,B|80:185|143:116|12:115,1,209.000006378174,10|0,3:2|3:2,0:0:0:0:
21,211,165011,1,0,3:0:0:0:
148,293,165154,1,10,3:2:0:0:
116,142,165296,1,0,0:0:0:0:
309,85,165439,6,0,P|399:77|495:176,1,209.000006378174,6|8,3:2|3:2,0:0:0:0:
260,296,165868,2,0,P|182:288|74:387,1,209.000006378174,2|2,0:0|3:2,0:0:0:0:
432,370,166296,1,10,3:2:0:0:
432,370,166439,2,0,P|362:299|376:170,1,209.000006378174,0|0,3:0|3:0,0:0:0:0:
208,74,166868,5,8,3:2:0:0:
240,159,167011,1,0,0:0:0:0:
142,167,167154,1,0,3:2:0:0:
142,250,167296,1,0,3:0:0:0:
50,237,167439,1,8,3:2:0:0:
32,321,167582,1,0,0:0:0:0:
38,140,167725,6,0,P|147:140|281:161,1,209.000006378174,6|8,3:2|3:2,0:0:0:0:
229,8,168154,2,0,P|331:26|452:92,1,209.000006378174,2|0,0:0|3:0,0:0:0:0:
393,269,168582,2,0,P|381:216|347:145,1,104.500003189087,10|0,3:2|3:0,0:0:0:0:
234,265,168868,5,2,0:0:0:0:
211,364,169011,1,0,3:0:0:0:
73,251,169154,2,0,B|177:295|168:201|285:248,1,209.000006378174,10|0,3:2|3:2,0:0:0:0:
324,348,169582,1,0,3:0:0:0:
417,234,169725,2,0,P|422:173|406:105,1,104.500003189087,10|0,3:2|0:0,0:0:0:0:
268,34,170011,6,0,P|156:26|58:18,1,209.000006378174,6|8,3:2|3:2,0:0:0:0:
12,97,170439,1,2,0:0:0:0:
104,188,170582,1,0,3:0:0:0:
209,116,170725,1,0,3:0:0:0:
179,304,170868,2,0,P|123:306|40:300,1,104.500003189087,10|0,3:2|3:0,0:0:0:0:
289,213,171154,6,0,P|340:206|408:200,1,104.500003189087,2|0,0:0|3:0,0:0:0:0:
493,378,171439,2,0,P|485:321|468:263,1,104.500003189087,8|0,3:2|0:0,0:0:0:0:
461,117,171725,2,0,P|466:70|480:5,1,104.500003189087,0|0,3:2|3:0,0:0:0:0:
315,5,172011,1,10,3:2:0:0:
315,5,172154,1,2,0:0:0:0:
193,171,172296,6,0,P|99:159|39:33,1,209.000006378174,6|8,3:2|3:2,0:0:0:0:
221,60,172725,2,0,P|214:153|220:291,1,209.000006378174,2|0,0:0|3:0,0:0:0:0:
38,367,173154,2,0,P|34:308|28:249,1,104.500003189087,10|0,3:2|3:0,0:0:0:0:
272,351,173439,6,0,B|399:319|379:406|515:378,1,209.000006378174,2|8,0:0|3:2,0:0:0:0:
509,143,173868,1,2,0:0:0:0:
459,285,174011,1,0,3:2:0:0:
410,135,174154,1,0,3:0:0:0:
228,262,174296,1,10,3:2:0:0:
365,233,174439,1,0,0:0:0:0:
152,166,174582,6,0,L|36:156,1,104.500003189087,6|0,3:2|0:0,0:0:0:0:
13,251,174868,1,8,3:2:0:0:
257,384,175011,6,0,B|270:349|278:315|278:315|253:248|253:248|255:211|279:156,1,209.000006378174,6|0,3:2|3:0,0:0:0:0:
469,66,175439,2,0,P|475:117|481:183,1,104.500003189087,10|0,3:2|0:0,0:0:0:0:
268,63,175725,5,8,3:2:0:0:
376,235,175868,1,0,3:0:0:0:
367,3,176011,5,8,3:2:0:0:
267,184,176154,1,0,3:0:0:0:
90,111,176296,1,0,0:0:0:0:
90,100,176368,1,0,0:0:0:0:
90,89,176439,1,0,0:0:0:0:
90,78,176511,1,0,0:0:0:0:
89,67,176582,1,0,0:0:0:0:
89,56,176654,1,0,0:0:0:0:
88,45,176725,1,0,0:0:0:0:
88,34,176796,1,0,0:0:0:0:
61,11,176868,6,0,B|140:3|140:3|238:72|260:208,1,284.999991302491,4|0,3:2|0:0,0:0:0:0:
320,13,177296,2,0,B|241:5|241:5|143:74|121:210,1,284.999991302491,4|0,3:2|0:0,0:0:0:0:
40,15,177725,2,0,B|119:7|119:7|217:76|239:212,1,284.999991302491,4|0,3:2|0:0,0:0:0:0:
344,16,178154,2,0,B|265:8|265:8|167:77|145:213,1,284.999991302491,4|0,3:2|0:0,0:0:0:0:
63,287,178582,6,0,P|118:278|178:277,1,113.999996520996,4|0,3:2|0:0,0:0:0:0:
323,356,178868,2,0,P|378:365|438:366,1,113.999996520996,8|0,0:0|0:0,0:0:0:0:
483,50,179154,6,0,B|396:30|329:101|329:101|393:150|365:240,1,284.999991302491,4|0,3:2|0:0,0:0:0:0:
344,16,179582,2,0,B|268:63|271:160|271:160|351:150|395:233,1,284.999991302491,4|0,3:2|0:0,0:0:0:0:
222,90,180011,2,0,B|202:177|273:244|273:244|322:180|411:207,1,284.999991302491,4|0,3:2|0:0,0:0:0:0:
188,228,180439,2,0,B|235:303|332:300|332:300|322:220|405:176,1,284.999991302491,4|0,3:2|0:0,0:0:0:0:
503,169,180868,5,12,3:2:0:0:
251,384,181154,5,0,0:0:0:0:
251,384,181296,1,0,0:0:0:0:
83,318,181439,6,0,P|56:198|175:79,1,284.999991302491,4|0,3:2|0:0,0:0:0:0:
359,220,181868,2,0,P|304:109|137:92,1,284.999991302491,4|0,3:2|0:0,0:0:0:0:
0,273,182296,2,0,P|19:151|174:85,1,284.999991302491,4|0,3:2|0:0,0:0:0:0:
393,137,182725,2,0,P|302:53|140:97,1,284.999991302491,4|0,3:2|0:0,0:0:0:0:
212,239,183154,5,4,3:2:0:0:
503,24,183439,5,8,0:0:0:0:
313,319,183725,6,0,B|243:251|256:109|256:109|304:110|334:160,1,284.999991302491,4|0,3:2|0:0,0:0:0:0:
47,147,184154,2,0,B|140:120|257:202|257:202|232:243|174:244,1,284.999991302491,4|0,3:2|0:0,0:0:0:0:
326,6,184582,2,0,B|302:100|172:160|172:160|149:118|177:67,1,284.999991302491,4|0,3:2|0:0,0:0:0:0:
109,7,185011,6,0,P|122:184|126:257,1,227.999993041992,4|0,3:2|0:0,0:0:0:0:
407,346,185439,6,0,B|417:283|417:283|393:222,1,113.999996520996,0|0,3:0|0:0,0:0:0:0:
423,38,185725,2,0,B|413:101|413:101|437:162,1,113.999996520996
100,366,187154,6,0,P|95:322|91:261,1,76,6|0,3:2|0:0,0:0:0:0:
14,219,187439,2,0,P|20:174|30:121,1,76,2|0,3:2|0:0,0:0:0:0:
62,18,187725,2,0,P|120:49|121:131,1,152,2|0,3:2|3:0,0:0:0:0:
122,128,188154,1,0,0:0:0:0:
186,224,188296,6,0,L|288:216,1,76,0|0,3:0|0:0,0:0:0:0:
311,117,188582,2,0,L|223:123,1,76,0|0,3:0|0:0,0:0:0:0:
184,248,188868,1,0,3:0:0:0:
184,248,189011,1,0,0:0:0:0:
184,248,189154,2,0,L|286:240,1,76,0|0,3:0|0:0,0:0:0:0:
371,298,189439,6,0,P|333:320|309:379,1,76,2|0,3:2|0:0,0:0:0:0:
409,203,189725,2,0,P|447:225|471:284,1,76,2|0,3:2|0:0,0:0:0:0:
488,97,190011,2,0,P|416:91|312:82,1,152,2|0,3:2|3:0,0:0:0:0:
336,84,190439,1,0,0:0:0:0:
237,7,190582,6,0,P|238:47|239:102,1,76,0|0,3:0|0:0,0:0:0:0:
154,162,190868,1,0,3:0:0:0:
154,162,191011,1,0,0:0:0:0:
154,162,191154,2,0,P|150:107|146:60,1,76,0|0,3:0|0:0,0:0:0:0:
15,21,191439,1,0,3:0:0:0:
15,21,191582,1,0,0:0:0:0:
15,21,191725,6,0,P|42:51|44:114,1,76,2|0,3:2|0:0,0:0:0:0:
154,162,192011,2,0,P|127:192|125:255,1,76,2|0,3:2|0:0,0:0:0:0:
0,323,192296,2,0,P|67:329|176:340,1,152,2|0,3:2|3:0,0:0:0:0:
151,337,192725,1,0,0:0:0:0:
251,232,192868,6,0,P|255:276|256:315,1,76,0|0,3:0|0:0,0:0:0:0:
365,300,193154,2,0,P|360:343|354:382,1,76,0|0,3:0|0:0,0:0:0:0:
490,217,193439,2,0,P|438:171|353:201,1,152,2|0,3:2|3:0,0:0:0:0:
363,189,193868,1,0,0:0:0:0:
373,43,194011,6,0,L|271:19,1,76,2|0,3:2|0:0,0:0:0:0:
221,106,194296,2,0,L|243:178,1,76,2|0,3:2|0:0,0:0:0:0:
172,9,194582,2,0,L|-8:29,1,152,2|0,3:2|3:0,0:0:0:0:
20,26,195011,1,0,0:0:0:0:
49,178,195154,6,0,P|93:172|149:158,1,76,0|0,3:0|0:0,0:0:0:0:
117,273,195439,2,0,L|209:264,1,76,0|0,3:0|0:0,0:0:0:0:
203,366,195725,2,0,L|309:369,1,76,0|0,3:0|0:0,0:0:0:0:
413,241,196011,6,0,B|351:230|351:230|300:273,1,114,8|0,3:2|0:0,0:0:0:0:
312,263,196296,6,0,P|305:210|299:165,1,95,6|0,3:2|0:0,0:0:0:0:
172,39,196582,2,0,P|178:86|184:133,1,95,10|0,3:2|3:0,0:0:0:0:
175,173,196796,1,0,3:0:0:0:
175,173,196868,2,0,P|144:179|117:183,2,47.5,2|0|0,3:2|3:0|3:0,0:0:0:0:
310,60,197154,2,0,B|363:63|363:63|413:129,1,95,8|0,3:2|0:0,0:0:0:0:
498,163,197439,6,0,L|484:286,1,95,0|0,3:2|0:0,0:0:0:0:
323,199,197725,2,0,L|337:322,1,95,8|0,3:2|3:0,0:0:0:0:
309,322,197939,1,0,3:0:0:0:
309,322,198011,2,0,P|313:349|318:388,2,47.5,0|0|0,3:2|3:0|3:0,0:0:0:0:
151,285,198296,2,0,P|95:285|36:246,1,95,8|0,3:2|0:0,0:0:0:0:
130,176,198582,6,0,P|174:167|227:156,1,95,2|0,3:2|0:0,0:0:0:0:
323,22,198868,1,10,3:2:0:0:
226,19,199011,2,0,P|229:50|237:91,1,47.5,0|0,3:0|3:0,0:0:0:0:
320,166,199154,2,0,P|318:133|316:103,1,47.5,2|0,3:2|3:0,0:0:0:0:
422,21,199296,1,0,3:0:0:0:
419,192,199439,2,0,L|515:211,1,95,8|0,3:2|0:0,0:0:0:0:
386,353,199725,6,0,P|355:323|357:253,1,95,0|0,3:2|0:0,0:0:0:0:
215,160,200011,1,8,3:2:0:0:
242,271,200154,1,0,3:0:0:0:
237,278,200225,1,0,3:0:0:0:
233,286,200296,1,0,3:2:0:0:
228,294,200368,1,0,3:0:0:0:
224,302,200439,1,0,3:0:0:0:
78,380,200582,2,0,P|100:336|89:274,1,95,8|0,3:2|0:0,0:0:0:0:
10,192,200868,6,0,P|16:134|28:64,1,95,2|0,3:2|0:0,0:0:0:0:
190,56,201154,1,10,3:2:0:0:
215,160,201296,2,0,L|207:219,1,47.5,0|0,3:0|3:0,0:0:0:0:
105,187,201439,2,0,L|111:139,1,47.5,2|0,3:2|3:0,0:0:0:0:
134,280,201582,1,0,3:0:0:0:
306,246,201725,2,0,L|324:129,1,95,8|0,3:2|0:0,0:0:0:0:
285,12,202011,6,0,P|337:18|403:26,1,95,0|0,3:2|0:0,0:0:0:0:
492,151,202296,1,8,3:2:0:0:
402,189,202439,1,0,3:0:0:0:
391,187,202511,1,0,3:0:0:0:
381,185,202582,1,2,3:2:0:0:
371,183,202654,1,0,3:0:0:0:
361,181,202725,1,0,3:0:0:0:
409,339,202868,2,0,P|456:333|503:327,1,95,8|0,3:2|0:0,0:0:0:0:
323,275,203154,6,0,P|299:326|306:388,1,95,2|0,3:2|0:0,0:0:0:0:
126,380,203439,1,10,3:2:0:0:
196,282,203582,1,0,3:0:0:0:
196,261,203654,1,0,3:0:0:0:
196,242,203725,1,2,3:2:0:0:
196,223,203796,1,0,3:0:0:0:
197,203,203868,1,0,3:0:0:0:
58,98,204011,2,0,P|82:149|75:211,1,95,8|0,3:2|0:0,0:0:0:0:
180,288,204296,1,0,3:0:0:0:
269,90,204439,5,8,3:2:0:0:
289,273,204582,1,8,3:2:0:0:
358,139,204725,1,8,3:2:0:0:
382,239,204868,1,0,0:0:0:0:
409,245,204939,1,0,0:0:0:0:
437,239,205011,1,0,0:0:0:0:
461,225,205082,1,0,0:0:0:0:
489,225,205154,1,0,0:0:0:0:
512,148,205296,1,0,0:0:0:0:
503,323,205439,6,0,P|419:286|415:155,1,227.999993041992,6|8,0:1|3:2,0:0:0:0:
269,288,205868,2,0,P|235:202|325:106,1,227.999993041992,2|0,0:1|0:0,0:0:0:0:
147,6,206296,2,0,P|154:49|160:129,1,113.999996520996,10|0,3:1|0:0,0:0:0:0:
80,293,206582,6,0,L|18:309,2,56.9999982604981,2|0|0,3:1|0:0|0:0,0:0:0:0:
79,245,206796,2,0,L|16:230,2,56.9999982604981,2|8|0,0:1|0:0|0:0,0:0:0:0:
104,201,207011,1,2,3:1:0:0:
230,371,207154,6,0,B|305:388|350:300|342:245|267:188|229:215|190:236|190:236|210:181|174:131,1,370.499983039857,2|0,0:1|0:0,0:0:0:0:
305,19,207725,6,0,L|292:149,1,113.999996520996,6|0,3:1|0:0,0:0:0:0:
305,19,208011,1,8,3:2:0:0:
448,32,208154,2,0,L|419:288,1,227.999993041992,2|0,0:1|3:0,0:0:0:0:
265,363,208582,2,0,L|278:232,1,113.999996520996,8|0,3:2|0:0,0:0:0:0:
198,81,208868,6,0,L|115:71,1,56.9999982604981,2|0,3:1|0:0,0:0:0:0:
17,71,209011,1,2,3:1:0:0:
17,71,209082,1,2,0:1:0:0:
17,71,209154,1,8,0:0:0:0:
17,71,209225,1,2,0:1:0:0:
17,71,209296,6,0,B|-7:122|8:163|8:163|48:177|64:206|64:206|19:251|65:351,1,265.999991882324,2|2,3:1|3:1,0:0:0:0:
222,160,209725,2,0,L|312:148,2,56.9999982604981,2|2|2,0:1|0:1|0:1,0:0:0:0:
146,339,210011,5,6,3:1:0:0:
178,348,210082,1,0,0:0:0:0:
212,349,210154,1,0,0:0:0:0:
245,342,210225,1,0,0:0:0:0:
277,331,210296,1,8,0:0:0:0:
311,329,210368,1,0,0:0:0:0:
344,336,210439,1,0,0:0:0:0:
373,353,210511,1,0,0:0:0:0:
397,376,210582,2,0,L|330:383,1,56.9999982604981,2|0,0:1|0:0,0:0:0:0:
272,300,210725,2,0,L|190:307,1,56.9999982604981,0|0,3:0|0:0,0:0:0:0:
405,269,210868,2,0,L|482:285,1,56.9999982604981,8|0,0:0|0:0,0:0:0:0:
275,182,211011,2,0,L|337:198,1,56.9999982604981
507,100,211154,6,0,B|448:84|448:84|381:127,1,113.999996520996,6|0,3:1|3:0,0:0:0:0:
185,109,211439,1,10,0:1:0:0:
187,91,211511,1,0,0:0:0:0:
190,74,211582,1,0,3:0:0:0:
193,57,211654,1,0,0:0:0:0:
196,37,211725,2,0,P|164:33|127:29,1,56.9999982604981
63,96,211868,2,0,P|31:92|-6:88,1,56.9999982604981
117,272,212011,1,10,0:1:0:0:
117,272,212082,1,0,0:0:0:0:
117,272,212154,1,0,0:0:0:0:
117,272,212225,1,0,0:0:0:0:
117,272,212296,6,0,P|209:205|171:97,1,227.999993041992,6|8,3:1|0:0,0:0:0:0:
280,68,212725,1,0,0:0:0:0:
444,122,212868,1,2,0:1:0:0:
375,217,213011,1,0,3:0:0:0:
264,178,213154,1,10,0:1:0:0:
386,36,213296,1,0,0:0:0:0:
348,127,213439,6,0,B|359:188|359:188|349:209|349:209|363:282|363:282|381:297|381:297|394:363,1,227.999993041992,2|8,3:1|0:0,0:0:0:0:
288,371,213868,1,0,3:0:0:0:
267,216,214011,1,0,0:0:0:0:
267,216,214154,1,0,3:0:0:0:
108,364,214296,1,8,0:0:0:0:
79,218,214439,1,0,0:0:0:0:
70,184,214511,1,0,0:0:0:0:
82,152,214582,6,0,P|159:171|103:278,1,227.999993041992,6|8,3:1|0:0,0:0:0:0:
234,78,215011,2,0,P|290:133|187:196,1,227.999993041992,2|0,0:1|3:0,0:0:0:0:
395,41,215439,2,0,P|402:78|364:156,1,113.999996520996,10|0,0:1|0:0,0:0:0:0:
426,380,215725,5,2,3:1:0:0:
426,380,215868,1,0,3:0:0:0:
409,255,216011,1,8,0:0:0:0:
251,355,216154,1,2,3:1:0:0:
251,355,216296,1,0,0:0:0:0:
301,239,216439,1,0,3:0:0:0:
118,231,216582,2,0,L|137:394,1,113.999996520996,10|0,0:1|0:0,0:0:0:0:
5,104,216868,6,0,B|140:65|107:167|253:142,1,227.999993041992,6|8,0:1|0:0,0:0:0:0:
326,0,217296,2,0,P|217:55|233:166,1,227.999993041992,2|0,0:1|3:0,0:0:0:0:
277,330,217725,2,0,P|280:273|287:190,1,113.999996520996,10|0,0:1|0:0,0:0:0:0:
414,73,218011,5,2,3:1:0:0:
453,77,218082,1,0,0:0:0:0:
492,82,218154,1,0,3:0:0:0:
439,292,218296,1,10,0:1:0:0:
467,180,218439,6,0,B|369:168|369:168|320:122|320:122|258:114,1,227.999993041992,2|0,3:1|3:0,0:0:0:0:
85,75,218868,2,0,L|13:60,3,56.9999982604981,10|2|2|0,0:1|0:1|0:1|0:0,0:0:0:0:
167,36,219154,5,6,3:1:0:0:
177,74,219225,1,0,0:0:0:0:
174,113,219296,1,0,0:0:0:0:
163,151,219368,1,0,0:0:0:0:
142,184,219439,2,0,P|108:178|66:171,1,56.9999982604981,10|0,0:1|0:0,0:0:0:0:
233,241,219582,2,0,P|267:235|309:228,1,56.9999982604981
93,328,219725,1,2,0:1:0:0:
93,328,219796,1,0,0:0:0:0:
93,328,219868,1,0,3:0:0:0:
93,328,219939,1,0,0:0:0:0:
93,328,220011,2,0,L|192:348,1,56.9999982604981,10|0,0:1|0:0,0:0:0:0:
253,360,220154,2,0,L|338:339,1,56.9999982604981
445,243,220296,5,2,3:1:0:0:
472,271,220368,1,0,0:0:0:0:
472,310,220439,1,0,3:0:0:0:
451,345,220511,1,0,0:0:0:0:
412,355,220582,2,0,P|402:318|394:289,1,56.9999982604981,10|0,0:1|0:0,0:0:0:0:
363,144,220725,2,0,L|348:71,1,56.9999982604981,0|0,3:0|0:0,0:0:0:0:
249,253,220868,2,0,L|322:238,1,56.9999982604981,2|0,0:1|0:0,0:0:0:0:
510,194,221011,2,0,L|440:210,1,56.9999982604981
241,144,221154,5,10,0:1:0:0:
208,111,221225,1,2,0:1:0:0:
201,66,221296,1,2,0:1:0:0:
228,29,221368,1,2,0:1:0:0:
280,28,221439,6,0,L|100:30,1,170.999994781494,6|0,3:1|0:0,0:0:0:0:
23,14,221725,6,0,B|1:76|1:76|47:175,1,123.499994346619,10|0,0:1|0:0,0:0:0:0:
76,214,221939,1,0,0:0:0:0:
76,214,222011,1,8,0:0:0:0:
277,150,222154,6,0,B|212:136|212:136|152:168,1,123.499994346619,10|0,0:1|0:0,0:0:0:0:
76,214,222368,1,0,0:0:0:0:
76,214,222440,1,8,0:0:0:0:
236,373,222582,5,10,0:1:0:0:
293,223,222725,1,0,0:0:0:0:
284,187,222796,1,0,0:0:0:0:
277,150,222868,1,8,0:0:0:0:
332,349,223011,1,8,0:0:0:0:
365,180,223154,1,10,0:1:0:0:
426,319,223296,1,0,0:0:0:0:
451,208,223439,1,0,0:0:0:0:
511,286,223582,1,0,0:0:0:0:
391,291,223725,5,6,3:1:0:0:
256,192,223796,12,0,225868,0:0:0:0:
166,199,226011,5,6,0:0:0:0:
379,104,228296,5,6,0:0:0:0:
107,114,230582,5,6,0:0:0:0:
398,328,232725,1,0,0:0:0:0:
398,328,232796,1,0,0:0:0:0:
398,328,232868,5,6,0:0:0:0:
90,326,234011,5,2,0:0:0:0:
166,86,234296,6,0,B|129:96|129:96|76:60|76:60|10:78,2,132.999995941162
439,95,234868,1,0,0:0:0:0:
439,95,235011,1,0,0:0:0:0:
439,95,235154,5,6,0:2:0:0:
422,191,235296,1,0,0:0:0:0:
326,220,235439,1,0,0:0:0:0:
341,122,235582,2,0,P|342:78|346:17,1,95,2|8,0:2|0:2,0:0:0:0:
237,157,235868,2,0,P|249:263|261:353,1,190,2|2,0:2|0:2,0:0:0:0:
167,383,236296,5,2,0:2:0:0:
29,288,236439,2,0,L|129:299,1,95
219,257,236725,1,0,0:0:0:0:
145,79,236868,5,10,0:2:0:0:
145,79,237011,1,0,0:0:0:0:
130,197,237154,1,2,0:2:0:0:
130,197,237296,1,0,0:0:0:0:
262,131,237439,6,0,P|307:119|354:108,1,95,6|0,0:2|0:0,0:0:0:0:
415,8,237725,1,0,0:0:0:0:
506,92,237868,1,2,0:2:0:0:
506,92,238011,1,8,0:2:0:0:
441,205,238154,2,0,B|373:282|477:311|385:416,1,190,2|10,0:2|0:2,0:0:0:0:
261,361,238582,5,2,0:2:0:0:
332,251,238725,1,8,0:2:0:0:
263,377,238868,1,0,0:0:0:0:
130,311,239011,1,0,0:0:0:0:
218,229,239154,5,10,0:2:0:0:
218,229,239296,1,0,0:0:0:0:
218,229,239439,1,0,0:2:0:0:
218,229,239582,1,0,0:0:0:0:
101,160,239725,6,0,P|48:177|-2:203,1,95,6|0,0:2|0:0,0:0:0:0:
15,64,240011,1,0,0:0:0:0:
134,20,240154,2,0,P|192:33|240:72,1,95,2|8,0:2|0:2,0:0:0:0:
300,154,240439,2,0,P|398:140|522:121,1,190,2|10,0:2|0:2,0:0:0:0:
411,1,240868,6,0,P|362:15|333:78,1,95,2|0,0:2|0:0,0:0:0:0:
300,154,241154,1,0,0:0:0:0:
300,154,241296,1,0,0:0:0:0:
300,154,241439,2,0,P|297:204|293:264,1,95,10|0,0:2|0:0,0:0:0:0:
412,379,241725,2,0,P|415:329|419:269,1,95,2|0,0:2|0:0,0:0:0:0:
206,335,242011,6,0,B|101:376|112:284|-21:340,1,190,14|8,0:2|0:2,0:0:0:0:
39,225,242439,1,8,0:2:0:0:
146,186,242582,1,8,0:2:0:0:
119,287,242725,1,8,0:2:0:0:
39,173,242868,1,8,0:2:0:0:
189,185,243011,1,8,0:2:0:0:
94,312,243154,5,8,0:2:0:0:
130,144,243296,1,8,0:2:0:0:
205,288,243439,1,8,0:2:0:0:
251,112,243582,1,8,0:2:0:0:
322,271,243725,1,8,0:2:0:0:
370,88,243868,1,8,0:2:0:0:
453,251,244011,1,8,0:2:0:0:
491,55,244154,1,8,0:2:0:0:
305,244,244296,6,0,P|234:240|196:204,1,113.999996520996,6|0,3:2|0:0,0:0:0:0:
303,38,244582,2,0,P|232:42|194:78,1,113.999996520996,8|0,3:2|0:0,0:0:0:0:
67,38,244868,2,0,P|79:119|86:199,1,113.999996520996,0|0,3:0|3:0,0:0:0:0:
63,330,245154,1,8,3:2:0:0:
63,330,245296,2,0,P|157:326|183:176,1,227.999993041992,0|0,3:0|3:0,0:0:0:0:
404,269,245725,2,0,P|403:318|397:397,1,113.999996520996,8|0,3:2|0:0,0:0:0:0:
333,172,246011,5,2,3:2:0:0:
512,194,246154,1,0,3:0:0:0:
333,172,246296,1,8,3:2:0:0:
512,194,246439,1,0,0:0:0:0:
425,49,246582,6,0,B|370:16|301:16|225:149,1,227.999993041992,6|8,3:2|3:2,0:0:0:0:
69,131,247011,2,0,B|124:164|193:164|269:31,1,227.999993041992,2|0,0:0|3:0,0:0:0:0:
434,141,247439,1,10,3:2:0:0:
385,272,247582,1,0,3:0:0:0:
202,228,247725,5,2,0:0:0:0:
304,214,247868,1,0,3:0:0:0:
282,312,248011,1,8,3:2:0:0:
385,272,248154,1,0,0:0:0:0:
316,122,248296,6,0,P|304:177|293:233,1,113.999996520996,0|0,3:2|3:0,0:0:0:0:
160,370,248582,1,10,3:2:0:0:
160,370,248725,1,2,0:0:0:0:
0,204,248868,6,0,B|123:170|90:281|214:266,1,227.999993041992,6|8,3:2|3:2,0:0:0:0:
206,39,249296,2,0,B|83:5|116:116|-8:101,1,227.999993041992,2|0,0:0|3:0,0:0:0:0:
288,216,249725,1,10,3:2:0:0:
295,83,249868,1,0,3:0:0:0:
394,153,250011,6,0,P|455:159|525:168,1,113.999996520996,2|0,0:0|3:0,0:0:0:0:
497,329,250296,2,0,P|375:320|253:307,1,227.999993041992,10|0,3:2|3:2,0:0:0:0:
194,378,250725,1,0,3:0:0:0:
127,211,250868,1,10,3:2:0:0:
89,380,251011,1,0,0:0:0:0:
19,169,251154,6,0,P|134:174|191:300,1,227.999993041992,6|8,3:2|3:2,0:0:0:0:
387,4,251582,2,0,P|272:9|215:135,1,227.999993041992,2|2,0:0|3:2,0:0:0:0:
273,326,252011,2,0,L|414:344,1,113.999996520996,10|0,3:2|3:0,0:0:0:0:
500,167,252296,5,0,1:0:0:0:
477,163,252368,1,0,1:0:0:0:
454,159,252439,1,8,1:0:0:0:
431,156,252511,1,0,1:0:0:0:
405,132,252582,5,4,1:0:0:0:
366,116,252654,1,0,1:0:0:0:
327,123,252725,1,8,1:0:0:0:
291,140,252796,1,0,1:0:0:0:
268,172,252868,1,8,1:0:0:0:
255,209,252939,1,8,1:0:0:0:
255,249,253011,1,8,1:0:0:0:
272,284,253082,1,8,1:0:0:0:
302,311,253154,1,0,1:0:0:0:
398,339,253296,1,0,0:0:0:0:
181,377,253439,6,0,P|173:293|154:129,1,227.999993041992,6|8,3:2|3:2,0:0:0:0:
0,2,253868,2,0,P|8:84|27:248,1,227.999993041992,2|0,0:0|3:0,0:0:0:0:
202,49,254296,1,10,3:2:0:0:
98,59,254439,1,0,3:0:0:0:
203,248,254582,6,0,P|277:236|343:225,1,113.999996520996,2|0,0:0|3:0,0:0:0:0:
236,352,254868,2,0,P|124:311|133:187,1,227.999993041992,10|0,3:2|3:2,0:0:0:0:
158,129,255296,1,0,3:0:0:0:
316,96,255439,2,0,P|327:152|337:228,1,113.999996520996,10|0,3:2|0:0,0:0:0:0:
441,384,255725,6,0,B|425:255|522:303|506:158,1,227.999993041992,6|8,3:2|3:2,0:0:0:0:
408,25,256154,1,2,0:0:0:0:
408,25,256296,2,0,P|417:103|421:188,1,113.999996520996,0|0,3:0|3:0,0:0:0:0:
329,290,256582,1,10,3:2:0:0:
204,174,256725,1,0,3:0:0:0:
304,103,256868,5,2,0:0:0:0:
304,206,257011,1,0,3:0:0:0:
227,282,257154,1,8,3:2:0:0:
232,384,257296,1,0,0:0:0:0:
114,249,257439,6,0,P|116:185|123:92,1,113.999996520996,0|0,3:2|3:0,0:0:0:0:
6,291,257725,1,10,3:2:0:0:
6,291,257868,1,2,0:0:0:0:
9,82,258011,6,0,B|138:68|105:156|247:128,1,227.999993041992,6|8,3:2|3:2,0:0:0:0:
446,94,258439,1,2,0:0:0:0:
319,54,258582,1,0,3:0:0:0:
339,188,258725,1,0,3:0:0:0:
461,46,258868,5,10,3:2:0:0:
269,59,259011,1,0,3:0:0:0:
353,263,259154,6,0,B|388:280|421:276|421:276|471:249|500:188|507:113,1,227.999993041992,2|8,0:0|3:2,0:0:0:0:
196,141,259582,5,2,0:0:0:0:
248,306,259725,1,0,3:2:0:0:
196,141,259868,1,0,3:0:0:0:
11,283,260011,5,10,3:2:0:0:
79,127,260154,1,0,0:0:0:0:
129,364,260296,6,0,B|244:309|243:416|387:344,1,227.999993041992,6|8,3:2|3:2,0:0:0:0:
355,46,260725,2,0,B|240:-9|241:98|97:26,1,227.999993041992,2|0,3:2|3:0,0:0:0:0:
426,261,261154,2,0,P|443:201|433:125,1,113.999996520996,10|0,3:2|0:0,0:0:0:0:
62,126,261439,5,8,0:0:0:0:
71,292,261582,1,0,3:0:0:0:
251,119,261725,5,8,0:0:0:0:
260,285,261868,1,0,3:0:0:0:
91,208,262011,5,8,0:0:0:0:
158,128,262154,1,0,3:0:0:0:
228,199,262296,1,0,0:0:0:0:
165,275,262439,1,0,0:0:0:0:
355,313,262582,6,0,B|366:231|282:202|282:202|324:104|434:129,1,308.749985866547,4|0,3:2|0:0,0:0:0:0:
230,18,263011,2,0,B|218:99|302:128|302:128|260:226|150:201,1,308.749985866547,4|0,3:2|0:0,0:0:0:0:
385,320,263439,2,0,B|370:238|282:237|282:237|291:130|403:120,1,308.749985866547,4|0,3:2|0:0,0:0:0:0:
201,10,263868,2,0,B|215:91|303:92|303:92|294:199|182:209,1,308.749985866547,4|0,3:2|0:0,0:0:0:0:
71,164,264296,6,0,P|71:106|138:49,1,123.499994346619,4|0,3:2|0:0,0:0:0:0:
103,338,264582,2,0,P|42:334|-1:292,1,123.499994346619,8|0,0:0|0:0,0:0:0:0:
218,236,264868,6,0,B|260:180|369:162|379:276|407:290|504:273,1,308.749985866547,4|0,3:2|0:0,0:0:0:0:
252,136,265296,2,0,B|311:99|419:123|386:233|407:256|503:277,1,308.749985866547,4|0,3:2|0:0,0:0:0:0:
321,56,265725,2,0,B|390:44|481:107|409:196|419:226|501:281,1,308.749985866547,4|0,3:2|0:0,0:0:0:0:
415,8,266154,2,0,B|483:23|544:115|443:171|442:202|497:284,1,308.749985866547,4|0,3:2|0:0,0:0:0:0:
381,384,266582,5,0,3:2:0:0:
381,384,266725,1,0,0:0:0:0:
168,332,266868,1,12,3:2:0:0:
125,12,267154,6,0,B|63:44|35:97|66:179|112:221|171:232|234:172,1,308.749985866547,4|0,3:2|0:0,0:0:0:0:
383,124,267582,2,0,B|351:62|298:34|216:65|174:111|163:170|223:233,1,308.749985866547,4|0,3:2|0:0,0:0:0:0:
270,382,268011,2,0,B|332:350|360:297|329:215|283:173|224:162|161:222,1,308.749985866547,4|0,3:2|0:0,0:0:0:0:
11,269,268439,2,0,B|43:331|96:359|178:328|220:282|231:223|171:160,1,308.749985866547,4|0,3:2|0:0,0:0:0:0:
220,59,268868,5,4,3:2:0:0:
398,384,269154,5,8,0:0:0:0:
376,75,269439,6,0,B|274:156|176:68|176:68|121:84|128:164,1,308.749985866547,4|0,3:2|0:0,0:0:0:0:
303,319,269868,2,0,B|283:190|408:149|408:149|421:93|349:59,1,308.749985866547,4|0,3:2|0:0,0:0:0:0:
128,134,270296,2,0,B|249:181|222:310|222:310|263:349|329:303,1,308.749985866547,4|0,3:2|0:0,0:0:0:0:
436,357,270725,6,0,P|322:364|176:373,1,246.999988693238,4|0,3:2|0:0,0:0:0:0:
4,166,271154,5,12,0:0:0:0:
512,39,271439,5,12,0:0:0:0:
98,158,271725,6,0,B|126:213|126:213|99:295,1,123.499994346619,4|0,0:2|0:0,0:0:0:0:
19,352,272011,1,0,0:0:0:0:
4,166,272154,2,0,B|87:186|87:186|152:133|152:133|264:153,1,246.999988693238,12|0,0:2|0:0,0:0:0:0:
403,60,272582,6,0,B|346:29|346:29|266:61,1,123.499994346619,4|0,0:2|0:0,0:0:0:0:
183,92,272868,1,0,0:0:0:0:
213,274,273011,2,0,B|296:254|296:254|361:307|361:307|473:287,1,246.999988693238,12|0,0:2|0:0,0:0:0:0:
178,361,273439,6,0,P|126:328|116:263,1,123.499994346619,12|0,0:2|0:0,0:0:0:0:
153,5,273725,2,0,P|101:37|91:103,1,123.499994346619,12|0,0:2|0:0,0:0:0:0:
327,235,274011,5,12,0:2:0:0:
338,120,274154,1,0,0:0:0:0:
348,8,274296,1,0,0:0:0:0:
443,184,274439,6,0,P|436:248|427:322,1,123.499994346619,12|0,0:2|0:0,0:0:0:0:
456,75,274725,1,0,0:0:0:0:
238,75,274868,5,12,0:2:0:0:
222,188,275011,1,0,0:0:0:0:
205,302,275154,1,0,0:0:0:0:
121,135,275296,6,0,P|128:75|136:-17,1,123.499994346619,12|0,0:2|0:0,0:0:0:0:
30,186,275582,1,0,0:0:0:0:
308,264,275725,5,4,0:2:0:0:
238,75,275868,1,0,0:0:0:0:
308,264,276011,1,12,0:2:0:0:
238,75,276154,1,0,0:0:0:0:
402,233,276296,5,4,0:2:0:0:
352,105,276439,1,0,0:0:0:0:
245,185,276582,1,0,0:0:0:0:
465,137,276725,6,0,P|442:68|413:-4,1,123.499994346619,12|0,0:2|0:0,0:0:0:0:
512,251,277011,1,0,0:0:0:0:
245,185,277154,5,4,0:2:0:0:
295,313,277297,1,0,0:0:0:0:
402,233,277440,1,0,0:0:0:0:
150,268,277583,6,0,P|173:337|202:409,1,123.499994346619,12|0,0:2|0:0,0:0:0:0:
101,142,277869,1,0,0:0:0:0:
330,48,278011,6,0,B|276:13|276:13|191:38,1,123.499994346619,12|0,0:2|0:0,0:0:0:0:
178,350,278296,2,0,B|232:385|232:385|317:360,1,123.499994346619,12|0,0:2|0:0,0:0:0:0:
439,124,278582,5,12,0:2:0:0:
271,188,278725,1,0,0:0:0:0:
436,260,278868,1,0,0:0:0:0:
184,0,279010,5,12,0:2:0:0:
249,168,279153,1,0,0:0:0:0:
320,3,279296,1,0,0:0:0:0:
57,251,279439,5,12,0:2:0:0:
225,186,279582,1,0,0:0:0:0:
60,115,279725,1,0,0:0:0:0:
312,383,279868,5,12,0:2:0:0:
248,215,280011,1,0,0:0:0:0:
176,380,280154,1,0,0:0:0:0:
512,189,280296,6,0,L|348:182,1,132.999995941162,0|0,0:2|0:0,0:0:0:0:
51,351,280582,6,0,B|46:282|169:222|181:303|222:340|315:288,1,285.000010871888,10|0,3:2|0:0,0:0:0:0:
