osu file format v14

[General]
AudioFilename: audio.mp3
AudioLeadIn: 0
PreviewTime: 5480
Countdown: 1
SampleSet: Soft
StackLeniency: 0.7
Mode: 3
LetterboxInBreaks: 0
SpecialStyle: 0
WidescreenStoryboard: 0

[Editor]
DistanceSpacing: 0.8
BeatDivisor: 4
GridSize: 8
TimelineZoom: 1.2

[Metadata]
Title:Destrudo
TitleUnicode:Destrudo
Artist:Yousei Teikoku
ArtistUnicode:Yousei Teikoku
Creator:sakebi
Version:sakebi
Source:
Tags:
BeatmapID:1926727
BeatmapSetID:922633

[Difficulty]
HPDrainRate:7
CircleSize:4
OverallDifficulty:7
ApproachRate:5
SliderMultiplier:1.4
SliderTickRate:1

[Events]
//Background and Video events
0,0,"backgroundimg.jpg",0,0
//Break Periods
//Storyboard Layer 0 (Background)
//Storyboard Layer 1 (Fail)
//Storyboard Layer 2 (Pass)
//Storyboard Layer 3 (Foreground)
//Storyboard Sound Samples

[TimingPoints]
647,333.333333333333,4,2,0,70,1,0
5646,-100,4,1,0,70,0,0

[HitObjects]
64,192,647,5,0,0:0:0:0:
64,192,813,1,0,0:0:0:0:
320,192,980,1,0,0:0:0:0:
448,192,980,1,0,0:0:0:0:
64,192,1146,1,0,0:0:0:0:
64,192,1480,1,0,0:0:0:0:
192,192,1813,1,0,0:0:0:0:
320,192,1813,1,0,0:0:0:0:
192,192,2146,1,0,0:0:0:0:
448,192,2313,1,0,0:0:0:0:
64,192,2480,1,0,0:0:0:0:
192,192,2646,1,0,0:0:0:0:
448,192,2646,1,0,0:0:0:0:
320,192,2980,1,0,0:0:0:0:
320,192,3146,1,0,0:0:0:0:
192,192,3313,1,0,0:0:0:0:
192,192,3480,1,0,0:0:0:0:
448,192,3646,1,0,0:0:0:0:
64,192,3646,1,0,0:0:0:0:
192,192,3813,1,0,0:0:0:0:
192,192,4146,1,0,0:0:0:0:
64,192,4480,1,0,0:0:0:0:
320,192,4480,1,0,0:0:0:0:
192,192,4813,1,0,0:0:0:0:
448,192,4980,1,0,0:0:0:0:
64,192,5146,1,0,0:0:0:0:
192,192,5313,1,0,0:0:0:0:
320,192,5313,1,0,0:0:0:0:
448,192,5646,1,0,0:0:0:0:
64,192,5646,1,0,0:0:0:0:
64,192,5813,1,0,0:0:0:0:
448,192,5813,1,0,0:0:0:0:
192,192,5980,1,0,0:0:0:0:
192,192,6146,1,0,0:0:0:0:
64,192,6313,1,0,0:0:0:0:
448,192,6313,1,0,0:0:0:0:
192,192,6480,128,0,6646:0:0:0:0:
64,192,6813,128,0,6980:0:0:0:0:
448,192,7146,128,0,7313:0:0:0:0:
64,192,7480,1,0,0:0:0:0:
192,192,7646,1,0,0:0:0:0:
320,192,7646,1,0,0:0:0:0:
64,192,7813,1,0,0:0:0:0:
64,192,8146,1,0,0:0:0:0:
320,192,8313,1,0,0:0:0:0:
192,192,8313,1,0,0:0:0:0:
64,192,8480,1,0,0:0:0:0:
320,192,8646,1,0,0:0:0:0:
320,192,8813,1,0,0:0:0:0:
448,192,8980,1,0,0:0:0:0:
192,192,8980,1,0,0:0:0:0:
320,192,9146,128,0,9313:0:0:0:0:
64,192,9480,128,0,9646:0:0:0:0:
192,192,9813,128,0,9980:0:0:0:0:
448,192,10146,1,0,0:0:0:0:
64,192,10313,1,0,0:0:0:0:
192,192,10313,1,0,0:0:0:0:
448,192,10480,1,0,0:0:0:0:
320,192,10646,1,0,0:0:0:0:
320,192,10813,1,0,0:0:0:0:
448,192,10980,1,0,0:0:0:0:
192,192,10980,1,0,0:0:0:0:
320,192,11146,1,0,0:0:0:0:
64,192,11313,1,0,0:0:0:0:
64,192,11480,1,0,0:0:0:0:
192,192,11646,1,0,0:0:0:0:
448,192,11646,1,0,0:0:0:0:
64,192,11813,128,0,11980:0:0:0:0:
448,192,12146,128,0,12313:0:0:0:0:
192,192,12480,128,0,12646:0:0:0:0:
320,192,12813,1,0,0:0:0:0:
64,192,12980,1,0,0:0:0:0:
192,192,12980,1,0,0:0:0:0:
320,192,13146,1,0,0:0:0:0:
320,192,13480,1,0,0:0:0:0:
192,192,13646,1,0,0:0:0:0:
64,192,13646,1,0,0:0:0:0:
320,192,13813,1,0,0:0:0:0:
448,192,13980,1,0,0:0:0:0:
448,192,14146,1,0,0:0:0:0:
64,192,14313,1,0,0:0:0:0:
320,192,14313,1,0,0:0:0:0:
448,192,14480,128,0,14646:0:0:0:0:
64,192,14813,128,0,14980:0:0:0:0:
320,192,15146,128,0,15313:0:0:0:0:
448,192,15480,1,0,0:0:0:0:
64,192,15646,1,0,0:0:0:0:
192,192,15646,1,0,0:0:0:0:
448,192,15813,1,0,0:0:0:0:
192,192,15980,1,0,0:0:0:0:
320,192,15980,1,0,0:0:0:0:
64,192,16146,1,0,0:0:0:0:
448,192,16313,1,0,0:0:0:0:
320,192,16480,1,0,0:0:0:0:
192,192,16646,1,0,0:0:0:0:
192,192,16813,1,0,0:0:0:0:
64,192,16980,1,0,0:0:0:0:
448,192,16980,1,0,0:0:0:0:
320,192,17146,128,0,17313:0:0:0:0:
64,192,17480,128,0,17646:0:0:0:0:
448,192,17813,128,0,17980:0:0:0:0:
192,192,18146,1,0,0:0:0:0:
64,192,18313,1,0,0:0:0:0:
448,192,18313,1,0,0:0:0:0:
192,192,18480,1,0,0:0:0:0:
192,192,18813,1,0,0:0:0:0:
64,192,18980,1,0,0:0:0:0:
448,192,18980,1,0,0:0:0:0:
192,192,19146,1,0,0:0:0:0:
320,192,19313,1,0,0:0:0:0:
320,192,19480,1,0,0:0:0:0:
64,192,19646,1,0,0:0:0:0:
192,192,19646,1,0,0:0:0:0:
448,192,19813,128,0,19980:0:0:0:0:
64,192,20146,128,0,20313:0:0:0:0:
320,192,20480,128,0,20646:0:0:0:0:
192,192,20813,1,0,0:0:0:0:
64,192,20980,1,0,0:0:0:0:
448,192,20980,1,0,0:0:0:0:
192,192,21146,1,0,0:0:0:0:
320,192,21313,1,0,0:0:0:0:
320,192,21480,1,0,0:0:0:0:
64,192,21646,1,0,0:0:0:0:
192,192,21646,1,0,0:0:0:0:
448,192,21813,1,0,0:0:0:0:
192,192,21980,1,0,0:0:0:0:
192,192,22146,1,0,0:0:0:0:
64,192,22313,1,0,0:0:0:0:
320,192,22313,1,0,0:0:0:0:
448,192,22480,128,0,22646:0:0:0:0:
64,192,22813,128,0,22980:0:0:0:0:
320,192,23146,128,0,23313:0:0:0:0:
64,192,23480,1,0,0:0:0:0:
448,192,23646,1,0,0:0:0:0:
192,192,23646,1,0,0:0:0:0:
64,192,23813,1,0,0:0:0:0:
64,192,24146,1,0,0:0:0:0:
192,192,24313,1,0,0:0:0:0:
448,192,24313,1,0,0:0:0:0:
64,192,24480,1,0,0:0:0:0:
320,192,24646,1,0,0:0:0:0:
320,192,24813,1,0,0:0:0:0:
192,192,24980,1,0,0:0:0:0:
448,192,24980,1,0,0:0:0:0:
64,192,25146,128,0,25313:0:0:0:0:
448,192,25480,128,0,25646:0:0:0:0:
192,192,25813,128,0,25980:0:0:0:0:
320,192,26146,1,0,0:0:0:0:
64,192,26313,1,0,0:0:0:0:
192,192,26313,1,0,0:0:0:0:
320,192,26480,1,0,0:0:0:0:
448,192,26646,1,0,0:0:0:0:
448,192,26813,1,0,0:0:0:0:
64,192,26980,1,0,0:0:0:0:
320,192,26980,1,0,0:0:0:0:
448,192,27146,1,0,0:0:0:0:
192,192,27313,1,0,0:0:0:0:
192,192,27480,1,0,0:0:0:0:
192,192,27646,1,0,0:0:0:0:
192,192,27813,128,0,27980:0:0:0:0:
192,192,28146,128,0,28313:0:0:0:0:
192,192,28480,128,0,28646:0:0:0:0:
320,192,28813,1,0,0:0:0:0:
448,192,28980,1,0,0:0:0:0:
320,192,29146,1,0,0:0:0:0:
64,192,29313,1,0,0:0:0:0:
192,192,29313,1,0,0:0:0:0:
320,192,29980,1,0,0:0:0:0:
320,192,30146,1,0,0:0:0:0:
320,192,30313,1,0,0:0:0:0:
320,192,30480,128,0,30646:0:0:0:0:
320,192,30813,128,0,30980:0:0:0:0:
320,192,31146,128,0,31313:0:0:0:0:
64,192,31480,1,0,0:0:0:0:
448,192,31646,1,0,0:0:0:0:
64,192,31813,1,0,0:0:0:0:
320,192,31980,1,0,0:0:0:0:
448,192,32146,1,0,0:0:0:0:
64,192,32313,1,0,0:0:0:0:
448,192,32480,1,0,0:0:0:0:
64,192,32646,1,0,0:0:0:0:
64,192,32813,1,0,0:0:0:0:
64,192,32980,1,0,0:0:0:0:
64,192,33146,128,0,33313:0:0:0:0:
64,192,33480,128,0,33646:0:0:0:0:
64,192,33813,128,0,33980:0:0:0:0:
320,192,34146,1,0,0:0:0:0:
448,192,34313,1,0,0:0:0:0:
64,192,34480,1,0,0:0:0:0:
192,192,34646,1,0,0:0:0:0:
320,192,34646,1,0,0:0:0:0:
448,192,34813,1,0,0:0:0:0:
192,192,34980,1,0,0:0:0:0:
448,192,35313,1,0,0:0:0:0:
448,192,35480,1,0,0:0:0:0:
448,192,35646,1,0,0:0:0:0:
448,192,35813,128,0,35980:0:0:0:0:
448,192,36146,128,0,36313:0:0:0:0:
448,192,36480,128,0,36646:0:0:0:0:
192,192,36813,1,0,0:0:0:0:
64,192,36980,1,0,0:0:0:0:
320,192,37146,1,0,0:0:0:0:
448,192,37313,1,0,0:0:0:0:
192,192,37313,1,0,0:0:0:0:
64,192,37480,1,0,0:0:0:0:
192,192,37563,1,0,0:0:0:0:
448,192,37646,1,0,0:0:0:0:
320,192,37730,1,0,0:0:0:0:
192,192,37813,1,0,0:0:0:0:
64,192,37896,1,0,0:0:0:0:
192,192,37980,1,0,0:0:0:0:
448,192,37980,1,0,0:0:0:0:
192,192,38146,1,0,0:0:0:0:
448,192,38146,1,0,0:0:0:0:
320,192,38313,1,0,0:0:0:0:
192,192,38480,128,0,38646:0:0:0:0:
448,192,38480,128,0,38646:0:0:0:0:
448,192,38813,128,0,38980:0:0:0:0:
192,192,38813,128,0,38980:0:0:0:0:
192,192,39146,128,0,39313:0:0:0:0:
448,192,39146,128,0,39313:0:0:0:0:
64,192,39480,1,0,0:0:0:0:
320,192,39646,1,0,0:0:0:0:
192,192,39646,1,0,0:0:0:0:
64,192,39813,1,0,0:0:0:0:
448,192,40146,1,0,0:0:0:0:
192,192,40313,1,0,0:0:0:0:
320,192,40313,1,0,0:0:0:0:
448,192,40480,1,0,0:0:0:0:
64,192,40646,1,0,0:0:0:0:
320,192,40646,1,0,0:0:0:0:
64,192,40813,1,0,0:0:0:0:
320,192,40813,1,0,0:0:0:0:
192,192,40980,1,0,0:0:0:0:
64,192,41146,128,0,41313:0:0:0:0:
320,192,41146,128,0,41313:0:0:0:0:
64,192,41480,128,0,41646:0:0:0:0:
320,192,41480,128,0,41646:0:0:0:0:
64,192,41813,128,0,41980:0:0:0:0:
320,192,41813,128,0,41980:0:0:0:0:
192,192,42146,1,0,0:0:0:0:
448,192,42313,1,0,0:0:0:0:
320,192,42313,1,0,0:0:0:0:
192,192,42480,1,0,0:0:0:0:
64,192,42646,1,0,0:0:0:0:
64,192,42813,1,0,0:0:0:0:
448,192,42980,1,0,0:0:0:0:
320,192,42980,1,0,0:0:0:0:
192,192,43146,1,0,0:0:0:0:
448,192,43313,1,0,0:0:0:0:
64,192,43313,1,0,0:0:0:0:
64,192,43480,1,0,0:0:0:0:
448,192,43480,1,0,0:0:0:0:
192,192,43646,1,0,0:0:0:0:
64,192,43813,128,0,43980:0:0:0:0:
448,192,43813,128,0,43980:0:0:0:0:
64,192,44146,128,0,44313:0:0:0:0:
448,192,44146,128,0,44313:0:0:0:0:
64,192,44480,128,0,44646:0:0:0:0:
448,192,44480,128,0,44646:0:0:0:0:
192,192,44813,1,0,0:0:0:0:
448,192,44980,1,0,0:0:0:0:
64,192,44980,1,0,0:0:0:0:
192,192,45146,1,0,0:0:0:0:
320,192,45480,1,0,0:0:0:0:
64,192,45646,1,0,0:0:0:0:
448,192,45646,1,0,0:0:0:0:
320,192,45813,1,0,0:0:0:0:
192,192,45980,1,0,0:0:0:0:
320,192,45980,1,0,0:0:0:0:
192,192,46146,1,0,0:0:0:0:
320,192,46146,1,0,0:0:0:0:
64,192,46313,1,0,0:0:0:0:
192,192,46480,128,0,46646:0:0:0:0:
320,192,46480,128,0,46646:0:0:0:0:
320,192,46813,128,0,46980:0:0:0:0:
192,192,46813,128,0,46980:0:0:0:0:
192,192,47146,128,0,47313:0:0:0:0:
320,192,47146,128,0,47313:0:0:0:0:
448,192,47480,1,0,0:0:0:0:
64,192,47646,1,0,0:0:0:0:
192,192,47646,1,0,0:0:0:0:
448,192,47813,1,0,0:0:0:0:
320,192,47980,1,0,0:0:0:0:
320,192,48146,1,0,0:0:0:0:
64,192,48313,1,0,0:0:0:0:
192,192,48313,1,0,0:0:0:0:
448,192,48480,1,0,0:0:0:0:
320,192,48563,1,0,0:0:0:0:
192,192,48646,1,0,0:0:0:0:
192,192,48813,1,0,0:0:0:0:
448,192,48980,1,0,0:0:0:0:
320,192,49146,1,0,0:0:0:0:
64,192,49313,128,0,49480:0:0:0:0:
192,192,49480,1,0,0:0:0:0:
192,192,49646,1,0,0:0:0:0:
448,192,49813,128,0,49980:0:0:0:0:
192,192,49980,1,0,0:0:0:0:
320,192,50146,128,0,50313:0:0:0:0:
192,192,50313,1,0,0:0:0:0:
192,192,50480,1,0,0:0:0:0:
320,192,50646,1,0,0:0:0:0:
320,192,50813,1,0,0:0:0:0:
64,192,50980,128,0,51146:0:0:0:0:
448,192,50980,128,0,51146:0:0:0:0:
192,192,51146,1,0,0:0:0:0:
320,192,51313,1,0,0:0:0:0:
320,192,51480,1,0,0:0:0:0:
64,192,51646,1,0,0:0:0:0:
192,192,51813,1,0,0:0:0:0:
448,192,51980,128,0,52146:0:0:0:0:
320,192,52146,1,0,0:0:0:0:
320,192,52313,1,0,0:0:0:0:
64,192,52480,128,0,52646:0:0:0:0:
320,192,52646,1,0,0:0:0:0:
192,192,52813,128,0,52980:0:0:0:0:
320,192,52980,1,0,0:0:0:0:
320,192,53146,1,0,0:0:0:0:
192,192,53313,1,0,0:0:0:0:
192,192,53480,1,0,0:0:0:0:
448,192,53646,128,0,53813:0:0:0:0:
64,192,53646,128,0,53813:0:0:0:0:
320,192,53813,1,0,0:0:0:0:
192,192,53980,1,0,0:0:0:0:
64,192,54146,1,0,0:0:0:0:
192,192,54313,1,0,0:0:0:0:
320,192,54480,1,0,0:0:0:0:
448,192,54646,128,0,54813:0:0:0:0:
320,192,54813,1,0,0:0:0:0:
192,192,54980,1,0,0:0:0:0:
320,192,55146,128,0,55313:0:0:0:0:
64,192,55313,1,0,0:0:0:0:
192,192,55480,128,0,55646:0:0:0:0:
448,192,55646,1,0,0:0:0:0:
320,192,55813,1,0,0:0:0:0:
64,192,55980,1,0,0:0:0:0:
64,192,56146,1,0,0:0:0:0:
320,192,56313,128,0,56480:0:0:0:0:
64,192,56480,1,0,0:0:0:0:
192,192,56646,1,0,0:0:0:0:
192,192,56813,1,0,0:0:0:0:
448,192,56980,1,0,0:0:0:0:
64,192,57146,1,0,0:0:0:0:
320,192,57313,128,0,57480:0:0:0:0:
192,192,57480,1,0,0:0:0:0:
64,192,57646,1,0,0:0:0:0:
448,192,57813,128,0,57980:0:0:0:0:
192,192,57980,1,0,0:0:0:0:
64,192,58146,128,0,58313:0:0:0:0:
320,192,58313,1,0,0:0:0:0:
192,192,58480,1,0,0:0:0:0:
448,192,58646,1,0,0:0:0:0:
64,192,58813,1,0,0:0:0:0:
320,192,58980,128,0,59146:0:0:0:0:
192,192,59146,1,0,0:0:0:0:
64,192,59313,1,0,0:0:0:0:
448,192,59313,1,0,0:0:0:0:
320,192,59480,1,0,0:0:0:0:
64,192,59646,1,0,0:0:0:0:
448,192,59646,1,0,0:0:0:0:
192,192,59646,1,0,0:0:0:0:
320,192,59813,1,0,0:0:0:0:
448,192,59896,1,0,0:0:0:0:
192,192,59980,1,0,0:0:0:0:
64,192,59980,1,0,0:0:0:0:
320,192,59980,1,0,0:0:0:0:
64,192,60230,1,0,0:0:0:0:
320,192,60230,1,0,0:0:0:0:
192,192,60230,1,0,0:0:0:0:
64,192,60480,1,0,0:0:0:0:
320,192,60480,1,0,0:0:0:0:
192,192,60480,1,0,0:0:0:0:
448,192,60646,1,0,0:0:0:0:
192,192,60646,1,0,0:0:0:0:
320,192,60813,1,0,0:0:0:0:
64,192,60980,1,0,0:0:0:0:
192,192,60980,1,0,0:0:0:0:
448,192,61146,1,0,0:0:0:0:
320,192,61230,1,0,0:0:0:0:
192,192,61313,1,0,0:0:0:0:
64,192,61480,1,0,0:0:0:0:
192,192,61646,1,0,0:0:0:0:
448,192,61646,1,0,0:0:0:0:
320,192,61813,1,0,0:0:0:0:
192,192,61980,1,0,0:0:0:0:
64,192,61980,1,0,0:0:0:0:
448,192,62146,1,0,0:0:0:0:
192,192,62313,1,0,0:0:0:0:
320,192,62313,1,0,0:0:0:0:
64,192,62480,1,0,0:0:0:0:
192,192,62563,1,0,0:0:0:0:
320,192,62646,1,0,0:0:0:0:
64,192,62813,1,0,0:0:0:0:
448,192,62980,1,0,0:0:0:0:
192,192,62980,1,0,0:0:0:0:
320,192,63146,1,0,0:0:0:0:
64,192,63313,128,0,63646:0:0:0:0:
192,192,63313,128,0,63646:0:0:0:0:
320,192,63646,1,0,0:0:0:0:
448,192,63646,1,0,0:0:0:0:
192,192,63813,1,0,0:0:0:0:
448,192,63980,1,0,0:0:0:0:
320,192,64063,1,0,0:0:0:0:
192,192,64146,1,0,0:0:0:0:
448,192,64313,128,0,64480:0:0:0:0:
64,192,64313,128,0,64480:0:0:0:0:
320,192,64480,1,0,0:0:0:0:
192,192,64646,128,0,64813:0:0:0:0:
320,192,64646,1,0,0:0:0:0:
64,192,64980,128,0,65146:0:0:0:0:
320,192,64980,1,0,0:0:0:0:
448,192,65313,128,0,65480:0:0:0:0:
320,192,65313,1,0,0:0:0:0:
192,192,65646,1,0,0:0:0:0:
320,192,65646,128,0,65813:0:0:0:0:
64,192,65813,1,0,0:0:0:0:
192,192,65896,1,0,0:0:0:0:
64,192,65980,1,0,0:0:0:0:
448,192,65980,128,0,66313:0:0:0:0:
320,192,65980,128,0,66313:0:0:0:0:
192,192,66313,1,0,0:0:0:0:
64,192,66313,1,0,0:0:0:0:
192,192,66480,1,0,0:0:0:0:
320,192,66646,1,0,0:0:0:0:
320,192,66813,1,0,0:0:0:0:
64,192,66980,128,0,67313:0:0:0:0:
448,192,66980,128,0,67313:0:0:0:0:
320,192,67313,1,0,0:0:0:0:
192,192,67396,1,0,0:0:0:0:
64,192,67480,1,0,0:0:0:0:
448,192,67646,1,0,0:0:0:0:
192,192,67646,1,0,0:0:0:0:
320,192,67813,1,0,0:0:0:0:
64,192,67980,1,0,0:0:0:0:
64,192,68146,1,0,0:0:0:0:
192,192,68313,128,0,68646:0:0:0:0:
448,192,68313,128,0,68646:0:0:0:0:
64,192,68646,128,0,68980:0:0:0:0:
320,192,68646,128,0,68980:0:0:0:0:
192,192,68980,1,0,0:0:0:0:
448,192,68980,1,0,0:0:0:0:
320,192,69146,1,0,0:0:0:0:
64,192,69313,1,0,0:0:0:0:
64,192,69480,1,0,0:0:0:0:
448,192,69646,128,0,69980:0:0:0:0:
192,192,69646,128,0,69980:0:0:0:0:
64,192,69980,1,0,0:0:0:0:
192,192,70063,1,0,0:0:0:0:
320,192,70146,1,0,0:0:0:0:
64,192,70313,1,0,0:0:0:0:
448,192,70313,1,0,0:0:0:0:
192,192,70480,1,0,0:0:0:0:
64,192,70646,1,0,0:0:0:0:
320,192,70646,1,0,0:0:0:0:
448,192,70813,1,0,0:0:0:0:
64,192,70980,1,0,0:0:0:0:
192,192,70980,1,0,0:0:0:0:
320,192,71146,1,0,0:0:0:0:
192,192,71230,1,0,0:0:0:0:
320,192,71313,1,0,0:0:0:0:
64,192,71313,128,0,71480:0:0:0:0:
448,192,71313,128,0,71480:0:0:0:0:
192,192,71646,1,0,0:0:0:0:
320,192,71813,128,0,72146:0:0:0:0:
64,192,72146,1,0,0:0:0:0:
448,192,72313,1,0,0:0:0:0:
192,192,72313,1,0,0:0:0:0:
320,192,72480,1,0,0:0:0:0:
64,192,72646,128,0,72980:0:0:0:0:
192,192,72980,1,0,0:0:0:0:
448,192,73146,128,0,73480:0:0:0:0:
320,192,73480,1,0,0:0:0:0:
192,192,73646,1,0,0:0:0:0:
64,192,73646,1,0,0:0:0:0:
320,192,73813,1,0,0:0:0:0:
448,192,73980,128,0,74313:0:0:0:0:
192,192,73980,128,0,74313:0:0:0:0:
320,192,74313,1,0,0:0:0:0:
64,192,74313,1,0,0:0:0:0:
448,192,74480,1,0,0:0:0:0:
320,192,74646,1,0,0:0:0:0:
320,192,74813,1,0,0:0:0:0:
192,192,74980,1,0,0:0:0:0:
448,192,74980,1,0,0:0:0:0:
64,192,75146,1,0,0:0:0:0:
320,192,75313,1,0,0:0:0:0:
448,192,75313,128,0,75480:0:0:0:0:
64,192,75646,128,0,75813:0:0:0:0:
192,192,75646,1,0,0:0:0:0:
448,192,75980,1,0,0:0:0:0:
192,192,75980,1,0,0:0:0:0:
320,192,76146,1,0,0:0:0:0:
448,192,76230,1,0,0:0:0:0:
64,192,76313,1,0,0:0:0:0:
192,192,76396,1,0,0:0:0:0:
320,192,76480,1,0,0:0:0:0:
448,192,76563,1,0,0:0:0:0:
64,192,76646,128,0,76980:0:0:0:0:
192,192,76646,128,0,76980:0:0:0:0:
320,192,76980,1,0,0:0:0:0:
448,192,76980,1,0,0:0:0:0:
320,192,77146,1,0,0:0:0:0:
448,192,77146,1,0,0:0:0:0:
192,192,77313,1,0,0:0:0:0:
192,192,77480,1,0,0:0:0:0:
64,192,77646,128,0,77980:0:0:0:0:
448,192,77646,128,0,77980:0:0:0:0:
192,192,77980,1,0,0:0:0:0:
320,192,78063,1,0,0:0:0:0:
448,192,78146,1,0,0:0:0:0:
64,192,78313,1,0,0:0:0:0:
192,192,78313,1,0,0:0:0:0:
320,192,78480,1,0,0:0:0:0:
192,192,78646,1,0,0:0:0:0:
192,192,78813,1,0,0:0:0:0:
64,192,78980,1,0,0:0:0:0:
320,192,78980,1,0,0:0:0:0:
192,192,79146,1,0,0:0:0:0:
448,192,79313,128,0,79646:0:0:0:0:
64,192,79313,128,0,79646:0:0:0:0:
192,192,79646,1,0,0:0:0:0:
320,192,79646,1,0,0:0:0:0:
64,192,79813,1,0,0:0:0:0:
320,192,79980,1,0,0:0:0:0:
320,192,80146,1,0,0:0:0:0:
192,192,80313,128,0,80646:0:0:0:0:
448,192,80313,128,0,80646:0:0:0:0:
64,192,80646,1,0,0:0:0:0:
192,192,80730,1,0,0:0:0:0:
320,192,80813,1,0,0:0:0:0:
64,192,80980,1,0,0:0:0:0:
448,192,80980,1,0,0:0:0:0:
192,192,81146,1,0,0:0:0:0:
64,192,81313,1,0,0:0:0:0:
320,192,81313,1,0,0:0:0:0:
192,192,81480,1,0,0:0:0:0:
448,192,81646,1,0,0:0:0:0:
64,192,81646,1,0,0:0:0:0:
320,192,81813,1,0,0:0:0:0:
192,192,81980,128,0,82313:0:0:0:0:
64,192,81980,128,0,82313:0:0:0:0:
320,192,82313,1,0,0:0:0:0:
448,192,82313,1,0,0:0:0:0:
192,192,82480,1,0,0:0:0:0:
64,192,82646,1,0,0:0:0:0:
64,192,82813,1,0,0:0:0:0:
192,192,82980,128,0,83313:0:0:0:0:
320,192,82980,128,0,83313:0:0:0:0:
448,192,83313,1,0,0:0:0:0:
320,192,83396,1,0,0:0:0:0:
192,192,83480,1,0,0:0:0:0:
320,192,83646,1,0,0:0:0:0:
448,192,83646,1,0,0:0:0:0:
64,192,83813,1,0,0:0:0:0:
192,192,83980,1,0,0:0:0:0:
64,192,84146,1,0,0:0:0:0:
192,192,84313,128,0,84646:0:0:0:0:
448,192,84313,128,0,84646:0:0:0:0:
320,192,84646,128,0,84980:0:0:0:0:
64,192,84646,128,0,84980:0:0:0:0:
448,192,84980,1,0,0:0:0:0:
192,192,84980,1,0,0:0:0:0:
320,192,85146,1,0,0:0:0:0:
64,192,85313,1,0,0:0:0:0:
192,192,85480,1,0,0:0:0:0:
64,192,85646,128,0,85980:0:0:0:0:
448,192,85646,128,0,85980:0:0:0:0:
320,192,85980,1,0,0:0:0:0:
192,192,86063,1,0,0:0:0:0:
64,192,86146,1,0,0:0:0:0:
320,192,86313,1,0,0:0:0:0:
448,192,86313,1,0,0:0:0:0:
192,192,86480,1,0,0:0:0:0:
64,192,86646,1,0,0:0:0:0:
192,192,86813,1,0,0:0:0:0:
64,192,86896,1,0,0:0:0:0:
448,192,86980,1,0,0:0:0:0:
320,192,87063,1,0,0:0:0:0:
192,192,87146,1,0,0:0:0:0:
64,192,87230,1,0,0:0:0:0:
320,192,87313,1,0,0:0:0:0:
448,192,87313,1,0,0:0:0:0:
320,192,87480,1,0,0:0:0:0:
192,192,87646,1,0,0:0:0:0:
64,192,87646,1,0,0:0:0:0:
320,192,87813,128,0,87980:0:0:0:0:
64,192,88146,128,0,88313:0:0:0:0:
448,192,88480,128,0,88646:0:0:0:0:
