osu file format v14

[General]
AudioFilename: audio.ogg
AudioLeadIn: 0
PreviewTime: 153660
Countdown: 0
SampleSet: Soft
StackLeniency: 0.7
Mode: 0
LetterboxInBreaks: 0
WidescreenStoryboard: 1

[Editor]
DistanceSpacing: 1
BeatDivisor: 2
GridSize: 16
TimelineZoom: 1.8

[Metadata]
Title:Deep Sea
TitleUnicode:Deep Sea
Artist:Yousei Teikoku
ArtistUnicode:妖精帝國
Creator:ent
Version:Normal
Source:
Tags:stigma electronic instrumental
BeatmapID:4010500
BeatmapSetID:1758918

[Difficulty]
HPDrainRate:4
CircleSize:3
OverallDifficulty:5
ApproachRate:6
SliderMultiplier:1
SliderTickRate:1

[Events]
//Background and Video events
0,0,"29182021_p0 1.6.jpg",0,0
//Break Periods
2,77060,86781
2,88031,97752
//Storyboard Layer 0 (Background)
//Storyboard Layer 1 (Fail)
//Storyboard Layer 2 (Pass)
//Storyboard Layer 3 (Foreground)
//Storyboard Layer 4 (Overlay)
//Storyboard Sound Samples

[TimingPoints]
60,342.857142857143,4,2,0,30,1,0
10688,-100,4,2,1,42,0,1
10774,-100,4,2,1,44,0,1
10860,-100,4,2,1,46,0,1
10945,-100,4,2,1,48,0,1
11031,-100,4,2,1,50,0,0
21831,-100,4,2,0,50,0,0
22002,-100,4,2,1,50,0,0
22860,-100,4,2,1,50,0,0
32588,-100,4,2,0,40,0,0
32802,-100,4,2,0,30,0,0
32974,-100,4,2,1,50,0,0
33831,-100,4,2,1,50,0,0
43945,-100,4,2,1,50,0,1
44631,-100,4,2,1,50,0,0
54917,-125,4,2,1,40,0,1
60402,-100,4,2,1,50,0,0
75488,-100,4,2,2,40,0,1
75831,-100,4,2,2,47,0,1
76174,-100,4,2,2,54,0,1
76517,-100,4,2,2,61,0,1
76860,-100,4,2,0,30,0,0
87831,-100,4,2,66,20,0,1
88345,-100,4,2,66,20,0,0
98802,-100,4,2,1,60,0,0
119374,-100,4,2,1,30,0,0
119545,-100,4,2,0,30,0,0
120060,-100,4,2,2,50,0,0
120745,-100,4,2,1,60,0,0
141317,-100,4,2,2,60,0,1
142002,-100,4,2,2,66,0,1
142688,-666.666666666667,4,2,0,30,0,0
144060,-666.666666666667,4,2,0,5,0,0
144231,-666.666666666667,4,2,0,30,0,0
145431,-666.666666666667,4,2,0,5,0,0
145602,-500,4,2,0,30,0,0
146117,-666.666666666667,4,2,0,5,0,0
146288,-666.666666666667,4,2,0,30,0,0
146802,-666.666666666667,4,2,0,5,0,0
146974,-666.666666666667,4,2,0,30,0,0
148174,-666.666666666667,4,2,0,5,0,0
148345,-333.333333333333,4,2,0,30,0,0
150231,-666.666666666667,4,2,0,5,0,0
150402,-666.666666666667,4,2,0,30,0,0
150917,-666.666666666667,4,2,0,15,0,0
151088,-666.666666666667,4,2,0,30,0,0
153660,-125,4,2,1,50,0,1
160002,-125,4,2,1,50,0,1
160345,-125,4,2,1,50,0,1
161202,-125,4,2,1,50,0,1
163260,-125,4,2,0,55,0,0
163602,-125,4,2,0,55,0,0
163945,-125,4,2,1,60,0,0
164288,-125,4,2,1,66,0,0
164631,-90.9090909090909,4,2,1,70,0,1
186231,-90.9090909090909,4,2,1,72,0,1
186317,-90.9090909090909,4,2,1,74,0,1
186402,-90.9090909090909,4,2,1,76,0,1
186488,-90.9090909090909,4,2,1,78,0,1
186574,-90.9090909090909,4,2,1,80,0,1
207145,-90.9090909090909,4,2,2,80,0,1
207488,-90.9090909090909,4,2,2,85,0,1
207831,-90.9090909090909,4,2,2,90,0,1
208174,-90.9090909090909,4,2,2,95,0,1
208517,-100,4,2,66,100,0,0
208688,-100,4,2,66,20,0,0
214002,-100,4,2,66,20,0,1
215374,-100,4,2,66,20,0,0

[Colours]
Combo1 : 255,255,255
Combo2 : 173,255,95
Combo3 : 255,88,100
Combo4 : 255,94,55
Combo5 : 17,254,176

[HitObjects]
256,192,5545,12,2,9488,0:0:0:0:
256,192,10688,5,10,0:0:0:0:
348,229,11031,2,0,P|407:222|458:226,1,100,4|10,1:0|1:1,0:0:0:0:
495,239,11545,1,2,1:0:0:0:
512,144,11888,1,10,1:0:0:0:
512,144,12060,1,10,1:0:0:0:
454,62,12402,1,0,1:0:0:0:
362,35,12745,1,10,1:0:0:0:
362,35,12917,2,0,P|304:48|253:44,1,100,2|10,1:1|1:1,0:0:0:0:
215,31,13431,2,0,P|160:26|124:31,1,50,10|10,0:1|0:1,0:0:0:0:
116,37,13774,5,0,1:0:0:0:
84,133,14117,2,0,P|89:167|88:201,1,50,10|2,1:0|1:0,0:0:0:0:
47,276,14631,1,10,1:0:0:0:
47,276,14802,1,10,1:0:0:0:
78,370,15145,2,0,P|128:358|196:358,1,100,0|10,1:0|1:0,0:0:0:0:
225,365,15660,2,0,P|284:367|328:347,1,100,2|10,1:0|1:0,0:0:0:0:
360,259,16345,1,10,1:0:0:0:
360,259,16517,6,0,L|350:144,1,100,0|10,1:0|1:0,0:0:0:0:
369,112,17031,1,2,1:1:0:0:
444,177,17374,2,0,L|448:226,1,50,10|10,1:0|1:0,0:0:0:0:
473,323,17888,1,0,1:0:0:0:
385,367,18231,1,10,1:0:0:0:
385,367,18402,1,2,1:0:0:0:
287,337,18745,2,0,P|237:336|189:343,1,50,10|10,1:0|1:0,0:0:0:0:
140,364,19260,6,0,P|83:350|40:308,1,100,0|10,1:0|1:0,0:0:0:0:
28,280,19774,2,0,P|22:207|45:152,1,100,2|10,1:0|1:0,0:0:0:0:
54,138,20288,1,10,1:0:0:0:
151,116,20631,1,0,1:0:0:0:
235,180,20974,1,10,1:1:0:0:
235,180,21145,2,0,P|295:180|341:159,1,100,2|10,1:1|1:0,0:0:0:0:
363,125,21660,2,0,L|357:15,1,100,10|6,1:1|1:2,0:0:0:0:
460,11,22345,21,10,1:0:0:0:
460,11,22517,2,0,L|465:110,1,100,2|10,1:0|1:0,0:0:0:0:
468,160,23031,1,10,1:0:0:0:
448,258,23374,1,0,1:0:0:0:
364,310,23717,1,10,1:0:0:0:
364,310,23888,1,2,1:0:0:0:
263,310,24231,2,0,P|225:289|190:235,1,100,10|10,1:0|1:0,0:0:0:0:
182,194,24745,5,0,1:0:0:0:
158,101,25088,1,10,1:0:0:0:
158,101,25260,1,2,1:0:0:0:
96,22,25602,2,0,P|72:12|48:7,1,50,10|10,1:0|1:0,0:0:0:0:
0,96,26117,2,0,P|-2:167|12:231,1,100,0|10,1:0|1:0,0:0:0:0:
23,240,26631,1,2,1:0:0:0:
121,223,26974,1,10,1:0:0:0:
135,322,27317,1,10,1:0:0:0:
135,322,27488,6,0,P|200:340|252:335,1,100,0|10,1:0|1:0,0:0:0:0:
281,328,28002,2,0,P|330:329|378:344,1,100,2|10,1:0|1:0,0:0:0:0:
419,374,28517,1,10,1:0:0:0:
501,317,28860,1,0,1:0:0:0:
478,219,29202,1,10,1:0:0:0:
478,219,29374,1,2,1:0:0:0:
380,196,29717,2,0,P|375:221|372:255,2,50,10|10|10,1:0|1:0|1:0,0:0:0:0:
405,152,30231,6,0,P|411:99|408:42,1,100,0|10,1:0|1:0,0:0:0:0:
377,13,30745,1,2,1:0:0:0:
282,32,31088,1,10,1:0:0:0:
282,32,31260,1,10,1:0:0:0:
186,3,31602,2,0,P|139:29|112:75,1,100,0|10,1:0|1:0,0:0:0:0:
111,117,32117,1,2,1:0:0:0:
148,209,32460,2,0,L|213:206,2,50,2|2|2,0:3|0:0|0:3,0:0:0:0:
115,246,32974,21,6,1:2:0:0:
84,341,33317,1,10,1:0:0:0:
84,341,33488,2,0,P|27:304|15:272,1,100,2|10,1:1|1:0,0:0:0:0:
15,226,34002,1,10,1:0:0:0:
44,130,34345,1,0,1:0:0:0:
139,99,34688,2,0,L|307:124,1,150,10|10,1:0|1:0,0:0:0:0:
337,126,35374,2,0,P|379:126|412:111,1,50,10|10,1:0|1:0,0:0:0:0:
426,93,35717,5,0,1:0:0:0:
494,166,36060,2,0,L|503:219,1,50,10|2,1:0|1:0,0:0:0:0:
484,318,36574,1,10,1:0:0:0:
484,318,36745,2,0,P|424:339|372:338,1,100,10|0,1:0|1:0,0:0:0:0:
301,289,37431,1,10,1:0:0:0:
301,289,37602,2,0,L|185:310,2,100,2|10|10,1:0|1:0|1:0,0:0:0:0:
335,252,38460,5,0,1:0:0:0:
313,154,38802,2,0,P|300:117|288:96,1,50,10|2,1:0|1:0,0:0:0:0:
219,41,39317,2,0,P|196:33|161:29,1,50,10|10,1:0|1:0,0:0:0:0:
71,43,39831,2,0,L|59:153,1,100,0|10,1:0|1:0,0:0:0:0:
56,192,40345,1,2,1:0:0:0:
77,289,40688,2,0,P|135:280|249:300,1,150,10|0,1:0|1:0,0:0:0:0:
299,358,41545,6,0,P|324:362|350:363,1,50,10|2,1:0|1:0,0:0:0:0:
451,345,42060,1,10,1:0:0:0:
451,345,42231,1,10,1:0:0:0:
502,259,42574,1,0,1:0:0:0:
476,162,42917,1,10,1:0:0:0:
476,162,43088,2,0,L|363:151,2,100,2|10|10,1:0|1:0|1:0,0:0:0:0:
510,125,43945,22,0,P|491:69|339:38,1,200,4|10,1:0|0:0,0:0:0:0:
323,48,44802,2,0,L|305:101,1,50,10|10,1:0|1:0,0:0:0:0:
308,195,45317,1,0,1:0:0:0:
263,286,45660,1,10,1:0:0:0:
263,286,45831,2,0,P|211:288|141:271,1,100,2|10,1:0|1:0,0:0:0:0:
122,250,46345,2,0,P|105:228|96:202,1,50,10|10,1:0|1:0,0:0:0:0:
97,157,46688,6,0,L|116:33,1,100,0|10,1:0|1:0,0:0:0:0:
87,14,47202,1,2,1:0:0:0:
14,82,47545,1,10,1:0:0:0:
14,82,47717,2,0,L|-5:206,1,100,10|0,1:0|1:0,0:0:0:0:
20,278,48402,1,10,1:0:0:0:
148,355,48917,2,0,L|167:231,1,100,10|10,1:0|1:0,0:0:0:0:
205,229,49431,5,0,1:0:0:0:
308,240,49774,1,10,1:0:0:0:
308,240,49945,2,0,P|346:257|370:279,1,50,2|10,1:0|0:0,0:0:0:0:
383,301,50288,2,0,L|390:356,1,50,10|10,1:0|1:0,0:0:0:0:
485,377,50802,2,0,P|489:303|510:233,1,100,0|10,1:0|1:0,0:0:0:0:
501,227,51317,2,0,P|492:177|491:127,1,100,2|10,1:0|1:0,0:0:0:0:
497,78,51831,1,10,1:0:0:0:
407,33,52174,5,0,1:0:0:0:
379,129,52517,1,10,1:0:0:0:
283,101,52860,1,10,0:0:0:0:
311,5,53202,1,10,1:0:0:0:
407,33,53545,2,0,P|415:78|412:141,1,100,0|10,1:0|1:0,0:0:0:0:
345,206,54231,2,0,P|337:251|340:314,1,100,10|10,0:0|1:0,0:0:0:0:
389,384,54917,22,0,P|437:375|512:382,1,120,4|0,0:0|1:2,0:0:0:0:
474,240,55945,1,2,1:2:0:0:
490,144,56288,2,0,P|483:69|477:50,2,80,0|0|8,0:0|1:0|0:0,0:0:0:0:
238,38,57660,5,0,1:0:0:0:
143,25,58002,1,2,0:0:0:0:
130,120,58345,1,8,0:0:0:0:
225,133,58688,1,0,1:0:0:0:
212,228,59031,2,0,L|192:378,2,120,2|2|2,0:0|0:0|0:0,0:0:0:0:
301,183,60402,5,4,1:2:0:0:
447,215,60917,1,2,1:0:0:0:
451,314,61260,2,0,P|447:349|425:383,1,50,10|10,1:0|1:0,0:0:0:0:
340,380,61774,2,0,P|341:319|328:263,1,100,0|10,1:0|1:0,0:0:0:0:
299,244,62288,1,2,1:0:0:0:
204,277,62631,1,10,1:0:0:0:
106,253,62974,1,10,1:0:0:0:
106,253,63145,6,0,P|83:308|73:359,2,100,0|10|10,1:0|1:0|0:0,0:0:0:0:
41,176,64174,1,10,1:0:0:0:
106,99,64517,2,0,P|83:44|73:-7,2,100,0|10|10,1:0|1:0|0:0,0:0:0:0:
151,119,65374,1,10,1:0:0:0:
246,88,65717,1,10,1:0:0:0:
246,88,65888,21,0,1:0:0:0:
394,107,66402,1,2,1:0:0:0:
375,255,66917,1,10,1:0:0:0:
277,243,67260,2,0,P|218:249|169:264,1,100,0|10,1:0|1:1,0:0:0:0:
59,350,68117,2,0,L|3:344,2,50,10|10|10,1:0|1:0|1:0,0:0:0:0:
98,382,68631,5,0,1:0:0:0:
194,356,68974,1,10,1:0:0:0:
194,356,69145,1,2,1:0:0:0:
291,376,69488,1,10,1:0:0:0:
291,376,69660,2,0,P|354:371|391:354,2,100,10|0|10,1:0|1:0|1:0,0:0:0:0:
248,231,70860,1,10,1:0:0:0:
329,172,71202,1,10,1:0:0:0:
329,172,71374,6,0,L|437:185,1,100,0|10,1:0|1:0,0:0:0:0:
472,159,71888,2,0,L|485:51,1,100,2|10,1:0|1:0,0:0:0:0:
449,22,72402,1,10,1:0:0:0:
355,58,72745,1,0,1:0:0:0:
262,18,73088,1,10,1:0:0:0:
117,57,73602,2,0,P|77:50|44:52,2,50,10|10|10,1:0|1:0|1:0,0:0:0:0:
153,91,74117,6,0,P|143:153|141:226,1,100,0|10,1:0|1:0,0:0:0:0:
156,237,74631,1,2,1:0:0:0:
110,326,74974,2,0,P|59:334|31:331,1,50,10|10,1:0|1:0,0:0:0:0:
10,247,75488,21,8,1:0:0:0:
105,218,75831,1,14,1:0:0:0:
202,239,76174,1,8,0:0:0:0:
304,213,76517,1,14,1:0:0:0:
304,213,76688,1,14,1:0:0:0:
304,213,76860,1,4,0:1:0:0:
256,192,87831,53,6,0:1:0:0:
128,356,98802,6,0,P|129:275|83:184,1,150,4|0,1:2|1:0,0:0:0:0:
17,171,99660,1,10,1:0:0:0:
17,171,99831,1,10,1:0:0:0:
98,113,100174,1,2,1:2:0:0:
198,143,100517,1,10,1:0:0:0:
198,143,100688,1,0,1:0:0:0:
282,88,101031,2,0,L|287:22,2,50,10|10|10,1:0|1:0|1:0,0:0:0:0:
313,129,101545,5,2,1:2:0:0:
412,120,101888,1,10,1:0:0:0:
497,242,102402,1,10,1:0:0:0:
497,242,102574,1,10,1:0:0:0:
445,327,102917,2,0,L|449:383,2,50,0|10|10,1:0|0:0|1:0,0:0:0:0:
410,291,103431,2,0,P|337:279|294:284,1,100,0|10,1:0|1:0,0:0:0:0:
228,337,104117,1,10,1:0:0:0:
228,337,104288,5,0,1:0:0:0:
82,299,104802,1,0,1:0:0:0:
30,213,105145,2,0,L|24:146,1,50,10|10,1:0|1:0,0:0:0:0:
33,63,105660,2,0,P|76:55|146:56,1,100,0|10,1:0|1:0,0:0:0:0:
179,70,106174,1,0,1:0:0:0:
256,133,106517,1,10,1:0:0:0:
333,70,106860,1,10,1:0:0:0:
333,70,107031,6,0,P|389:72|434:63,1,100,0|10,1:0|1:0,0:0:0:0:
481,55,107545,2,0,P|485:123|459:236,1,150,0|10,1:0|1:0,0:0:0:0:
400,274,108402,1,0,1:0:0:0:
444,363,108745,1,10,1:0:0:0:
344,359,109088,2,0,L|282:364,1,50,10|10,0:0|1:0,0:0:0:0:
252,335,109431,2,0,L|190:340,1,50,10|10,1:0|0:0,0:0:0:0:
162,369,109774,21,4,1:0:0:0:
67,336,110117,1,10,1:0:0:0:
67,336,110288,2,0,P|70:271|57:226,1,100,0|10,1:0|1:0,0:0:0:0:
21,206,110802,1,10,1:0:0:0:
107,155,111145,1,0,1:0:0:0:
182,220,111488,1,10,1:0:0:0:
182,220,111660,1,0,1:0:0:0:
261,158,112002,2,0,L|326:166,2,50,10|10|10,1:0|1:0|1:0,0:0:0:0:
223,123,112517,6,0,P|221:62|237:15,1,100,0|10,1:0|1:0,0:0:0:0:
276,2,113031,2,0,P|340:-1|410:20,1,100,0|10,1:0|1:0,0:0:0:0:
404,46,113545,1,10,1:0:0:0:
406,146,113888,1,0,1:0:0:0:
406,146,114060,1,8,0:0:0:0:
460,229,114402,2,0,L|442:350,2,100,0|10|10,1:0|1:0|1:0,0:0:0:0:
496,193,115260,5,0,1:0:0:0:
399,166,115602,1,10,1:0:0:0:
399,166,115774,1,0,1:0:0:0:
343,249,116117,1,10,1:0:0:0:
343,249,116288,1,10,1:0:0:0:
404,327,116631,2,0,P|356:349|264:310,1,150,0|0,1:0|1:0,0:0:0:0:
231,223,117488,2,0,L|238:164,2,50,10|10|10,1:0|1:0|0:0,0:0:0:0:
196,259,118002,5,0,1:0:0:0:
100,288,118345,1,10,1:0:0:0:
100,288,118517,2,0,P|43:279|7:241,1,100,0|10,1:0|1:0,0:0:0:0:
1,202,119031,1,10,1:0:0:0:
33,107,119374,21,8,1:0:0:0:
33,107,119545,1,4,1:2:0:0:
131,123,119888,1,4,1:2:0:0:
229,139,120231,1,12,1:2:0:0:
376,165,120745,5,4,1:2:0:0:
376,165,120917,2,0,P|412:115|418:68,1,100,2|0,0:1|1:0,0:0:0:0:
353,2,121602,1,10,1:0:0:0:
353,2,121774,1,10,1:0:0:0:
272,61,122117,2,0,L|201:53,2,50,0|2|10,1:0|0:1|1:0,0:0:0:0:
306,97,122631,2,0,P|303:161|277:236,1,100,0|10,1:0|1:0,0:0:0:0:
265,236,123145,2,0,L|194:244,1,50,10|10,1:0|1:0,0:0:0:0:
168,222,123488,5,0,1:0:0:0:
73,253,123831,2,0,P|56:290|58:338,1,50,10|2,1:0|1:0,0:0:0:0:
128,366,124345,2,0,P|180:368|204:359,1,50,10|10,1:0|1:0,0:0:0:0:
223,349,124688,1,10,0:0:0:0:
223,349,124860,2,0,P|276:334|360:336,1,100,0|10,1:0|1:0,0:0:0:0:
370,338,125374,2,0,L|423:347,1,50,2|10,1:0|0:0,0:0:0:0:
461,372,125717,1,10,1:0:0:0:
493,277,126060,1,10,1:0:0:0:
493,277,126231,6,0,P|492:204|473:149,1,100,0|10,1:0|1:0,0:0:0:0:
447,145,126745,1,2,1:0:0:0:
347,138,127088,1,10,1:0:0:0:
347,138,127260,1,10,1:0:0:0:
295,223,127602,1,0,1:0:0:0:
295,223,127774,1,10,0:0:0:0:
199,253,128117,1,2,1:0:0:0:
103,222,128460,2,0,P|100:191|105:106,1,100,10|10,1:0|1:0,0:0:0:0:
117,74,128974,21,2,1:0:0:0:
213,46,129317,1,10,1:0:0:0:
269,128,129660,1,10,0:0:0:0:
207,207,130002,1,10,1:0:0:0:
114,173,130345,1,2,1:0:0:0:
52,252,130688,1,10,1:0:0:0:
108,334,131031,1,10,0:0:0:0:
204,306,131374,1,10,1:0:0:0:
207,207,131717,6,0,P|261:175|319:167,1,100,0|10,1:0|1:0,0:0:0:0:
347,166,132231,2,0,P|420:184|457:222,1,100,2|10,1:0|1:0,0:0:0:0:
454,246,132745,2,0,L|456:307,1,50,10|10,1:0|0:0,0:0:0:0:
435,342,133088,1,0,1:0:0:0:
435,342,133260,1,2,0:1:0:0:
336,355,133602,1,2,1:0:0:0:
273,277,133945,2,0,L|208:280,2,50,10|10|10,1:0|1:0|1:0,0:0:0:0:
312,245,134460,6,0,P|320:188|302:116,1,100,0|10,1:0|1:0,0:0:0:0:
286,104,134974,1,2,1:0:0:0:
365,42,135317,1,10,1:0:0:0:
365,42,135488,2,0,P|417:48|472:41,1,100,10|0,1:0|1:0,0:0:0:0:
504,134,136174,1,10,1:0:0:0:
504,134,136345,1,2,1:0:0:0:
438,209,136688,2,0,P|427:264|427:316,1,100,10|10,1:0|1:0,0:0:0:0:
448,352,137202,5,0,1:0:0:0:
349,369,137545,1,10,1:0:0:0:
349,369,137717,1,2,1:0:0:0:
289,288,138060,2,0,P|286:218|295:157,1,100,10|10,1:0|0:0,0:0:0:0:
307,141,138574,2,0,P|308:108|302:76,1,50,0|10,1:0|0:0,0:0:0:0:
256,0,139088,1,2,1:0:0:0:
183,69,139431,2,0,L|120:64,2,50,10|10|10,1:0|1:0|1:0,0:0:0:0:
214,108,139945,21,0,1:0:0:0:
237,205,140288,1,10,1:0:0:0:
151,256,140631,1,10,0:0:0:0:
75,191,140974,1,10,1:0:0:0:
115,100,141317,1,10,1:2:0:0:
115,100,141488,1,8,0:0:0:0:
214,108,141831,1,10,1:2:0:0:
237,205,142174,1,14,1:0:0:0:
237,205,142345,1,14,1:0:0:0:
151,256,142688,5,4,0:1:0:0:
256,192,142860,12,4,153660,0:0:0:0:
256,192,154345,6,0,P|288:194|346:179,1,80,8|2,0:0|1:2,0:0:0:0:
414,129,155031,1,0,0:0:0:0:
485,194,155374,2,0,P|492:254|490:282,1,80,2|8,1:2|0:0,0:0:0:0:
481,320,155888,1,2,1:1:0:0:
347,372,156402,2,0,L|172:362,1,160,2|10,1:2|0:0,0:0:0:0:
91,354,157431,2,0,P|51:321|40:268,1,80,2|2,1:2|1:2,0:0:0:0:
48,199,158117,1,2,1:2:0:0:
127,145,158460,1,10,0:0:0:0:
202,204,158802,1,2,0:0:0:0:
281,150,159144,5,2,1:2:0:0:
254,58,159488,1,2,0:0:0:0:
254,58,159660,2,0,P|180:45|139:42,2,80,2|2|2,1:2|0:0|0:0,0:0:0:0:
393,20,160860,1,2,1:2:0:0:
474,69,161202,2,0,P|466:125|470:168,1,80,8|2,0:0|0:0,0:0:0:0:
491,241,161888,21,2,1:2:0:0:
474,335,162231,1,2,0:0:0:0:
380,318,162574,1,10,0:0:0:0:
397,224,162917,1,2,1:2:0:0:
303,207,163260,1,10,0:0:0:0:
112,224,163945,1,8,0:0:0:0:
18,203,164288,1,8,1:2:0:0:
6,93,164631,6,0,P|74:68|127:68,1,110.000003356934,4|10,1:2|1:0,0:0:0:0:
139,18,165145,2,0,P|205:28|252:59,1,110.000003356934,2|10,1:3|1:0,0:0:0:0:
295,38,165660,2,0,P|313:82|315:114,1,55.0000016784668,10|10,1:0|1:0,0:0:0:0:
309,143,166002,1,2,1:3:0:0:
332,250,166345,1,10,1:0:0:0:
332,250,166517,1,2,1:3:0:0:
440,265,166860,1,10,1:0:0:0:
472,221,167031,1,10,1:0:0:0:
477,166,167202,1,10,1:0:0:0:
458,113,167374,6,0,L|321:105,1,110.000003356934,2|10,1:3|1:0,0:0:0:0:
302,137,167888,1,2,1:3:0:0:
203,88,168231,1,10,1:0:0:0:
203,88,168402,2,0,L|142:96,1,55.0000016784668,10|10,1:0|1:0,0:0:0:0:
95,80,168745,1,2,1:3:0:0:
95,80,168917,2,0,P|39:94|7:140,1,110.000003356934,2|2,1:0|1:3,0:0:0:0:
22,243,169602,2,0,L|84:248,1,55.0000016784668,10|10,1:0|1:0,0:0:0:0:
131,253,169945,1,10,1:0:0:0:
185,259,170117,5,2,1:3:0:0:
243,104,170631,1,2,1:3:0:0:
398,162,171145,1,10,1:0:0:0:
415,212,171317,1,10,1:0:0:0:
416,266,171488,2,0,L|401:384,1,110.000003356934,2|10,1:3|1:0,0:0:0:0:
347,382,172002,2,0,L|229:367,1,110.000003356934,2|10,1:3|1:0,0:0:0:0:
182,360,172517,1,10,1:0:0:0:
127,353,172688,1,10,1:0:0:0:
72,346,172860,21,2,1:3:0:0:
24,246,173202,1,10,1:0:0:0:
23,190,173374,2,0,P|39:129|85:71,1,110.000003356934,2|10,1:3|1:0,0:0:0:0:
113,64,173888,2,0,L|197:63,1,55.0000016784668,10|10,1:0|1:0,0:0:0:0:
223,64,174231,1,2,1:3:0:0:
301,147,174574,1,10,1:0:0:0:
301,147,174745,1,2,1:3:0:0:
396,89,175088,1,10,1:0:0:0:
450,83,175260,2,0,P|488:103|517:129,1,55.0000016784668,10|10,1:0|1:0,0:0:0:0:
504,164,175602,6,0,P|496:218|502:299,1,110.000003356934,4|10,1:0|1:0,0:0:0:0:
509,327,176117,1,2,1:3:0:0:
405,357,176460,1,10,1:0:0:0:
405,357,176631,1,10,1:0:0:0:
306,308,176974,1,2,1:3:0:0:
287,256,177145,1,2,1:0:0:0:
291,201,177317,2,0,L|299:139,1,55.0000016784668,10|2,1:0|1:3,0:0:0:0:
347,47,177831,2,0,L|413:58,2,55.0000016784668,10|10|10,1:0|1:0|1:0,0:0:0:0:
304,12,178345,6,0,P|250:7|177:32,1,110.000003356934,4|10,1:0|1:0,0:0:0:0:
164,66,178860,1,2,1:0:0:0:
154,175,179202,1,10,1:0:0:0:
154,175,179374,1,10,1:0:0:0:
105,273,179717,2,0,P|35:244|8:200,1,110.000003356934,4|10,1:0|1:0,0:0:0:0:
8,163,180231,1,2,1:0:0:0:
110,123,180574,1,10,1:0:0:0:
220,154,180917,1,10,1:0:0:0:
220,154,181088,6,0,L|227:273,1,110.000003356934,4|10,1:0|1:0,0:0:0:0:
258,308,181602,2,0,L|377:315,1,110.000003356934,2|10,1:0|1:0,0:0:0:0:
416,287,182117,1,10,1:0:0:0:
439,179,182460,1,4,1:0:0:0:
439,179,182631,1,2,1:0:0:0:
409,72,182974,2,0,P|352:46|297:39,1,110.000003356934,2|10,1:0|1:0,0:0:0:0:
250,40,183488,1,10,1:0:0:0:
197,56,183660,1,10,1:0:0:0:
161,97,183831,22,0,L|156:171,1,55.0000016784668,4|2,1:0|1:0,0:0:0:0:
154,206,184174,1,10,1:0:0:0:
151,260,184345,1,2,1:0:0:0:
75,340,184688,1,10,1:0:0:0:
75,340,184860,2,0,P|18:302|8:236,1,110.000003356934,10|4,1:0|1:0,0:0:0:0:
28,157,185545,1,10,1:0:0:0:
119,95,185888,1,10,0:0:0:0:
237,102,186231,1,10,0:0:0:0:
237,102,186402,1,10,0:0:0:0:
237,102,186574,6,0,P|310:95|414:56,1,165.000005035401,4|2,1:2|1:0,0:0:0:0:
488,5,187431,2,0,P|511:61|511:86,1,55.0000016784668,10|10,1:0|1:0,0:0:0:0:
510,109,187774,1,10,0:0:0:0:
488,159,187945,1,2,1:3:0:0:
380,183,188288,1,10,1:0:0:0:
380,183,188460,1,2,1:0:0:0:
280,229,188802,2,0,L|273:290,2,55.0000016784668,10|10|10,1:0|1:0|1:0,0:0:0:0:
263,175,189317,6,0,P|204:161|137:160,1,110.000003356934,2|10,1:3|1:0,0:0:0:0:
100,169,189831,2,0,P|52:207|12:270,1,110.000003356934,2|10,1:0|1:0,0:0:0:0:
15,300,190345,1,10,1:0:0:0:
31,352,190517,1,10,0:0:0:0:
78,380,190688,1,2,1:3:0:0:
253,332,191202,2,0,P|257:259|253:209,2,110.000003356934,2|10|10,1:0|1:0|1:0,0:0:0:0:
208,364,192060,5,2,1:3:0:0:
136,282,192402,1,10,1:0:0:0:
136,282,192574,1,2,1:0:0:0:
162,175,192917,1,10,1:0:0:0:
162,175,193088,2,0,P|220:156|283:153,1,110.000003356934,10|2,1:0|1:3,0:0:0:0:
323,160,193602,1,2,1:0:0:0:
377,155,193774,1,10,1:0:0:0:
423,125,193945,1,2,1:0:0:0:
440,16,194288,2,0,L|501:7,2,55.0000016784668,10|10|10,1:0|1:0|1:0,0:0:0:0:
386,28,194802,22,0,P|329:30|282:24,1,55.0000016784668,2|2,1:3|1:0,0:0:0:0:
278,13,195145,2,0,P|221:11|174:17,1,55.0000016784668,10|2,1:0|1:0,0:0:0:0:
170,27,195488,1,10,0:0:0:0:
60,17,195831,1,10,1:0:0:0:
50,127,196174,2,0,L|55:181,1,55.0000016784668,2|2,1:3|1:0,0:0:0:0:
57,236,196517,2,0,L|52:290,1,55.0000016784668,10|2,1:0|1:0,0:0:0:0:
36,343,196860,1,10,0:0:0:0:
142,367,197202,1,10,1:0:0:0:
235,308,197545,6,0,P|222:248|221:169,1,110.000003356934,4|10,1:2|1:0,0:0:0:0:
226,144,198060,2,0,P|249:87|294:22,1,110.000003356934,2|10,1:0|1:0,0:0:0:0:
319,13,198574,1,10,1:0:0:0:
430,41,198917,1,4,1:0:0:0:
430,41,199088,2,0,P|422:105|434:170,1,110.000003356934,2|2,1:0|1:0,0:0:0:0:
482,245,199774,1,10,1:0:0:0:
482,245,199945,2,0,L|474:315,1,55.0000016784668,10|10,1:0|1:0,0:0:0:0:
468,354,200288,6,0,P|403:362|351:344,1,110.000003356934,4|10,1:0|1:0,0:0:0:0:
319,313,200802,1,2,1:0:0:0:
283,270,200974,2,0,P|234:245|179:244,1,110.000003356934,10|10,0:0|1:0,0:0:0:0:
88,307,201660,1,4,1:0:0:0:
25,216,202002,1,10,1:0:0:0:
25,216,202174,2,0,L|35:82,2,110.000003356934,2|10|10,1:0|1:0|1:0,0:0:0:0:
4,267,203031,5,4,1:0:0:0:
81,344,203374,1,10,1:0:0:0:
81,344,203545,2,0,P|164:339|202:342,1,110.000003356934,2|10,1:0|1:0,0:0:0:0:
244,353,204060,2,0,P|308:364|344:362,1,55.0000016784668,10|10,1:0|1:0,0:0:0:0:
352,361,204402,2,0,L|369:236,1,110.000003356934,4|10,1:0|1:0,0:0:0:0:
375,197,204917,1,2,1:0:0:0:
389,87,205260,2,0,L|470:99,2,55.0000016784668,10|10|10,1:0|1:0|1:0,0:0:0:0:
351,46,205774,21,4,1:0:0:0:
245,76,206117,2,0,P|182:74|135:62,1,110.000003356934,10|10,1:0|0:0,0:0:0:0:
86,39,206631,1,10,1:0:0:0:
46,1,206802,1,10,1:0:0:0:
16,106,207145,5,12,1:0:0:0:
22,160,207317,1,8,0:0:0:0:
27,214,207488,2,0,L|32:274,1,55.0000016784668,14|10,1:0|1:2,0:0:0:0:
104,350,208002,1,14,1:0:0:0:
158,341,208174,1,14,1:0:0:0:
211,353,208345,1,14,1:0:0:0:
256,384,208517,5,4,0:1:0:0:
256,192,208688,12,4,214002,0:1:0:0:
256,192,215374,21,6,0:1:0:0:
