osu file format v14

[General]
AudioFilename: audio.ogg
AudioLeadIn: 0
PreviewTime: 153660
Countdown: 0
SampleSet: Soft
StackLeniency: 0.7
Mode: 0
LetterboxInBreaks: 0
WidescreenStoryboard: 0

[Editor]
Bookmarks: 54901,60386,76845,98787,142672,153644,164615
DistanceSpacing: 0.9
BeatDivisor: 4
GridSize: 16
TimelineZoom: 1.8

[Metadata]
Title:Deep Sea
TitleUnicode:Deep Sea
Artist:Yousei Teikoku
ArtistUnicode:妖精帝國
Creator:ent
Version:Deluge
Source:
Tags:stigma electronic instrumental
BeatmapID:3599842
BeatmapSetID:1758918

[Difficulty]
HPDrainRate:6.6
CircleSize:4
OverallDifficulty:9
ApproachRate:9
SliderMultiplier:2
SliderTickRate:2

[Events]
//Background and Video events
0,0,"29182021_p0 1.6.jpg",0,0
//Break Periods
2,77060,87231
2,88031,98202
//Storyboard Layer 0 (Background)
//Storyboard Layer 1 (Fail)
//Storyboard Layer 2 (Pass)
//Storyboard Layer 3 (Foreground)
//Storyboard Layer 4 (Overlay)
//Storyboard Sound Samples

[TimingPoints]
60,342.857142857143,4,2,0,30,1,0
10688,-100,4,2,1,42,0,1
10774,-100,4,2,1,44,0,1
10860,-100,4,2,1,46,0,1
10945,-100,4,2,1,48,0,1
11031,-100,4,2,1,50,0,0
21831,-100,4,2,0,50,0,0
22002,-83.3333333333333,4,2,1,50,0,0
22860,-100,4,2,1,50,0,0
32588,-100,4,2,0,40,0,1
32631,-100,4,2,0,40,0,0
32802,-100,4,2,0,30,0,0
32974,-83.3333333333333,4,2,1,50,0,0
33831,-100,4,2,1,50,0,0
43945,-100,4,2,1,50,0,1
44631,-100,4,2,1,50,0,0
54917,-166.666666666667,4,2,1,40,0,1
60402,-83.3333333333333,4,2,1,50,0,0
61260,-100,4,2,1,50,0,0
75488,-100,4,2,2,40,0,1
75831,-100,4,2,2,47,0,1
76174,-100,4,2,2,54,0,1
76517,-100,4,2,2,61,0,1
76860,-100,4,2,0,30,0,0
87831,-100,4,2,66,20,0,1
88345,-100,4,2,66,20,0,0
98802,-100,4,2,1,60,0,0
119374,-100,4,2,1,30,0,1
119545,-100,4,2,0,30,0,1
120060,-100,4,2,2,50,0,1
120745,-100,4,2,1,60,0,0
141317,-100,4,2,2,60,0,1
142002,-100,4,2,2,66,0,1
142688,-666.666666666667,4,2,0,30,0,0
144060,-666.666666666667,4,2,0,5,0,0
144231,-666.666666666667,4,2,0,30,0,0
145431,-666.666666666667,4,2,0,5,0,0
145602,-500,4,2,0,30,0,0
146117,-500,4,2,0,5,0,0
146288,-500,4,2,0,30,0,0
146802,-500,4,2,0,5,0,0
146974,-500,4,2,0,30,0,0
148174,-500,4,2,0,5,0,0
148345,-333.333333333333,4,2,0,30,0,0
150231,-333.333333333333,4,2,0,5,0,0
150402,-333.333333333333,4,2,0,30,0,0
150917,-333.333333333333,4,2,0,15,0,1
151088,-333.333333333333,4,2,0,30,0,0
153660,-166.666666666667,4,2,1,50,0,1
160002,-166.666666666667,4,2,1,50,0,1
160345,-166.666666666667,4,2,1,50,0,1
163260,-250,4,2,0,55,0,0
163602,-250,4,2,0,55,0,0
163945,-166.666666666667,4,2,1,60,0,0
164288,-166.666666666667,4,2,1,66,0,0
164631,-83.3333333333333,4,2,1,70,0,1
186231,-83.3333333333333,4,2,1,72,0,1
186317,-83.3333333333333,4,2,1,74,0,1
186402,-83.3333333333333,4,2,1,76,0,1
186488,-83.3333333333333,4,2,1,78,0,1
186574,-83.3333333333333,4,2,1,80,0,1
207145,-83.3333333333333,4,2,2,80,0,1
207488,-83.3333333333333,4,2,2,85,0,1
207831,-83.3333333333333,4,2,2,90,0,1
208174,-83.3333333333333,4,2,2,95,0,1
208517,-100,4,2,66,100,0,0
208688,-100,4,2,66,20,0,0
214002,-100,4,2,66,20,0,1
215374,-100,4,2,66,20,0,0

[Colours]
Combo1 : 255,255,255
Combo2 : 173,255,95
Combo3 : 255,88,100
Combo4 : 255,94,55
Combo5 : 17,254,176

[HitObjects]
256,192,5545,12,2,10517,0:0:0:0:
188,57,10689,6,10,L|185:27,1,25
232,82,10775,2,10,L|261:68,1,25
221,132,10861,2,0,L|242:157,1,25,10|0,0:0|0:0,0:0:0:0:
169,137,10945,2,0,L|153:161,1,25,10|0,0:0|0:0,0:0:0:0:
148,90,11031,6,0,L|97:78,1,50,4|0,1:0|0:0,0:0:0:0:
0,185,11203,1,2,0:1:0:0:
0,185,11289,1,2,0:1:0:0:
0,185,11375,2,0,L|51:172,1,50,10|0,1:1|0:0,0:0:0:0:
138,253,11546,1,2,1:0:0:0:
142,274,11632,1,0,0:0:0:0:
143,295,11718,1,2,0:0:0:0:
141,316,11803,1,0,0:0:0:0:
135,337,11888,2,0,L|119:384,1,50,10|0,1:0|0:1,0:1:0:0:
264,304,12060,2,0,L|244:241,1,50,10|0,1:0|0:1,0:1:0:0:
397,384,12232,1,2,0:0:0:0:
397,384,12318,1,0,0:0:0:0:
397,384,12402,6,0,P|405:314|416:276,1,100,0|2,1:0|0:1,0:0:0:0:
422,262,12660,1,0,0:0:0:0:
433,240,12745,1,10,1:0:0:0:
447,219,12831,1,0,0:0:0:0:
463,199,12917,2,0,L|528:190,1,50,2|0,1:1|0:0,0:0:0:0:
411,102,13088,2,0,L|459:57,1,50,2|0,0:0|0:0,0:0:0:0:
331,37,13260,1,10,1:1:0:0:
331,37,13431,1,10,0:1:0:0:
331,37,13602,1,10,0:1:0:0:
331,37,13774,6,0,P|275:29|214:27,1,100,0|2,1:0|0:1,0:0:0:0:
15,92,14117,2,0,P|71:84|132:82,1,100,10|2,1:0|1:0,0:0:0:0:
114,81,14374,1,0,0:0:0:0:
114,81,14460,1,2,0:0:0:0:
49,202,14631,2,0,L|38:264,1,50,10|0,1:0|0:0,0:0:0:0:
8,384,14802,2,0,L|-3:322,1,50,10|0,1:0|0:0,0:0:0:0:
107,302,14974,1,2,0:0:0:0:
131,297,15060,1,0,0:0:0:0:
155,300,15145,1,0,1:0:0:0:
155,300,15317,21,2,0:1:0:0:
179,301,15402,1,0,0:0:0:0:
204,299,15488,1,10,1:0:0:0:
228,293,15574,1,0,0:0:0:0:
252,285,15660,2,0,P|255:228|254:176,1,100,2|2,1:0|0:0,0:0:0:0:
254,185,15917,1,0,0:0:0:0:
254,185,16002,1,10,1:0:0:0:
328,128,16174,1,2,1:2:0:0:
405,180,16345,1,10,1:0:0:0:
379,269,16517,5,0,1:0:0:0:
379,269,16688,2,0,P|388:328|402:369,2,100,2|10|2,0:1|1:0|1:1,0:0:0:0:
259,354,17202,1,2,0:0:0:0:
259,354,17288,1,0,0:0:0:0:
259,354,17374,2,0,L|198:343,1,50,10|0,1:0|0:0,0:0:0:0:
59,384,17545,2,0,L|120:373,1,50,10|0,1:0|0:0,0:0:0:0:
140,280,17717,2,0,P|124:230|95:171,1,100,2|0,0:0|1:0,0:0:0:0:
10,102,18060,5,2,0:1:0:0:
10,102,18145,1,0,0:0:0:0:
10,102,18231,2,0,L|65:92,1,50,10|0,1:0|0:0,0:0:0:0:
124,37,18402,1,2,1:0:0:0:
124,37,18574,1,2,0:0:0:0:
124,37,18660,1,0,0:0:0:0:
124,37,18745,2,0,L|176:42,1,50,10|0,1:0|0:0,0:0:0:0:
253,0,18917,2,0,L|292:33,1,50,10|0,1:0|0:0,0:0:0:0:
379,43,19088,2,0,L|392:93,1,50,10|0,1:0|0:0,0:0:0:0:
457,150,19260,5,0,1:0:0:0:
457,150,19431,2,0,P|454:197|461:256,2,100,2|10|2,0:1|1:0|1:0,0:0:0:0:
337,237,19945,2,0,L|329:290,1,50,2|0,0:0|0:0,0:0:0:0:
349,383,20117,1,10,1:0:0:0:
349,383,20288,1,10,1:0:0:0:
201,312,20460,1,2,0:0:0:0:
201,312,20545,1,0,0:0:0:0:
201,312,20631,22,0,L|192:241,1,50,0|0,1:0|0:0,0:0:0:0:
115,185,20802,1,2,0:1:0:0:
115,185,20888,1,0,0:0:0:0:
115,185,20974,2,0,P|118:123|131:76,2,100,10|2|2,1:1|1:1|0:0,0:1:0:0:
59,24,21488,2,0,L|11:8,1,50,10|0,1:0|0:0,0:0:0:0:
11,8,21660,1,10,1:1:0:0:
11,8,21831,1,2,0:0:0:0:
11,8,22002,6,0,P|5:79|9:163,1,119.999996337891,6|2,1:2|0:1,0:0:0:0:
9,157,22260,1,0,0:0:0:0:
13,186,22345,2,0,P|16:259|12:338,1,119.999996337891,10|2,1:0|1:0,0:0:0:0:
227,375,22860,2,0,P|219:324|219:264,2,100,10|10|2,1:0|1:0|0:2,0:0:0:0:
360,384,23374,5,0,1:0:0:0:
360,384,23545,1,2,0:1:0:0:
459,369,23717,1,10,1:0:0:0:
475,270,23888,1,2,1:0:0:0:
314,294,24231,2,0,L|276:254,1,50,10|0,1:0|0:0,0:0:0:0:
210,147,24402,2,0,L|260:157,1,50,10|0,1:0|0:0,0:0:0:0:
314,5,24574,2,0,L|279:41,1,50,10|0,1:0|0:0,0:0:0:0:
210,147,24745,5,0,1:0:0:0:
141,52,24917,1,2,0:1:0:0:
141,52,25002,1,0,0:0:0:0:
141,52,25088,2,0,L|86:65,1,50,10|0,1:0|0:0,0:0:0:0:
0,41,25260,1,2,1:0:0:0:
73,160,25431,1,2,0:0:0:0:
75,184,25517,1,0,0:0:0:0:
73,208,25602,2,0,L|59:272,1,50,10|0,1:0|0:0,0:0:0:0:
174,354,25774,2,0,L|110:340,1,50,10|0,1:0|0:0,0:0:0:0:
181,245,25945,1,2,0:0:0:0:
181,245,26031,1,0,0:0:0:0:
181,245,26117,21,0,1:0:0:0:
205,242,26202,1,0,0:0:0:0:
230,243,26288,2,0,L|296:256,1,50,2|0,0:1|0:0,0:0:0:0:
364,322,26460,1,10,1:0:0:0:
364,322,26631,2,0,P|371:266|391:201,1,100,2|2,1:0|0:0,0:0:0:0:
429,119,26974,1,10,1:0:0:0:
308,109,27145,1,0,1:0:0:0:
416,95,27317,1,10,1:0:0:0:
301,136,27488,5,0,1:0:0:0:
182,111,27660,2,0,L|189:48,1,50,2|0,0:1|0:0,0:0:0:0:
91,103,27831,2,0,L|98:40,1,50,10|0,1:0|0:0,0:0:0:0:
0,95,28002,2,0,L|7:32,1,50,2|0,1:0|0:0,0:0:0:0:
106,197,28174,1,2,0:0:0:0:
106,197,28260,1,0,0:0:0:0:
106,197,28345,2,0,L|180:201,1,50,10|0,1:0|0:0,0:0:0:0:
49,279,28517,2,0,L|-25:283,1,50,10|0,1:0|0:0,0:0:0:0:
113,365,28688,1,2,0:0:0:0:
113,365,28860,6,0,P|166:380|239:383,1,100,0|2,1:0|0:1,0:0:0:0:
235,384,29117,1,0,0:0:0:0:
259,381,29202,1,10,1:0:0:0:
283,376,29288,1,0,0:0:0:0:
306,368,29374,2,0,L|372:335,1,50,2|0,1:0|0:0,0:0:0:0:
369,256,29545,1,2,0:0:0:0:
511,254,29717,2,0,L|450:218,1,50,10|0,1:0|0:0,0:0:0:0:
505,112,29888,2,0,L|434:117,1,50,10|0,1:0|0:0,0:0:0:0:
418,0,30060,2,0,L|363:45,1,50,10|0,1:0|0:0,0:0:0:0:
344,146,30231,5,0,1:0:0:0:
344,146,30402,1,2,0:1:0:0:
344,146,30488,1,0,0:0:0:0:
344,146,30574,1,10,1:0:0:0:
233,224,30745,2,0,P|218:159|218:114,1,100,2|2,1:0|0:0,0:0:0:0:
219,100,31002,1,0,0:0:0:0:
224,75,31088,2,0,L|244:21,1,50,10|0,1:0|0:0,0:0:0:0:
107,107,31260,2,0,L|127:161,1,50,10|0,1:0|0:0,0:0:0:0:
52,233,31431,1,2,0:0:0:0:
52,233,31517,1,0,0:0:0:0:
52,233,31602,22,0,P|44:288|47:351,1,100,0|2,1:0|0:1,0:0:0:0:
44,332,31860,1,0,0:0:0:0:
44,332,31945,1,10,1:0:0:0:
193,384,32117,2,0,P|197:332|195:276,1,100,2|2,1:0|0:0,0:0:0:0:
194,259,32374,1,0,0:3:0:0:
190,234,32460,5,2,0:3:0:0:
332,277,32588,6,0,L|338:250,1,25,2|2,0:3|0:0,0:0:0:0:
474,320,32802,5,2,0:3:0:0:
474,320,32974,22,0,P|481:252|479:194,1,119.999996337891,6|2,1:2|0:1,0:1:0:0:
477,170,33231,1,0,0:0:0:0:
473,139,33317,2,0,P|472:74|479:8,1,119.999996337891,10|2,1:0|1:1,0:0:0:0:
254,132,33831,2,0,P|225:131|205:128,1,50,10|0,1:0|0:0,0:0:0:0:
98,97,34002,2,0,P|110:41|127:-6,1,100,10|2,1:0|0:0,0:0:0:0:
124,0,34260,1,0,0:0:0:0:
124,0,34345,5,0,1:0:0:0:
137,187,34517,1,2,0:1:0:0:
137,211,34602,1,0,0:0:0:0:
134,235,34688,2,0,P|122:291|105:338,1,100,10|2,1:0|1:0,0:0:0:0:
436,370,35202,2,0,L|496:354,1,50,10|0,1:0|0:0,0:0:0:0:
380,265,35374,2,0,L|363:324,1,50,10|0,1:0|0:0,0:0:0:0:
498,269,35545,2,0,L|454:225,2,50,10|0|0,1:0|0:0|1:0,0:0:0:0:
316,182,35888,5,2,0:1:0:0:
316,182,35974,1,0,0:0:0:0:
316,182,36060,2,0,P|336:123|360:75,1,100,10|2,1:0|1:0,0:0:0:0:
366,68,36317,1,0,0:0:0:0:
382,49,36402,1,2,0:0:0:0:
403,35,36488,1,0,0:0:0:0:
426,26,36574,2,0,L|485:36,1,50,10|0,1:0|0:0,0:0:0:0:
302,1,36745,2,0,L|243:11,1,50,10|0,1:0|0:0,0:0:0:0:
192,101,36917,1,2,0:0:0:0:
167,100,37002,1,0,0:0:0:0:
142,96,37088,6,0,P|78:83|38:71,1,100,0|2,1:0|0:1,0:0:0:0:
22,62,37345,1,0,0:0:0:0:
0,48,37431,1,10,1:0:0:0:
0,248,37602,2,0,P|64:235|104:223,1,100,2|2,1:0|0:0,0:0:0:0:
121,216,37860,1,0,0:0:0:0:
143,206,37945,1,10,1:0:0:0:
227,262,38117,1,2,1:2:0:0:
136,306,38289,1,10,1:0:0:0:
220,362,38460,21,0,1:0:0:0:
220,362,38631,2,0,P|257:372|282:375,1,50,2|0,0:1|0:0,0:0:0:0:
346,367,38802,2,0,P|382:353|404:342,1,50,10|0,1:0|0:0,0:0:0:0:
452,298,38974,2,0,P|474:266|485:244,1,50,2|0,1:0|0:0,0:0:0:0:
499,180,39145,1,2,0:0:0:0:
309,219,39317,2,0,L|353:243,1,50,10|0,1:0|0:0,0:0:0:0:
269,81,39488,2,0,L|313:57,1,50,10|0,1:0|0:0,0:0:0:0:
199,173,39660,1,2,0:0:0:0:
199,173,39831,5,0,1:0:0:0:
106,104,40002,2,0,P|100:80|93:40,2,50,2|0|10,0:1|0:0|1:0,0:0:0:0:
36,204,40345,1,2,1:0:0:0:
36,204,40517,2,0,P|42:228|49:268,2,50,2|0|10,0:0|0:0|1:0,0:0:0:0:
0,359,40860,1,10,1:0:0:0:
0,359,41031,1,10,1:0:0:0:
0,359,41202,6,0,P|49:368|108:372,1,100,0|2,1:0|0:1,0:0:0:0:
327,319,41545,2,0,P|278:328|219:332,1,100,10|2,1:0|1:0,0:0:0:0:
438,384,41888,1,2,0:0:0:0:
438,384,42060,2,0,L|445:329,1,50,10|0,1:0|0:0,0:0:0:0:
432,251,42231,1,10,1:0:0:0:
432,251,42317,1,0,0:0:0:0:
432,251,42402,1,2,0:0:0:0:
475,128,42574,5,0,1:0:0:0:
475,128,42745,1,2,0:1:0:0:
475,128,42831,1,0,0:0:0:0:
475,128,42917,1,10,1:0:0:0:
405,19,43088,2,0,P|345:15|297:17,1,100,2|2,1:0|0:0,0:0:0:0:
148,90,43431,1,10,1:0:0:0:
258,158,43602,1,2,1:2:0:0:
237,69,43774,1,10,1:0:0:0:
169,179,43945,21,4,1:0:0:0:
47,111,44117,2,0,P|34:54|31:2,2,100,2|10|2,0:1|1:0|1:1,0:0:0:0:
29,251,44631,2,0,P|37:289|45:314,1,50,10|0,0:0|0:0,0:0:0:0:
144,301,44802,2,0,P|144:276|146:252,1,50,10|0,1:0|0:0,0:0:0:0:
258,283,44974,2,0,P|245:319|240:345,1,50,10|0,1:0|0:0,0:0:0:0:
331,384,45145,2,0,P|343:362|358:342,1,50,10|0,0:0|0:0,0:0:0:0:
439,301,45317,5,0,1:0:0:0:
439,301,45488,1,2,0:1:0:0:
439,301,45574,1,0,0:0:0:0:
439,301,45660,2,0,P|445:253|445:193,1,100,10|2,1:0|1:0,0:0:0:0:
428,15,46002,2,0,P|390:16|373:19,1,50,10|0,0:0|0:0,0:0:0:0:
231,66,46174,2,0,P|269:67|286:70,1,50,10|0,1:0|0:0,0:0:0:0:
446,104,46345,2,0,P|408:105|391:108,1,50,10|0,1:0|0:0,0:0:0:0:
249,155,46517,2,0,P|287:156|304:159,1,50,10|0,1:0|0:0,0:0:0:0:
249,155,46688,5,0,1:0:0:0:
136,214,46860,1,2,0:1:0:0:
136,214,46945,1,0,0:0:0:0:
136,214,47031,1,10,1:0:0:0:
143,102,47202,2,0,P|143:49|135:-17,1,100,2|10,1:0|0:0,0:0:0:0:
30,104,47545,1,10,1:0:0:0:
30,104,47717,2,0,P|27:150|28:172,1,50,10|0,1:0|0:0,0:0:0:0:
38,243,47888,1,10,0:0:0:0:
38,243,47974,1,0,0:0:0:0:
38,243,48060,5,0,1:0:0:0:
2,370,48231,2,0,P|36:374|60:372,2,50,2|0|10,0:1|0:0|1:0,0:0:0:0:
138,364,48574,2,0,P|200:361|249:369,1,100,2|10,1:0|0:0,0:0:0:0:
387,273,48917,2,0,P|325:270|276:278,1,100,10|2,1:0|1:2,0:0:0:0:
155,203,49260,1,10,1:0:0:0:
155,203,49431,22,0,P|158:139|167:89,1,100,0|2,1:0|0:1,0:0:0:0:
171,79,49688,1,0,0:0:0:0:
180,55,49774,1,10,1:0:0:0:
313,145,49945,1,2,1:0:0:0:
313,145,50031,1,0,0:0:0:0:
313,145,50117,1,10,0:0:0:0:
313,145,50202,1,0,0:0:0:0:
313,145,50288,2,0,P|352:154|372:156,1,50,10|0,1:0|0:0,0:0:0:0:
510,126,50460,2,0,P|471:117|451:115,1,50,10|0,1:0|0:0,0:0:0:0:
441,221,50631,1,10,0:0:0:0:
441,221,50802,5,0,1:0:0:0:
456,319,50974,1,2,0:1:0:0:
456,319,51060,1,0,0:0:0:0:
456,319,51145,1,10,1:0:0:0:
357,334,51317,1,2,1:0:0:0:
342,236,51488,1,10,0:0:0:0:
342,236,51574,1,0,0:0:0:0:
342,236,51660,2,0,P|299:236|280:239,1,50,10|0,1:0|0:0,0:0:0:0:
252,342,51831,2,0,P|216:317|199:308,1,50,10|0,1:0|0:0,0:0:0:0:
117,377,52002,2,0,P|102:336|92:319,1,50,10|0,1:0|0:0,0:0:0:0:
1,374,52174,5,0,1:0:0:0:
24,218,52345,1,10,0:0:0:0:
17,384,52517,1,10,1:0:0:0:
3,227,52688,1,2,1:0:0:0:
129,134,52860,1,10,0:0:0:0:
14,100,53031,1,10,1:0:0:0:
135,108,53202,1,10,1:0:0:0:
25,123,53374,1,10,0:0:0:0:
80,29,53545,5,0,1:0:0:0:
80,29,53631,1,0,0:0:0:0:
80,29,53717,1,10,0:0:0:0:
80,29,53802,1,0,0:0:0:0:
80,29,53888,1,10,1:0:0:0:
188,0,54060,1,2,1:0:0:0:
288,43,54231,1,10,0:0:0:0:
288,43,54317,1,0,0:0:0:0:
288,43,54402,1,10,1:0:0:0:
381,3,54574,1,10,1:0:0:0:
461,42,54745,1,10,0:0:0:0:
461,42,54917,21,4,0:0:0:0:
461,42,55088,2,0,P|468:81|472:122,2,59.9999981689454,0|2|0,0:0|0:0|1:2,0:0:0:0:
381,128,55602,1,8,0:0:0:0:
381,128,55774,2,0,P|374:167|370:208,2,59.9999981689454,2|2|2,0:0|1:2|0:2,0:0:0:0:
467,334,56460,1,2,0:0:0:0:
467,334,56631,1,0,1:0:0:0:
467,334,56802,1,2,0:0:0:0:
296,372,57145,1,0,1:0:0:0:
224,363,57317,1,2,0:0:0:0:
181,304,57488,1,2,0:0:0:0:
186,231,57660,6,0,P|204:191|221:169,1,59.9999981689454,0|2,1:0|0:0,0:0:0:0:
92,206,58002,2,0,P|80:233|64:259,1,59.9999981689454,2|0,0:0|1:0,0:0:0:0:
186,231,58345,1,8,0:0:0:0:
92,206,58517,1,2,0:0:0:0:
144,136,58688,1,0,1:0:0:0:
50,111,58860,1,2,0:0:0:0:
25,17,59031,5,2,0:0:0:0:
25,17,59117,1,2,0:0:0:0:
25,17,59202,1,2,0:0:0:0:
137,9,59374,2,0,P|169:17|197:29,1,59.9999981689454,0|2,1:0|0:0,0:0:0:0:
278,81,59717,1,8,0:0:0:0:
373,16,59888,1,0,1:0:0:0:
293,0,60060,1,2,0:0:0:0:
357,96,60231,1,2,0:0:0:0:
357,96,60402,6,0,P|374:169|379:222,1,119.999996337891,4|2,1:2|0:1,0:0:0:0:
381,243,60660,1,0,0:0:0:0:
381,272,60745,2,0,P|373:342|355:397,1,119.999996337891,10|2,1:0|1:0,0:0:0:0:
88,354,61260,2,0,P|131:346|157:344,1,50,10|0,1:0|0:0,0:0:0:0:
49,238,61431,2,0,P|6:230|-20:228,1,50,10|0,1:0|0:0,0:0:0:0:
81,107,61602,1,10,0:0:0:0:
81,107,61688,1,0,0:0:0:0:
81,107,61773,22,0,P|124:115|150:117,1,50,0|0,1:0|0:0,0:0:0:0:
242,172,61945,1,2,0:1:0:0:
242,172,62031,1,0,0:0:0:0:
242,172,62117,2,0,P|250:129|251:68,1,100,10|2,1:0|1:0,0:0:0:0:
512,23,62631,2,0,P|484:43|462:61,1,50,10|0,1:0|0:0,0:0:0:0:
421,118,62802,1,10,1:0:0:0:
421,118,62974,1,10,1:0:0:0:
421,118,63145,5,0,1:0:0:0:
426,142,63231,1,0,0:0:0:0:
430,166,63317,1,2,0:1:0:0:
431,190,63402,1,0,0:0:0:0:
430,215,63488,2,0,P|425:252|413:283,2,50,10|0|2,1:0|0:0|1:0,0:0:0:0:
476,384,63831,1,10,0:0:0:0:
476,384,63917,1,0,0:0:0:0:
476,384,64002,2,0,P|432:376|414:376,1,50,10|0,1:0|0:0,0:0:0:0:
282,351,64174,2,0,P|326:343|344:343,3,50,10|0|10|0,1:0|0:0|0:0|0:0,0:0:0:0:
282,351,64517,5,0,1:0:0:0:
178,375,64688,1,2,0:1:0:0:
178,375,64774,1,0,0:0:0:0:
178,375,64860,1,10,1:0:0:0:
154,271,65031,1,2,1:0:0:0:
258,247,65202,1,10,0:0:0:0:
258,247,65288,1,0,0:0:0:0:
258,247,65374,2,0,P|262:178|261:133,1,100,10|2,1:0|1:2,0:0:0:0:
161,0,65717,2,0,P|157:69|158:114,1,100,10|0,1:0|1:0,0:0:0:0:
47,187,66060,5,2,0:1:0:0:
47,187,66231,1,10,1:1:0:0:
47,187,66402,2,0,P|113:190|156:189,1,100,2|2,1:0|0:0,0:0:0:0:
99,313,66745,1,10,1:0:0:0:
99,313,66916,1,10,1:0:0:0:
99,313,67087,2,0,P|33:310|-10:311,1,100,2|0,0:0|1:0,0:0:0:0:
191,382,67431,21,2,0:1:0:0:
191,382,67602,1,10,1:1:0:0:
191,382,67774,2,0,P|257:385|300:384,1,100,2|2,1:0|0:0,0:0:0:0:
390,278,68117,1,10,1:0:0:0:
390,278,68288,1,10,1:0:0:0:
390,278,68460,2,0,P|324:275|281:276,1,100,10|0,1:0|1:0,0:0:0:0:
241,159,68802,5,2,0:1:0:0:
241,159,68888,1,0,0:0:0:0:
241,159,68974,1,10,1:0:0:0:
241,159,69145,2,0,P|244:94|251:49,1,100,2|2,1:0|0:0,0:0:0:0:
394,0,69488,1,10,1:0:0:0:
394,0,69660,1,10,1:0:0:0:
394,0,69831,2,0,P|391:65|384:110,1,100,2|0,0:0|1:0,0:0:0:0:
497,231,70174,5,2,0:1:0:0:
497,231,70260,1,0,0:0:0:0:
497,231,70346,1,10,1:0:0:0:
497,231,70517,2,0,P|500:166|507:121,1,100,2|2,1:0|0:0,0:0:0:0:
369,252,70860,1,10,1:0:0:0:
369,252,71032,1,10,1:0:0:0:
369,252,71203,2,0,P|372:317|379:362,1,100,10|0,1:0|1:0,0:0:0:0:
210,378,71545,5,2,0:1:0:0:
210,378,71631,1,0,0:0:0:0:
210,378,71717,2,0,P|150:385|103:384,1,100,10|2,1:0|1:0,0:0:0:0:
42,211,72060,1,2,0:0:0:0:
42,211,72146,1,0,0:0:0:0:
42,211,72232,2,0,P|35:271|36:318,2,100,10|10|2,1:0|1:0|0:0,0:0:0:0:
129,119,72745,21,0,1:0:0:0:
129,119,72917,1,2,0:1:0:0:
129,119,73002,1,0,0:0:0:0:
129,119,73088,1,10,1:0:0:0:
52,10,73260,2,0,P|109:0|197:9,1,100,2|2,1:0|0:0,0:0:0:0:
150,0,73517,1,0,0:0:0:0:
150,0,73603,1,10,1:0:0:0:
223,109,73774,2,0,L|278:98,1,50,10|0,1:0|0:0,0:0:0:0:
429,112,73945,2,0,L|374:101,1,50,10|0,1:0|0:0,0:0:0:0:
325,186,74117,5,0,1:0:0:0:
325,186,74288,2,0,L|324:249,1,50,2|0,0:1|0:0,0:0:0:0:
317,338,74460,1,10,1:0:0:0:
317,338,74545,1,0,0:0:0:0:
317,338,74631,2,0,P|387:363|416:365,1,100,2|2,1:0|0:0,0:0:0:0:
437,365,74888,1,0,0:0:0:0:
461,361,74974,2,0,L|507:343,1,50,10|0,1:0|0:0,0:0:0:0:
495,206,75145,2,0,L|512:159,1,50,10|0,1:0|0:0,0:0:0:0:
512,17,75317,1,2,0:0:0:0:
512,17,75488,5,8,1:0:0:0:
492,12,75574,1,8,0:0:0:0:
471,10,75660,1,10,0:1:0:0:
451,10,75745,1,8,0:0:0:0:
425,10,75831,1,14,1:0:0:0:
400,12,75917,1,10,0:0:0:0:
375,14,76002,1,10,1:0:0:0:
350,19,76088,1,10,0:0:0:0:
320,26,76174,1,8,0:0:0:0:
291,34,76260,1,10,0:0:0:0:
263,44,76345,1,14,1:0:0:0:
235,55,76431,1,10,0:0:0:0:
203,71,76517,1,14,1:0:0:0:
174,90,76602,1,10,0:0:0:0:
142,114,76688,1,14,1:0:0:0:
115,143,76774,1,10,0:0:0:0:
88,179,76860,5,4,0:1:0:0:
256,192,87831,5,6,0:1:0:0:
61,360,98802,5,4,1:2:0:0:
122,248,98974,1,10,0:0:0:0:
150,239,99060,1,0,0:0:0:0:
179,235,99145,1,10,1:0:0:0:
209,236,99231,1,0,0:0:0:0:
237,244,99317,1,0,1:0:0:0:
263,258,99402,1,0,0:0:0:0:
290,270,99488,1,8,0:0:0:0:
319,274,99574,1,0,0:0:0:0:
349,274,99660,1,10,1:0:0:0:
378,268,99745,1,0,0:0:0:0:
405,254,99831,1,10,1:0:0:0:
427,234,99917,1,0,0:0:0:0:
442,208,100002,2,0,P|451:164|451:101,1,100,10|2,0:0|1:2,0:0:0:0:
290,0,100345,5,10,0:0:0:0:
287,23,100431,1,0,0:0:0:0:
286,48,100517,1,10,1:0:0:0:
286,71,100602,1,0,0:0:0:0:
288,97,100688,1,0,1:0:0:0:
288,121,100774,1,0,0:0:0:0:
291,146,100860,1,10,0:0:0:0:
293,171,100945,1,0,0:0:0:0:
297,195,101031,1,10,1:0:0:0:
299,220,101117,1,0,0:0:0:0:
303,244,101202,1,10,1:0:0:0:
308,267,101288,1,0,0:0:0:0:
314,291,101374,2,0,P|331:334|357:382,2,100,10|2|10,1:0|1:2|0:0,0:0:0:0:
299,276,101802,5,0,0:0:0:0:
282,265,101888,1,10,1:0:0:0:
262,258,101974,1,0,0:0:0:0:
242,252,102060,1,0,1:0:0:0:
222,250,102145,1,0,0:0:0:0:
201,250,102231,1,10,0:0:0:0:
181,253,102317,1,0,0:0:0:0:
162,260,102402,1,10,1:0:0:0:
144,270,102488,1,0,0:0:0:0:
127,281,102574,1,10,1:0:0:0:
111,294,102660,1,0,0:0:0:0:
99,310,102745,2,0,P|54:287|11:245,1,100,10|0,0:0|1:0,0:0:0:0:
46,125,103088,5,10,0:0:0:0:
45,109,103174,1,0,0:0:0:0:
45,93,103260,1,10,1:0:0:0:
47,79,103345,1,0,0:0:0:0:
50,64,103431,1,0,1:0:0:0:
175,99,103602,1,10,0:0:0:0:
178,84,103688,1,0,0:0:0:0:
180,69,103774,1,10,1:0:0:0:
179,53,103860,1,0,0:0:0:0:
176,38,103945,2,0,L|161:-17,1,50,10|0,1:0|0:0,0:0:0:0:
300,20,104117,2,0,L|285:75,1,50,10|0,1:0|0:0,0:0:0:0:
415,52,104288,21,0,1:0:0:0:
512,136,104460,1,10,0:0:0:0:
501,158,104545,1,0,0:0:0:0:
481,173,104631,1,10,1:0:0:0:
457,181,104717,1,0,0:0:0:0:
432,183,104802,2,0,L|371:175,1,50,0|0,1:0|0:0,0:0:0:0:
252,249,104974,2,0,L|313:241,1,50,10|0,0:0|0:0,0:0:0:0:
417,325,105145,1,10,1:0:0:0:
417,325,105231,1,0,0:0:0:0:
417,325,105317,2,0,L|356:317,1,50,10|0,1:0|0:0,0:0:0:0:
256,384,105488,1,10,0:0:0:0:
256,384,105660,5,0,1:0:0:0:
106,379,105831,1,0,1:0:0:0:
87,355,105917,1,0,0:0:0:0:
75,327,106002,1,10,1:0:0:0:
71,297,106088,1,0,0:0:0:0:
73,267,106174,2,0,L|82:200,3,50,0|0|10|0,1:0|0:0|0:0|0:0,0:0:0:0:
141,133,106517,2,0,L|132:66,1,50,10|0,1:0|0:0,0:0:0:0:
3,108,106688,2,0,L|65:133,1,50,10|0,1:0|0:0,0:0:0:0:
93,0,106860,2,0,L|39:41,1,50,10|0,1:0|0:0,0:0:0:0:
204,21,107031,5,0,1:0:0:0:
204,21,107202,2,0,L|258:30,3,50,10|0|10|0,0:0|0:0|1:0|0:0,0:0:0:0:
336,47,107545,1,0,1:0:0:0:
351,78,107631,1,0,0:0:0:0:
357,112,107717,1,10,0:0:0:0:
354,146,107802,1,0,0:0:0:0:
338,177,107888,1,10,1:0:0:0:
326,210,107974,1,0,0:0:0:0:
324,245,108060,1,10,1:0:0:0:
329,279,108145,1,0,0:0:0:0:
341,311,108231,1,10,0:0:0:0:
360,340,108317,1,0,0:0:0:0:
390,356,108402,6,0,P|411:324|412:287,3,50,0|0|10|0,1:0|0:0|0:0|0:0,0:0:0:0:
262,375,108745,2,0,P|241:343|240:306,3,50,10|0|0|0,1:0|0:0|1:0|0:0,0:0:0:0:
223,250,109088,1,10,0:0:0:0:
230,210,109173,1,0,0:0:0:0:
247,174,109259,1,10,1:0:0:0:
273,144,109345,1,0,0:0:0:0:
306,121,109430,1,10,1:0:0:0:
343,107,109516,1,0,0:0:0:0:
383,103,109602,1,10,0:0:0:0:
422,110,109688,1,0,0:0:0:0:
459,126,109773,21,4,1:0:0:0:
376,234,109945,1,10,0:2:0:0:
352,224,110031,1,0,0:0:0:0:
334,205,110117,1,10,1:0:0:0:
323,182,110202,1,0,0:0:0:0:
319,157,110288,1,0,1:0:0:0:
315,132,110374,1,0,0:0:0:0:
302,110,110460,1,10,0:0:0:0:
284,92,110545,1,0,0:0:0:0:
262,78,110631,1,10,1:0:0:0:
237,73,110717,1,0,0:0:0:0:
212,74,110802,1,10,1:0:0:0:
188,83,110888,1,0,0:0:0:0:
169,99,110974,1,10,0:0:0:0:
159,122,111060,1,0,0:0:0:0:
157,146,111145,5,0,1:0:0:0:
137,124,111231,1,0,0:0:0:0:
110,114,111317,1,0,1:2:0:0:
82,118,111402,1,0,0:0:0:0:
61,136,111488,1,10,1:0:0:0:
49,161,111574,1,0,0:0:0:0:
48,189,111660,1,0,1:0:0:0:
63,212,111745,1,0,0:0:0:0:
88,225,111831,1,10,0:0:0:0:
115,224,111917,1,0,0:0:0:0:
142,216,112002,1,10,1:0:0:0:
170,215,112088,1,0,0:0:0:0:
196,223,112174,1,10,1:0:0:0:
216,241,112260,1,0,0:0:0:0:
232,263,112345,1,10,1:0:0:0:
241,289,112431,1,0,0:0:0:0:
243,317,112517,5,0,1:0:0:0:
125,357,112688,1,10,0:0:0:0:
125,357,112774,1,0,0:0:0:0:
125,357,112860,2,0,P|115:303|118:249,1,100,10|0,1:0|1:0,0:0:0:0:
13,201,113202,1,10,0:0:0:0:
17,176,113288,1,0,0:0:0:0:
21,151,113374,1,10,1:0:0:0:
25,126,113460,1,0,0:0:0:0:
26,101,113545,1,10,1:0:0:0:
27,75,113631,1,0,0:0:0:0:
26,49,113717,1,10,0:0:0:0:
22,25,113802,1,0,0:0:0:0:
15,0,113888,5,0,1:0:0:0:
14,1,114060,1,8,0:0:0:0:
127,114,114231,1,10,1:0:0:0:
192,25,114402,1,0,1:0:0:0:
297,60,114574,1,10,0:0:0:0:
297,60,114660,1,0,0:0:0:0:
297,60,114745,1,10,1:0:0:0:
296,169,114917,1,10,1:0:0:0:
190,201,115088,1,10,1:0:0:0:
190,201,115260,21,0,1:0:0:0:
320,248,115431,2,0,P|354:227|375:179,2,50,10|0|10,0:0|0:0|1:0,0:0:0:0:
158,297,115774,1,0,1:0:0:0:
187,304,115860,1,0,0:0:0:0:
214,316,115945,1,10,0:0:0:0:
240,330,116031,1,0,0:0:0:0:
264,347,116117,2,0,P|289:374|308:402,1,50,10|0,1:0|0:0,0:0:0:0:
436,343,116288,2,0,P|411:316|392:288,1,50,10|0,1:0|0:0,0:0:0:0:
469,198,116460,1,10,0:0:0:0:
469,198,116631,5,0,1:0:0:0:
359,115,116802,1,10,0:0:0:0:
359,115,116888,1,0,0:0:0:0:
359,115,116974,1,10,1:0:0:0:
456,20,117145,1,0,1:0:0:0:
422,9,117231,1,0,0:0:0:0:
387,3,117317,1,10,0:0:0:0:
352,1,117402,1,0,0:0:0:0:
316,2,117488,1,10,1:0:0:0:
281,9,117574,1,0,0:0:0:0:
247,20,117660,1,10,1:0:0:0:
215,34,117745,1,0,0:0:0:0:
187,56,117831,1,10,0:0:0:0:
163,82,117917,1,0,0:0:0:0:
144,111,118002,5,0,1:0:0:0:
232,236,118174,1,10,0:0:0:0:
200,252,118260,1,0,0:0:0:0:
165,256,118345,1,10,1:0:0:0:
130,251,118431,1,0,0:0:0:0:
96,240,118517,1,0,1:0:0:0:
67,219,118602,1,0,0:0:0:0:
47,189,118688,1,10,0:0:0:0:
27,224,118774,1,0,0:0:0:0:
23,263,118860,1,10,1:0:0:0:
31,301,118945,1,0,0:0:0:0:
53,334,119031,1,10,1:0:0:0:
86,356,119117,1,0,0:0:0:0:
124,366,119202,1,10,1:0:0:0:
164,364,119288,1,0,0:0:0:0:
202,352,119374,5,8,1:0:0:0:
202,352,119545,1,4,1:2:0:0:
436,384,119888,1,4,1:2:0:0:
436,384,120060,1,8,0:0:0:0:
437,364,120145,1,2,0:0:0:0:
439,344,120231,1,12,1:2:0:0:
441,324,120317,1,8,0:0:0:0:
443,304,120402,1,8,0:0:0:0:
445,284,120488,1,8,0:0:0:0:
447,264,120574,1,12,0:0:0:0:
449,244,120660,1,8,0:0:0:0:
451,224,120745,21,4,1:2:0:0:
280,363,120917,1,2,0:1:0:0:
280,363,121002,1,0,0:0:0:0:
280,363,121088,2,0,P|264:292|265:253,1,100,10|0,1:0|1:0,0:0:0:0:
177,69,121431,2,0,L|168:118,1,50,10|0,0:0|0:0,0:0:0:0:
388,156,121602,2,0,L|396:106,1,50,10|0,1:0|0:0,0:0:0:0:
320,38,121774,2,0,L|270:29,1,50,10|0,1:0|0:0,0:0:0:0:
245,187,121945,2,0,L|294:195,1,50,10|0,0:0|0:0,0:0:0:0:
282,117,122117,5,0,1:0:0:0:
282,117,122288,1,2,0:1:0:0:
282,117,122374,1,0,0:0:0:0:
282,117,122460,1,10,1:0:0:0:
147,209,122631,2,0,P|144:265|149:327,1,100,0|10,1:0|0:0,0:0:0:0:
150,338,122888,1,0,0:0:0:0:
156,367,122974,1,10,1:0:0:0:
47,248,123145,2,0,L|13:210,1,50,10|0,1:0|0:0,0:0:0:0:
240,248,123317,2,0,L|274:210,1,50,10|0,1:0|0:0,0:0:0:0:
147,120,123488,5,0,1:0:0:0:
40,12,123660,1,2,0:1:0:0:
40,12,123745,1,0,0:0:0:0:
40,12,123831,2,0,P|20:79|16:119,1,100,10|2,1:0|1:0,0:0:0:0:
15,138,124088,1,0,0:0:0:0:
17,167,124174,2,0,P|24:235|33:277,1,100,10|10,0:0|1:0,0:0:0:0:
234,56,124517,2,0,P|227:124|218:166,2,100,10|10|0,1:0|0:0|1:0,0:0:0:0:
264,263,125031,5,2,0:1:0:0:
264,263,125117,1,0,0:0:0:0:
264,263,125202,1,10,1:0:0:0:
407,384,125374,2,0,P|349:374|287:370,1,100,2|10,1:0|0:0,0:0:0:0:
486,296,125717,1,10,1:0:0:0:
486,296,125802,1,0,0:0:0:0:
486,296,125888,1,0,1:0:0:0:
392,154,126060,1,10,1:0:0:0:
392,154,126145,1,0,0:0:0:0:
392,154,126231,21,0,1:0:0:0:
465,37,126402,1,10,0:0:0:0:
436,28,126488,1,0,0:0:0:0:
406,24,126574,2,0,L|355:32,1,50,10|0,1:0|0:0,0:0:0:0:
246,147,126746,1,2,1:0:0:0:
218,157,126831,1,0,0:0:0:0:
187,156,126917,1,10,0:0:0:0:
161,140,127003,1,0,0:0:0:0:
145,114,127088,1,10,1:0:0:0:
136,85,127174,1,0,0:0:0:0:
117,61,127260,1,10,1:0:0:0:
89,50,127345,1,0,0:0:0:0:
59,47,127431,1,10,0:0:0:0:
30,55,127517,1,0,0:0:0:0:
7,74,127602,5,0,1:0:0:0:
7,74,127774,2,0,P|0:119|1:136,1,50,10|0,0:0|0:0,0:0:0:0:
111,212,127945,2,0,P|115:265|109:293,1,50,10|0,1:0|0:0,0:0:0:0:
41,369,128117,1,2,1:0:0:0:
73,382,128202,1,0,0:0:0:0:
108,384,128288,1,10,0:0:0:0:
142,377,128374,1,0,0:0:0:0:
174,363,128460,1,10,1:0:0:0:
201,341,128545,1,0,0:0:0:0:
233,326,128631,1,10,1:0:0:0:
267,319,128717,1,0,0:0:0:0:
301,322,128802,1,10,1:0:0:0:
337,329,128888,1,0,0:0:0:0:
367,345,128974,6,0,P|387:314|391:279,1,50,2|0,1:0|0:0,0:0:0:0:
253,242,129145,2,0,P|261:218|276:198,1,50,10|0,0:0|0:0,0:0:0:0:
439,246,129317,2,0,P|459:215|463:180,1,50,10|0,1:0|0:0,0:0:0:0:
292,126,129488,2,0,P|300:102|315:82,1,50,2|0,1:0|0:0,0:0:0:0:
512,146,129660,1,10,0:0:0:0:
490,112,129745,1,0,0:0:0:0:
463,82,129831,1,10,1:0:0:0:
433,56,129917,1,0,0:0:0:0:
399,35,130002,1,10,1:0:0:0:
362,19,130088,1,0,0:0:0:0:
324,9,130174,1,10,0:0:0:0:
284,4,130260,1,0,0:0:0:0:
244,6,130346,5,2,1:0:0:0:
235,29,130431,1,0,0:0:0:0:
227,53,130517,1,10,0:0:0:0:
219,76,130603,1,0,0:0:0:0:
211,100,130688,1,10,1:0:0:0:
203,124,130774,1,0,0:0:0:0:
195,147,130860,1,2,1:0:0:0:
187,171,130946,1,0,0:0:0:0:
178,195,131031,1,10,0:0:0:0:
145,225,131116,1,0,0:0:0:0:
102,235,131202,1,10,1:0:0:0:
59,221,131288,1,0,0:0:0:0:
30,188,131373,1,10,1:0:0:0:
22,144,131459,1,0,0:0:0:0:
37,102,131545,1,10,1:0:0:0:
71,74,131631,1,0,0:0:0:0:
115,67,131716,21,0,1:0:0:0:
325,136,131888,1,2,0:1:0:0:
325,136,131974,1,0,0:0:0:0:
325,136,132060,2,0,P|327:177|325:201,3,50,10|0|2|0,1:0|0:0|1:0|0:0,0:0:0:0:
301,276,132402,1,10,0:0:0:0:
304,300,132488,1,0,0:0:0:0:
313,323,132574,1,10,1:0:0:0:
329,341,132660,1,0,0:0:0:0:
348,356,132745,1,10,1:0:0:0:
370,367,132831,1,0,0:0:0:0:
393,375,132917,1,10,0:0:0:0:
417,378,133002,1,0,0:0:0:0:
441,375,133088,5,0,1:0:0:0:
505,229,133260,1,2,0:1:0:0:
505,229,133345,1,0,0:0:0:0:
505,229,133431,2,0,P|459:239|445:247,1,50,10|0,1:0|0:0,0:0:0:0:
375,126,133602,2,0,P|329:116|315:108,1,50,2|0,1:0|0:0,0:0:0:0:
256,0,133774,1,10,0:0:0:0:
256,0,133860,1,0,0:0:0:0:
256,0,133945,2,0,P|196:-5|138:-1,2,100,10|10|10,1:0|1:0|1:0,0:0:0:0:
245,133,134460,6,0,P|205:143|184:145,3,50,0|0|2|0,1:0|0:0|0:1|0:0,0:0:0:0:
97,98,134802,2,0,P|101:122|108:146,1,50,10|0,1:0|0:0,0:0:0:0:
197,242,134975,2,0,P|157:252|136:254,3,50,2|0|10|0,1:0|0:0|0:0|0:0,0:0:0:0:
49,208,135317,2,0,P|53:231|60:255,1,50,10|0,1:0|0:0,0:0:0:0:
100,362,135488,2,0,P|125:358|149:351,3,50,10|0|10|0,1:0|0:0|0:0|0:0,0:0:0:0:
278,384,135831,6,0,P|274:361|267:337,3,50,0|0|2|0,1:0|0:0|0:1|0:0,0:0:0:0:
336,219,136174,2,0,P|340:242|347:266,3,50,10|0|2|0,1:0|0:0|1:0|0:0,0:0:0:0:
397,363,136517,1,10,0:0:0:0:
397,363,136602,1,0,0:0:0:0:
397,363,136688,1,10,1:0:0:0:
493,243,136860,1,2,1:2:0:0:
385,126,137031,1,10,1:0:0:0:
479,4,137202,21,0,1:0:0:0:
479,4,137374,1,10,0:0:0:0:
454,3,137459,1,0,0:0:0:0:
429,5,137545,1,10,1:0:0:0:
404,9,137631,1,0,0:0:0:0:
380,16,137716,1,2,1:0:0:0:
357,26,137802,1,0,0:0:0:0:
335,37,137888,1,10,0:0:0:0:
314,51,137974,1,0,0:0:0:0:
295,67,138059,1,10,1:0:0:0:
278,85,138145,1,0,0:0:0:0:
262,105,138231,1,10,1:0:0:0:
249,126,138316,1,0,0:0:0:0:
238,149,138402,1,10,0:0:0:0:
229,172,138488,1,0,0:0:0:0:
223,196,138574,5,0,1:0:0:0:
281,322,138745,1,10,0:0:0:0:
281,322,138831,1,0,0:0:0:0:
281,322,138917,1,10,1:0:0:0:
251,329,139002,1,0,0:0:0:0:
221,329,139088,1,2,1:0:0:0:
191,319,139174,1,0,0:0:0:0:
170,296,139260,1,10,0:0:0:0:
156,269,139345,1,0,0:0:0:0:
150,240,139431,1,10,1:0:0:0:
140,210,139517,1,0,0:0:0:0:
126,183,139602,1,10,1:0:0:0:
105,161,139688,1,0,0:0:0:0:
77,149,139774,1,10,1:0:0:0:
47,145,139860,1,0,0:0:0:0:
18,155,139945,6,0,P|20:201|29:223,3,50,0|0|10|0,1:0|0:0|0:0|0:0,0:0:0:0:
73,297,140288,1,10,1:0:0:0:
106,288,140373,1,0,0:0:0:0:
137,273,140459,1,2,1:0:0:0:
166,253,140545,1,0,0:0:0:0:
189,227,140630,1,10,0:0:0:0:
209,198,140716,1,0,0:0:0:0:
227,168,140802,1,10,1:0:0:0:
249,141,140888,1,0,0:0:0:0:
276,119,140973,1,10,1:0:0:0:
306,102,141059,1,0,0:0:0:0:
339,89,141145,1,10,0:0:0:0:
374,83,141230,1,0,0:0:0:0:
408,83,141317,5,10,1:2:0:0:
405,112,141402,1,8,0:0:0:0:
402,142,141488,1,8,0:0:0:0:
399,172,141574,1,8,0:0:0:0:
396,202,141659,1,14,1:0:0:0:
394,232,141745,1,10,0:0:0:0:
391,262,141831,1,10,1:2:0:0:
388,292,141917,1,10,0:0:0:0:
385,321,142002,1,10,0:0:0:0:
344,315,142088,1,10,0:0:0:0:
307,338,142173,1,14,1:0:0:0:
265,326,142259,1,10,0:2:0:0:
227,348,142345,1,14,1:0:0:0:
186,332,142430,1,10,0:2:0:0:
152,360,142517,1,14,1:0:0:0:
108,345,142602,1,10,0:0:0:0:
74,365,142688,21,4,0:1:0:0:
74,365,142860,2,0,P|68:254|21:152,1,224.999993133545,0|0,0:1|0:0,0:0:0:0:
21,152,145602,2,0,P|167:126|282:33,1,300
282,33,148345,2,0,P|455:169|512:383,2,449.99998626709,0|4|0,0:0|0:1|0:0,0:0:0:0:
282,33,153660,5,4,0:0:0:0:
282,33,153831,1,2,0:0:0:0:
217,120,154002,1,2,0:0:0:0:
148,0,154174,2,0,P|119:-1|81:8,1,59.9999981689454,2|8,1:2|0:0,0:0:0:0:
88,5,154517,1,2,0:0:0:0:
40,107,154688,1,2,1:2:0:0:
82,236,154860,2,0,P|75:292|62:322,1,59.9999981689454,2|0,0:0|0:0,0:0:0:0:
73,295,155202,1,2,0:0:0:0:
180,265,155374,1,2,1:2:0:0:
278,384,155545,1,2,0:0:0:0:
278,384,155717,1,8,0:0:0:0:
278,384,155888,1,2,1:1:0:0:
371,364,156060,1,2,0:1:0:0:
427,287,156231,1,2,0:1:0:0:
428,192,156402,6,0,P|366:205|352:214,1,59.9999981689454,2|2,1:2|0:2,0:0:0:0:
485,101,156745,2,0,P|423:88|409:79,1,59.9999981689454,2|2,0:0|1:2,0:0:0:0:
302,243,157088,2,0,P|262:292|257:308,1,59.9999981689454,10|2,0:0|0:0,0:0:0:0:
361,54,157431,2,0,P|321:4|316:-11,1,59.9999981689454,2|2,1:2|0:0,0:0:0:0:
252,148,157774,1,2,1:2:0:0:
252,148,157860,1,0,0:0:0:0:
252,148,157945,1,2,0:0:0:0:
178,281,158117,2,0,P|162:255|140:235,1,59.9999981689454,2|2,1:2|0:0,0:0:0:0:
237,0,158460,2,0,P|221:25|199:45,1,59.9999981689454,10|2,0:0|1:2,0:0:0:0:
74,199,158802,2,0,P|45:189|15:187,1,59.9999981689454,2|2,0:0|0:2,0:0:0:0:
131,86,159145,5,2,1:2:0:0:
131,86,159317,1,2,0:0:0:0:
178,167,159488,1,2,0:0:0:0:
68,282,159660,2,0,P|37:324|6:385,2,119.999996337891,2|2|2,1:2|0:0|0:0,0:0:0:0:
68,282,160517,1,0,0:0:0:0:
68,282,160688,1,2,0:0:0:0:
162,361,160860,1,2,1:2:0:0:
292,256,161031,2,0,P|328:271|351:294,1,59.9999981689454,2|8,0:1|0:0,0:0:0:0:
449,384,161374,2,0,P|420:373|397:355,1,59.9999981689454,2|2,1:1|0:0,0:0:0:0:
505,275,161717,1,2,0:1:0:0:
505,275,161888,21,2,1:2:0:0:
498,180,162060,1,2,0:0:0:0:
451,99,162231,1,2,0:0:0:0:
445,12,162402,1,2,1:2:0:0:
445,12,162574,2,0,P|399:10|366:16,1,59.9999981689454,10|2,0:0|0:0,0:0:0:0:
301,147,162917,2,0,P|271:149|241:146,1,59.9999981689454,2|2,1:2|0:0,0:0:0:0:
96,78,163260,6,2,L|113:-3,1,80,10|2,0:0|0:3,0:1:0:0:
112,0,163774,1,2,0:3:0:0:
112,0,163945,1,8,0:0:0:0:
123,27,164030,1,2,0:0:0:0:
133,56,164116,1,8,0:0:0:0:
140,85,164202,1,2,0:0:0:0:
144,114,164287,1,8,1:2:0:0:
147,144,164373,1,8,0:0:0:0:
146,174,164459,1,8,0:0:0:0:
143,204,164545,1,8,0:0:0:0:
138,234,164630,5,4,1:2:0:0:
44,362,164802,1,2,1:1:0:0:
76,378,164888,1,0,0:0:0:0:
111,384,164974,1,10,1:0:0:0:
146,379,165060,1,0,0:0:0:0:
178,364,165145,2,0,P|202:337|214:314,1,59.9999981689454,2|0,1:3|0:0,0:0:0:0:
348,373,165317,2,0,P|280:388|266:401,1,59.9999981689454,10|0,0:0|0:0,0:0:0:0:
461,373,165488,1,10,1:0:0:0:
444,340,165574,1,2,0:3:0:0:
435,304,165660,1,10,1:0:0:0:
433,268,165745,1,2,0:3:0:0:
436,231,165831,1,10,1:0:0:0:
444,195,165917,1,2,0:3:0:0:
457,162,166002,5,2,1:3:0:0:
421,156,166087,1,0,0:0:0:0:
385,150,166173,1,2,1:1:0:0:
350,144,166259,1,0,0:0:0:0:
314,138,166345,1,10,1:0:0:0:
279,132,166431,1,0,0:0:0:0:
243,126,166517,1,2,1:3:0:0:
208,120,166602,1,0,0:0:0:0:
172,114,166688,1,10,0:0:0:0:
0,246,166860,2,0,P|17:276|27:310,1,59.9999981689454,10|2,1:0|0:3,0:0:0:0:
74,132,167031,2,0,P|38:131|4:123,1,59.9999981689454,10|2,1:0|0:3,0:0:0:0:
133,253,167202,2,0,P|151:222|175:196,1,59.9999981689454,10|2,1:0|0:3,0:0:0:0:
120,44,167374,21,2,1:3:0:0:
153,29,167460,1,0,0:0:0:0:
188,23,167545,1,2,1:1:0:0:
224,20,167631,1,0,0:0:0:0:
259,23,167717,1,10,1:0:0:0:
292,34,167802,1,0,0:0:0:0:
325,48,167888,2,0,P|359:75|385:104,2,59.9999981689454,2|0|10,1:3|0:0|0:0,0:0:0:0:
241,149,168230,1,10,1:0:0:0:
243,185,168316,1,2,0:3:0:0:
254,219,168402,1,10,1:0:0:0:
274,249,168487,1,2,0:3:0:0:
300,273,168573,1,10,1:0:0:0:
332,290,168659,1,2,0:3:0:0:
366,299,168745,6,0,L|409:237,1,59.9999981689454,2|0,1:3|0:0,0:0:0:0:
512,335,168917,2,0,L|469:397,1,59.9999981689454,2|0,1:0|0:0,0:0:0:0:
365,179,169088,2,0,L|408:117,1,59.9999981689454,10|0,1:0|0:0,0:0:0:0:
511,215,169260,2,0,L|468:277,2,59.9999981689454,2|0|10,1:3|0:0|0:0,0:0:0:0:
326,382,169602,1,10,1:0:0:0:
326,382,169688,1,2,0:3:0:0:
326,382,169774,2,0,P|287:374|256:374,1,59.9999981689454,10|2,1:0|0:3,0:0:0:0:
135,377,169945,1,10,1:0:0:0:
135,377,170031,1,2,0:3:0:0:
135,377,170117,6,0,P|115:311|116:247,1,119.999996337891,2|2,1:3|1:1,0:0:0:0:
119,224,170374,1,0,0:0:0:0:
128,189,170460,1,10,1:0:0:0:
4,48,170631,2,0,P|98:58|142:46,1,119.999996337891,2|10,1:3|0:0,0:0:0:0:
154,36,170888,1,0,0:0:0:0:
186,20,170974,1,10,1:0:0:0:
220,10,171060,1,2,0:3:0:0:
255,10,171145,1,10,1:0:0:0:
288,22,171231,1,2,0:3:0:0:
319,40,171317,1,10,1:0:0:0:
343,65,171402,1,2,0:3:0:0:
359,97,171488,5,2,1:3:0:0:
219,146,171660,1,2,1:0:0:0:
219,146,171745,1,0,0:0:0:0:
219,146,171831,1,10,1:0:0:0:
268,286,172002,1,2,1:3:0:0:
408,237,172174,1,10,0:0:0:0:
359,97,172345,1,10,1:0:0:0:
340,127,172430,1,2,0:3:0:0:
328,161,172516,1,10,1:0:0:0:
324,197,172602,1,2,0:3:0:0:
328,233,172687,1,10,1:0:0:0:
339,267,172773,1,2,0:3:0:0:
358,297,172859,21,2,1:3:0:0:
222,383,173031,1,2,1:1:0:0:
222,383,173117,1,2,0:0:0:0:
222,383,173202,1,10,1:0:0:0:
222,383,173288,1,2,0:0:0:0:
222,383,173374,1,2,1:3:0:0:
102,242,173545,1,10,0:0:0:0:
102,242,173631,1,2,0:0:0:0:
102,242,173717,2,0,L|116:167,1,59.9999981689454,10|2,1:0|0:3,0:0:0:0:
227,125,173888,2,0,L|213:50,1,59.9999981689454,10|2,1:0|0:3,0:0:0:0:
333,0,174060,2,0,L|408:14,1,59.9999981689454,10|2,1:0|0:3,0:0:0:0:
508,51,174231,6,0,P|513:95|507:144,1,59.9999981689454,2|0,1:3|0:0,0:0:0:0:
346,122,174402,2,0,P|341:166|347:215,1,59.9999981689454,10|0,1:0|0:0,0:0:0:0:
495,214,174574,2,0,P|500:258|494:307,1,59.9999981689454,10|0,1:0|0:0,0:0:0:0:
372,355,174745,1,2,1:3:0:0:
324,346,174830,1,2,0:0:0:0:
281,327,174916,1,10,0:0:0:0:
245,295,175002,1,2,0:0:0:0:
221,254,175087,1,10,1:0:0:0:
204,209,175173,1,2,0:3:0:0:
184,165,175259,1,10,1:0:0:0:
152,129,175345,1,2,0:3:0:0:
111,106,175430,1,10,1:0:0:0:
64,94,175516,1,2,0:3:0:0:
17,93,175602,5,4,1:0:0:0:
17,93,175774,1,2,1:0:0:0:
17,134,175859,1,2,0:0:0:0:
30,174,175945,1,10,1:0:0:0:
53,209,176031,1,2,0:0:0:0:
86,236,176116,1,2,1:3:0:0:
124,252,176202,1,2,0:0:0:0:
166,256,176288,1,10,0:0:0:0:
207,249,176374,1,2,0:0:0:0:
244,230,176459,1,10,1:0:0:0:
275,202,176545,1,2,0:3:0:0:
296,165,176631,1,10,1:0:0:0:
306,125,176716,1,2,0:3:0:0:
304,83,176802,1,10,1:0:0:0:
290,44,176888,1,2,0:3:0:0:
265,10,176974,5,2,1:3:0:0:
240,35,177059,1,2,0:0:0:0:
219,65,177145,1,2,1:0:0:0:
204,98,177231,1,2,0:0:0:0:
195,133,177316,1,10,1:0:0:0:
192,168,177402,1,2,0:0:0:0:
195,204,177488,1,2,1:3:0:0:
203,239,177574,1,2,0:0:0:0:
218,272,177659,1,10,0:0:0:0:
237,302,177745,1,2,0:0:0:0:
262,328,177831,2,0,L|338:335,1,59.9999981689454,10|2,1:0|0:3,0:0:0:0:
377,167,178002,2,0,L|332:229,1,59.9999981689454,10|2,1:0|0:3,0:0:0:0:
458,347,178174,2,0,L|426:277,1,59.9999981689454,10|2,1:0|0:3,0:0:0:0:
512,179,178345,21,4,1:0:0:0:
512,179,178517,1,2,1:0:0:0:
485,139,178602,1,0,0:0:0:0:
473,92,178688,1,10,1:0:0:0:
478,44,178774,1,0,0:0:0:0:
499,1,178860,1,2,1:0:0:0:
167,270,179202,1,10,1:0:0:0:
135,297,179288,1,2,0:3:0:0:
93,303,179373,1,10,1:0:0:0:
51,292,179460,1,2,0:3:0:0:
22,261,179545,2,0,P|0:210|-1:155,1,59.9999981689454,10|2,1:0|0:3,0:0:0:0:
8,67,179717,6,0,P|60:70|85:78,1,59.9999981689454,4|0,1:0|0:0,0:0:0:0:
147,183,179888,2,0,P|176:188|206:187,1,59.9999981689454,2|0,1:0|0:0,0:0:0:0:
305,90,180060,2,0,P|357:93|382:101,1,59.9999981689454,10|0,1:0|0:0,0:0:0:0:
444,206,180231,2,0,P|473:211|503:210,1,59.9999981689454,2|0,1:0|0:0,0:0:0:0:
244,384,180574,2,0,P|236:316|234:217,2,119.999996337891,10|10|10,1:0|1:0|1:0,0:0:0:0:
295,111,181088,5,4,1:0:0:0:
295,111,181260,1,2,1:0:0:0:
248,122,181345,1,0,0:0:0:0:
199,122,181431,2,0,P|164:116|138:104,1,59.9999981689454,10|0,1:0|0:0,0:0:0:0:
44,43,181602,1,2,1:0:0:0:
44,43,181688,1,0,0:0:0:0:
44,43,181774,1,10,0:0:0:0:
44,43,181860,1,0,0:0:0:0:
44,43,181945,2,0,P|21:82|14:119,1,59.9999981689454,10|2,1:0|0:3,0:0:0:0:
133,192,182117,2,0,P|145:235|142:273,1,59.9999981689454,10|2,1:0|0:3,0:0:0:0:
2,324,182288,2,0,P|2:369|14:404,1,59.9999981689454,10|2,1:0|0:3,0:3:0:0:
164,384,182460,6,0,P|224:379|292:362,1,119.999996337891,4|2,1:0|1:0,0:0:0:0:
327,349,182717,1,0,0:0:0:0:
370,329,182802,2,0,P|359:245|330:163,1,119.999996337891,10|2,1:0|1:0,0:0:0:0:
463,61,183145,1,10,0:0:0:0:
463,61,183231,1,0,0:0:0:0:
463,61,183317,2,0,P|465:127|472:154,1,59.9999981689454,10|2,1:0|0:3,0:0:0:0:
305,77,183488,2,0,P|268:132|259:158,1,59.9999981689454,10|2,1:0|0:3,0:0:0:0:
181,0,183660,2,0,P|119:24|96:40,1,59.9999981689454,10|2,1:0|0:3,0:0:0:0:
12,69,183831,21,4,1:0:0:0:
12,69,183917,1,2,0:0:0:0:
12,69,184002,2,0,P|16:100|24:127,1,59.9999981689454,2|0,1:0|0:0,0:0:0:0:
63,266,184174,2,0,P|58:335|46:392,2,119.999996337891,10|2|10,1:0|1:0|0:0,0:0:0:0:
227,344,184688,2,0,L|298:354,1,59.9999981689454,10|2,1:0|0:3,0:0:0:0:
256,192,184860,2,0,L|320:192,1,59.9999981689454,10|2,1:0|0:3,0:0:0:0:
227,40,185031,2,0,L|298:30,1,59.9999981689454,10|2,1:0|0:3,0:0:0:0:
455,18,185202,5,4,1:0:0:0:
474,53,185288,1,0,0:0:0:0:
486,92,185374,1,2,1:0:0:0:
489,135,185460,1,0,0:0:0:0:
483,176,185545,1,10,1:0:0:0:
396,378,185717,1,2,1:0:0:0:
379,340,185802,1,0,0:0:0:0:
373,300,185888,1,10,0:0:0:0:
380,259,185974,1,0,0:0:0:0:
385,217,186060,1,2,1:0:0:0:
375,176,186145,1,0,0:0:0:0:
356,138,186231,6,10,L|322:125,1,29.9999990844727
301,181,186317,2,10,L|302:145,1,29.9999990844727
243,141,186402,2,0,L|276:131,1,29.9999990844727,10|0,0:0|0:0,0:0:0:0:
263,75,186488,2,0,L|282:104,1,29.9999990844727,10|0,0:0|0:0,0:0:0:0:
333,72,186574,2,0,L|311:99,1,29.9999990844727,4|0,1:2|0:0,0:0:0:0:
297,257,186745,6,0,P|230:275|157:261,1,119.999996337891,2|10,1:0|1:0,0:0:0:0:
146,257,187002,1,0,0:0:0:0:
115,238,187088,1,2,1:0:0:0:
8,322,187260,2,0,P|15:373|24:401,1,59.9999981689454,10|0,0:0|0:0,0:0:0:0:
44,149,187431,2,0,P|37:98|28:70,1,59.9999981689454,10|2,1:0|0:3,0:0:0:0:
67,153,187602,2,0,P|64:123|57:93,1,59.9999981689454,10|2,1:0|0:3,0:0:0:0:
31,325,187774,2,0,P|33:354|40:384,1,59.9999981689454,10|2,0:0|0:3,0:0:0:0:
91,157,187945,21,2,1:3:0:0:
127,334,188117,1,2,1:0:0:0:
165,348,188202,1,0,0:0:0:0:
206,355,188288,2,0,P|282:354|338:342,1,119.999996337891,10|2,1:0|1:0,0:0:0:0:
512,384,188631,1,10,0:0:0:0:
512,384,188717,1,0,0:0:0:0:
512,384,188802,2,0,P|498:354|487:316,1,59.9999981689454,10|2,1:0|0:3,0:0:0:0:
337,247,188974,2,0,P|348:215|367:181,1,59.9999981689454,10|2,1:0|0:3,0:0:0:0:
310,26,189145,2,0,P|340:12|378:1,1,59.9999981689454,10|2,1:0|0:3,0:0:0:0:
512,0,189317,5,2,1:3:0:0:
507,44,189402,1,0,0:0:0:0:
490,85,189488,1,2,1:0:0:0:
461,120,189574,1,0,0:0:0:0:
424,145,189659,1,10,1:0:0:0:
250,104,189831,2,0,P|228:184|224:259,1,119.999996337891,2|10,1:0|0:0,0:0:0:0:
146,382,190174,2,0,P|123:344|116:311,1,59.9999981689454,10|2,1:0|0:3,0:0:0:0:
0,235,190345,2,0,P|23:197|30:164,1,59.9999981689454,10|2,1:0|0:3,0:0:0:0:
0,31,190517,2,0,P|71:24|130:24,1,119.999996337891,10|2,0:0|1:3,0:0:0:0:
160,28,190774,5,0,0:0:0:0:
202,37,190860,1,2,1:0:0:0:
239,55,190945,1,0,0:0:0:0:
272,80,191031,1,10,1:0:0:0:
299,111,191117,1,0,0:0:0:0:
319,147,191202,1,2,1:0:0:0:
195,288,191374,1,10,0:0:0:0:
226,315,191460,1,0,0:0:0:0:
263,333,191545,2,0,P|336:349|413:340,1,119.999996337891,10|2,1:0|1:0,0:0:0:0:
512,201,191888,2,0,P|439:185|362:194,1,119.999996337891,10|2,1:0|1:3,0:0:0:0:
218,215,192231,5,2,1:0:0:0:
218,215,192317,1,0,0:0:0:0:
218,215,192402,1,10,1:0:0:0:
107,323,192574,2,0,P|116:370|127:393,2,59.9999981689454,2|0|10,1:0|0:0|0:0,0:0:0:0:
104,248,192831,1,0,0:0:0:0:
104,248,192917,2,0,L|115:185,1,59.9999981689454,10|2,1:0|0:3,0:0:0:0:
207,83,193088,2,0,L|150:102,1,59.9999981689454,10|2,1:0|0:3,0:0:0:0:
13,76,193260,2,0,L|59:114,1,59.9999981689454,10|2,0:0|0:3,0:0:0:0:
298,255,193431,22,0,P|314:196|322:112,1,119.999996337891,2|2,1:3|1:0,0:0:0:0:
321,95,193688,1,0,0:0:0:0:
316,53,193774,1,10,1:0:0:0:
477,0,193945,2,0,P|465:82|468:139,1,119.999996337891,2|10,1:0|0:0,0:0:0:0:
471,160,194202,1,0,0:0:0:0:
484,199,194288,2,0,L|505:264,1,59.9999981689454,10|2,1:0|0:3,0:0:0:0:
337,316,194460,2,0,L|316:381,1,59.9999981689454,10|2,1:0|0:3,0:0:0:0:
147,229,194631,2,0,L|168:294,1,59.9999981689454,10|2,1:0|0:3,0:0:0:0:
0,382,194802,5,2,1:3:0:0:
65,228,194974,1,2,1:0:0:0:
75,187,195059,1,2,0:0:0:0:
77,145,195145,1,10,1:0:0:0:
73,103,195231,1,2,0:0:0:0:
64,62,195317,2,0,P|49:31|28:0,1,59.9999981689454,2|0,1:0|0:0,0:0:0:0:
149,75,195488,1,10,0:0:0:0:
186,93,195574,1,2,0:0:0:0:
227,104,195660,1,10,1:0:0:0:
268,108,195745,1,2,0:3:0:0:
310,108,195831,1,10,1:0:0:0:
351,98,195917,1,2,0:3:0:0:
390,84,196002,1,10,1:0:0:0:
427,64,196088,1,2,0:3:0:0:
461,39,196174,5,2,1:3:0:0:
464,75,196259,1,0,0:0:0:0:
468,111,196345,1,2,1:0:0:0:
472,147,196431,1,0,0:0:0:0:
443,169,196517,1,10,1:0:0:0:
445,199,196602,1,0,0:0:0:0:
449,229,196688,1,2,1:0:0:0:
452,258,196774,1,0,0:0:0:0:
428,277,196860,1,10,0:0:0:0:
430,301,196945,1,0,0:0:0:0:
433,325,197031,1,10,1:0:0:0:
436,348,197117,1,2,0:3:0:0:
439,371,197202,2,0,L|363:380,3,59.9999981689454,10|2|10|2,1:0|0:3|1:0|0:3,0:0:0:0:
274,384,197545,6,0,P|265:302|269:214,1,119.999996337891,4|2,1:2|1:0,0:0:0:0:
268,228,197802,1,0,0:0:0:0:
274,192,197887,1,10,1:0:0:0:
284,158,197973,1,0,0:0:0:0:
299,125,198059,1,2,1:0:0:0:
316,93,198144,1,0,0:0:0:0:
337,64,198230,1,10,0:0:0:0:
363,38,198317,1,0,0:0:0:0:
392,17,198402,1,10,1:0:0:0:
350,14,198488,1,2,0:3:0:0:
308,12,198574,1,10,1:0:0:0:
266,10,198660,1,2,0:3:0:0:
224,8,198745,1,10,1:0:0:0:
182,6,198831,1,2,0:3:0:0:
140,4,198917,22,0,P|127:41|120:81,1,59.9999981689454,4|0,1:0|0:0,0:0:0:0:
197,203,199088,1,2,1:0:0:0:
202,238,199174,1,0,0:0:0:0:
202,274,199260,1,10,1:0:0:0:
197,309,199345,1,0,0:0:0:0:
187,343,199431,2,0,P|127:359|43:357,1,119.999996337891,2|10,1:0|0:0,0:0:0:0:
33,353,199688,1,0,0:0:0:0:
1,339,199774,2,0,L|16:275,1,59.9999981689454,10|2,1:0|0:3,0:0:0:0:
91,130,199945,2,0,L|106:194,1,59.9999981689454,10|2,1:0|0:3,0:0:0:0:
271,147,200117,2,0,L|335:162,1,59.9999981689454,10|2,1:0|0:3,0:0:0:0:
505,151,200288,5,4,1:0:0:0:
496,186,200373,1,0,0:0:0:0:
484,219,200459,1,2,1:0:0:0:
468,252,200545,1,0,0:0:0:0:
449,282,200631,1,10,1:0:0:0:
427,310,200717,1,0,0:0:0:0:
401,335,200802,1,2,1:0:0:0:
372,357,200888,1,0,0:0:0:0:
340,375,200974,2,0,L|264:371,1,59.9999981689454,10|0,0:0|0:0,0:0:0:0:
132,358,201145,2,0,P|142:287|162:205,2,119.999996337891,10|10|10,1:0|1:0|1:0,0:0:0:0:
236,165,201660,5,4,1:0:0:0:
233,129,201745,1,0,0:0:0:0:
222,94,201831,1,2,1:0:0:0:
199,65,201917,1,0,0:0:0:0:
168,46,202002,2,0,L|104:51,3,59.9999981689454,10|0|2|0,1:0|0:0|1:0|0:0,0:0:0:0:
10,133,202345,1,10,0:0:0:0:
10,133,202431,1,0,0:0:0:0:
10,133,202517,2,0,L|74:138,1,59.9999981689454,10|2,1:0|0:3,0:0:0:0:
95,271,202688,2,0,L|150:238,1,59.9999981689454,2|2,1:2|0:3,0:0:0:0:
243,335,202859,2,0,L|269:276,1,59.9999981689454,10|2,1:0|0:3,0:0:0:0:
400,302,203031,5,4,1:0:0:0:
400,302,203202,1,2,1:0:0:0:
400,302,203288,1,0,0:0:0:0:
400,302,203374,1,10,1:0:0:0:
502,381,203545,2,0,P|511:320|507:233,1,119.999996337891,2|10,1:0|0:0,0:0:0:0:
377,191,203888,2,0,P|369:158|368:127,1,59.9999981689454,10|2,1:0|0:3,0:0:0:0:
369,57,204060,2,0,P|375:23|387:-4,1,59.9999981689454,10|2,1:0|0:3,0:0:0:0:
256,64,204231,2,0,L|256:128,1,59.9999981689454,10|2,1:0|0:3,0:0:0:0:
126,0,204402,22,0,P|137:27|143:57,1,59.9999981689454,4|0,1:0|0:0,0:0:0:0:
144,132,204574,2,0,P|142:161|135:191,1,59.9999981689454,2|0,1:0|0:0,0:0:0:0:
104,259,204745,2,0,P|89:285|70:308,1,59.9999981689454,10|0,1:0|0:0,0:0:0:0:
13,357,204917,1,2,1:0:0:0:
196,324,205088,1,10,0:0:0:0:
196,324,205174,1,0,0:0:0:0:
196,324,205260,1,10,1:0:0:0:
234,330,205345,1,2,0:3:0:0:
272,337,205431,1,10,1:0:0:0:
311,343,205517,1,2,0:3:0:0:
349,350,205602,1,10,1:0:0:0:
388,356,205688,1,2,0:3:0:0:
426,363,205774,6,0,P|436:326|436:290,1,59.9999981689454,4|0,1:0|0:0,0:0:0:0:
320,260,205945,2,0,P|340:225|361:203,1,59.9999981689454,2|0,1:0|0:0,0:0:0:0:
497,210,206117,2,0,P|484:168|464:144,1,59.9999981689454,10|0,1:0|0:0,0:0:0:0:
304,126,206288,2,0,P|337:96|360:85,1,59.9999981689454,2|0,1:0|0:0,0:0:0:0:
512,52,206460,2,0,P|478:30|437:25,1,59.9999981689454,10|0,0:0|0:0,0:0:0:0:
315,1,206631,2,0,P|256:0|196:2,1,119.999996337891,10|10,1:0|1:0,0:0:0:0:
10,0,206974,1,10,1:0:0:0:
10,0,207060,1,2,0:3:0:0:
10,0,207145,5,12,1:0:0:0:
12,44,207230,1,8,0:0:0:0:
15,89,207316,1,8,0:0:0:0:
17,134,207402,1,8,0:0:0:0:
20,179,207487,1,14,1:0:0:0:
23,224,207574,1,10,0:0:0:0:
25,269,207660,1,10,1:2:0:0:
27,313,207745,1,10,0:0:0:0:
29,357,207831,1,10,0:0:0:0:
81,380,207917,1,10,0:0:0:0:
132,357,208002,1,14,1:0:0:0:
183,381,208088,1,10,0:0:0:0:
234,356,208174,1,14,1:0:0:0:
284,381,208260,1,10,0:0:0:0:
333,353,208345,1,14,1:0:0:0:
384,377,208431,1,10,0:0:0:0:
434,349,208517,5,4,0:1:0:0:
256,192,208688,12,4,214003,0:1:0:0:
256,192,215374,5,6,0:1:0:0:
