osu file format v14

[General]
AudioFilename: audio.ogg
AudioLeadIn: 0
PreviewTime: 153660
Countdown: 0
SampleSet: Soft
StackLeniency: 0.7
Mode: 0
LetterboxInBreaks: 0
WidescreenStoryboard: 1

[Editor]
Bookmarks: 160158
DistanceSpacing: 1
BeatDivisor: 2
GridSize: 16
TimelineZoom: 1.8

[Metadata]
Title:Deep Sea
TitleUnicode:Deep Sea
Artist:Yousei Teikoku
ArtistUnicode:妖精帝國
Creator:ent
Version:Beginner
Source:
Tags:stigma electronic instrumental
BeatmapID:4010499
BeatmapSetID:1758918

[Difficulty]
HPDrainRate:3
CircleSize:3
OverallDifficulty:3
ApproachRate:4
SliderMultiplier:0.8
SliderTickRate:1

[Events]
//Background and Video events
0,0,"29182021_p0 1.6.jpg",0,0
//Break Periods
2,55117,59082
2,77059,86511
2,88031,97482
2,142888,152340
//Storyboard Layer 0 (Background)
//Storyboard Layer 1 (Fail)
//Storyboard Layer 2 (Pass)
//Storyboard Layer 3 (Foreground)
//Storyboard Layer 4 (Overlay)
//Storyboard Sound Samples

[TimingPoints]
60,342.857142857143,4,2,0,30,1,0
10688,-100,4,2,1,42,0,1
10774,-100,4,2,1,44,0,1
10860,-100,4,2,1,46,0,1
10945,-100,4,2,1,48,0,1
11031,-100,4,2,1,50,0,0
21831,-100,4,2,0,50,0,0
22002,-100,4,2,1,50,0,0
22860,-100,4,2,1,50,0,0
32588,-100,4,2,0,40,0,0
32802,-100,4,2,0,30,0,0
32974,-100,4,2,1,50,0,0
33831,-100,4,2,1,50,0,0
43945,-100,4,2,1,50,0,1
44631,-100,4,2,1,50,0,0
54917,-100,4,2,1,40,0,1
60402,-100,4,2,1,50,0,0
75488,-100,4,2,2,40,0,1
75831,-100,4,2,2,47,0,1
76174,-100,4,2,2,54,0,1
76517,-100,4,2,2,61,0,1
76860,-100,4,2,0,30,0,0
87831,-100,4,2,66,20,0,1
88345,-100,4,2,66,20,0,0
98802,-100,4,2,1,60,0,0
119374,-100,4,2,1,30,0,0
119545,-100,4,2,0,30,0,0
120060,-100,4,2,2,50,0,0
120745,-100,4,2,1,60,0,0
141317,-100,4,2,2,60,0,1
142002,-100,4,2,2,66,0,1
142688,-100,4,2,0,30,0,0
144060,-100,4,2,0,5,0,0
144231,-100,4,2,0,30,0,0
145431,-100,4,2,0,5,0,0
145602,-100,4,2,0,30,0,0
146117,-100,4,2,0,5,0,0
146288,-100,4,2,0,30,0,0
146802,-100,4,2,0,5,0,0
146974,-100,4,2,0,30,0,0
148174,-100,4,2,0,5,0,0
148345,-100,4,2,0,30,0,0
150231,-100,4,2,0,5,0,0
150402,-100,4,2,0,30,0,0
150917,-100,4,2,0,15,0,0
151088,-100,4,2,0,30,0,0
153660,-111.111111111111,4,2,1,50,0,1
160002,-111.111111111111,4,2,1,50,0,1
160345,-111.111111111111,4,2,1,50,0,1
161202,-111.111111111111,4,2,1,50,0,1
161373,-111.111111111111,4,2,1,50,0,1
163260,-111.111111111111,4,2,0,55,0,0
163602,-111.111111111111,4,2,0,55,0,0
163945,-111.111111111111,4,2,1,60,0,0
164288,-111.111111111111,4,2,1,66,0,0
164631,-100,4,2,1,70,0,1
186231,-100,4,2,1,72,0,1
186317,-100,4,2,1,74,0,1
186402,-100,4,2,1,76,0,1
186488,-100,4,2,1,78,0,1
186574,-100,4,2,1,80,0,1
207145,-100,4,2,2,80,0,1
207488,-100,4,2,2,85,0,1
207831,-100,4,2,2,90,0,1
208174,-100,4,2,2,95,0,1
208517,-100,4,2,66,100,0,0
208688,-100,4,2,66,20,0,0
214002,-100,4,2,66,20,0,1
215374,-100,4,2,66,20,0,0

[Colours]
Combo1 : 255,255,255
Combo2 : 173,255,95
Combo3 : 255,88,100
Combo4 : 255,94,55
Combo5 : 17,254,176

[HitObjects]
256,192,5545,12,2,9488,0:0:0:0:
256,192,11031,5,4,1:0:0:0:
371,223,11545,1,2,1:0:0:0:
460,143,12060,1,10,1:0:0:0:
460,143,12402,2,0,P|449:76|455:5,2,120,0|2|10,1:0|1:1|0:1,0:0:0:0:
507,207,13774,1,0,1:0:0:0:
474,322,14288,1,2,1:0:0:0:
358,355,14802,2,0,P|298:349|262:349,1,80,10|0,1:0|1:0,0:0:0:0:
198,358,15488,1,10,1:0:0:0:
105,281,16002,1,10,1:0:0:0:
110,160,16517,5,0,1:0:0:0:
229,132,17031,1,2,1:1:0:0:
229,132,17374,2,0,P|293:131|346:161,1,120,10|0,1:0|1:0,0:0:0:0:
399,269,18402,1,2,1:0:0:0:
399,269,18745,1,10,1:0:0:0:
487,188,19260,2,0,P|510:133|506:74,1,120,0|2,1:0|1:0,0:0:0:0:
454,13,20117,1,10,1:0:0:0:
342,56,20631,2,0,P|284:51|209:50,2,120,0|2|10,1:0|1:1|1:1,0:0:0:0:
406,103,22002,5,6,1:2:0:0:
424,221,22517,1,2,1:0:0:0:
323,285,23031,1,10,1:0:0:0:
323,285,23374,2,0,L|169:274,1,120,0|2,1:0|1:0,0:0:0:0:
128,304,24231,1,10,1:0:0:0:
19,252,24745,1,0,1:0:0:0:
5,132,25260,2,0,P|18:69|58:19,1,120,2|10,1:0|1:0,0:0:0:0:
128,7,26117,1,0,1:0:0:0:
146,130,26631,1,2,1:0:0:0:
146,130,26974,1,10,1:0:0:0:
136,249,27488,6,0,L|120:385,2,120,0|2|10,1:0|1:0|1:0,0:0:0:0:
199,200,28860,1,0,1:0:0:0:
313,236,29374,1,2,1:0:0:0:
313,236,29717,1,10,1:0:0:0:
403,157,30231,2,0,P|391:110|397:37,1,120,0|2,1:0|1:0,0:0:0:0:
512,0,31260,1,10,1:0:0:0:
512,0,31602,1,0,1:0:0:0:
505,120,32117,2,0,L|493:257,1,120,2|2,1:0|0:0,0:0:0:0:
485,319,32974,21,6,1:2:0:0:
370,354,33488,1,2,1:1:0:0:
277,277,34002,1,10,1:0:0:0:
277,277,34345,2,0,P|270:215|276:137,1,120,0|2,1:0|1:0,0:0:0:0:
290,79,35202,1,10,1:0:0:0:
187,16,35717,2,0,P|130:11|63:29,1,120,0|2,1:0|1:0,0:0:0:0:
9,129,36745,1,10,1:0:0:0:
9,129,37088,1,0,1:0:0:0:
24,247,37602,1,2,1:0:0:0:
24,247,37945,2,0,L|12:369,1,120,10|0,1:0|1:0,0:0:0:0:
131,384,38974,5,2,1:0:0:0:
213,296,39488,2,0,P|213:241|205:204,1,80,10|0,1:0|1:0,0:0:0:0:
139,118,40345,1,2,1:0:0:0:
139,118,40688,1,10,1:0:0:0:
180,5,41202,2,0,P|239:1|304:9,1,120,0|2,1:0|1:0,0:0:0:0:
358,62,42060,1,10,1:0:0:0:
376,180,42574,1,0,1:0:0:0:
355,298,43088,1,2,1:0:0:0:
355,298,43431,2,0,P|367:346|436:382,1,120,10|4,1:0|1:0,0:0:0:0:
512,224,44631,6,0,P|456:211|326:205,1,160,10|0,0:0|1:0,0:0:0:0:
239,239,45831,1,2,1:0:0:0:
121,214,46345,1,10,1:0:0:0:
121,214,46688,2,0,P|72:214|6:259,1,120,0|2,1:0|1:0,0:0:0:0:
0,329,47545,1,10,1:0:0:0:
114,364,48060,2,0,P|188:357|238:324,1,120,0|2,1:0|1:0,0:0:0:0:
245,256,48917,1,10,1:0:0:0:
193,147,49431,5,0,1:0:0:0:
78,181,49945,1,2,1:0:0:0:
78,181,50288,2,0,P|29:156|9:84,1,120,10|0,1:0|1:0,0:0:0:0:
32,21,51145,1,10,1:0:0:0:
148,52,51660,1,10,1:0:0:0:
256,0,52174,21,0,1:0:0:0:
411,39,52860,1,10,0:0:0:0:
421,198,53545,1,0,1:0:0:0:
272,257,54231,1,10,0:0:0:0:
171,134,54917,1,4,0:0:0:0:
256,192,60402,5,4,1:2:0:0:
154,256,60917,2,0,P|77:254|51:243,1,80,2|10,1:0|1:0,0:0:0:0:
3,157,61774,1,0,1:0:0:0:
34,41,62288,1,2,1:0:0:0:
151,16,62802,2,0,L|243:31,1,80,10|0,1:0|1:0,0:0:0:0:
248,147,63660,1,2,1:0:0:0:
167,235,64174,1,10,1:0:0:0:
167,235,64517,2,0,P|175:299|210:366,1,120,0|2,1:0|1:0,0:0:0:0:
274,373,65374,1,10,1:0:0:0:
383,324,65888,6,0,P|394:265|396:188,2,120,0|2|10,1:0|1:0|1:0,0:0:0:0:
443,376,67260,1,0,1:0:0:0:
482,262,67774,1,2,1:0:0:0:
460,143,68288,1,10,1:0:0:0:
460,143,68631,2,0,P|394:138|317:117,2,120,0|2|10,1:0|1:0|1:0,0:0:0:0:
501,74,70002,1,0,1:0:0:0:
391,23,70517,1,2,1:0:0:0:
273,47,71031,1,10,1:0:0:0:
273,47,71374,5,0,1:0:0:0:
229,158,71888,2,0,P|183:172|106:159,1,120,2|10,1:0|1:0,0:0:0:0:
58,103,72745,1,0,1:0:0:0:
6,211,73260,1,2,1:0:0:0:
6,211,73602,1,10,1:0:0:0:
103,280,74117,2,0,P|152:274|232:285,1,120,0|2,1:0|1:0,0:0:0:0:
289,325,74974,1,10,1:0:0:0:
403,289,75488,22,0,P|404:222|202:145,1,320,8|4,1:0|0:1,0:0:0:0:
256,192,87831,53,6,0:1:0:0:
256,192,98802,6,0,L|129:179,2,120,4|0|10,1:2|1:0|1:0,0:0:0:0:
319,143,100174,2,0,L|446:130,2,120,2|0|10,1:2|1:0|1:0,0:0:0:0:
256,94,101545,1,2,1:2:0:0:
249,213,102060,1,0,1:0:0:0:
261,332,102574,1,10,1:0:0:0:
261,332,102917,2,0,P|217:345|136:342,1,120,0|0,1:0|1:0,0:0:0:0:
68,315,103774,2,0,P|23:256|21:180,1,120,10|0,1:0|1:0,0:0:0:0:
40,94,104802,5,0,1:0:0:0:
40,94,105145,2,0,P|121:105|175:105,1,120,10|0,1:0|1:0,0:0:0:0:
237,89,106002,1,10,1:0:0:0:
326,8,106517,1,10,1:0:0:0:
430,67,107031,1,0,1:0:0:0:
405,184,107545,2,0,P|401:232|411:317,1,120,0|10,1:0|1:0,0:0:0:0:
447,372,108402,1,0,1:0:0:0:
492,260,108917,2,0,P|496:196|486:130,1,120,0|10,1:0|1:0,0:0:0:0:
430,85,109774,6,0,L|302:81,1,120,4|0,1:0|1:0,0:0:0:0:
197,122,110802,1,10,1:0:0:0:
197,122,111145,2,0,L|69:118,1,120,0|0,1:0|1:0,0:0:0:0:
23,58,112002,1,10,1:0:0:0:
134,13,112517,2,0,P|184:8|268:32,1,120,0|0,1:0|1:0,0:0:0:0:
300,86,113374,1,10,1:0:0:0:
286,205,113888,1,0,1:0:0:0:
178,257,114402,1,0,1:0:0:0:
178,257,114745,2,0,P|99:251|40:257,1,120,10|0,1:0|1:0,0:0:0:0:
3,360,115774,5,0,1:0:0:0:
121,376,116288,1,10,1:0:0:0:
121,376,116631,2,0,L|265:368,1,120,0|0,1:0|1:0,0:0:0:0:
304,320,117488,1,10,1:0:0:0:
420,347,118002,2,0,P|484:334|507:265,1,120,0|0,1:0|1:0,0:0:0:0:
500,209,118860,1,10,1:0:0:0:
406,134,119374,21,8,1:0:0:0:
256,192,120060,1,8,0:0:0:0:
106,134,120745,2,0,P|99:85|107:5,2,120,4|0|10,1:2|1:0|1:0,0:0:0:0:
82,210,122117,1,0,1:0:0:0:
30,318,122631,1,0,1:0:0:0:
138,370,123145,1,10,1:0:0:0:
138,370,123488,2,0,P|215:349|261:351,1,120,0|2,1:0|1:0,0:0:0:0:
333,365,124345,1,10,1:0:0:0:
445,324,124860,1,0,1:0:0:0:
477,208,125374,2,0,P|474:128|459:88,1,120,2|0,1:0|1:0,0:0:0:0:
412,26,126231,5,0,1:0:0:0:
314,72,126745,1,2,1:0:0:0:
314,72,127088,2,0,P|252:75|184:55,1,120,10|0,1:0|1:0,0:0:0:0:
137,6,127945,1,10,1:0:0:0:
38,74,128460,1,10,1:0:0:0:
4,187,128974,2,0,P|11:232|31:273,1,80,2|10,1:0|1:0,0:0:0:0:
86,314,129660,1,10,0:0:0:0:
245,306,130345,2,0,P|286:278|304:249,1,80,2|10,1:0|1:0,0:0:0:0:
324,175,131031,2,0,P|322:125|302:74,1,80,10|10,0:0|1:0,0:0:0:0:
260,36,131717,5,0,1:0:0:0:
226,151,132231,1,2,1:0:0:0:
262,265,132745,1,10,1:0:0:0:
262,265,133088,2,0,P|320:276|394:274,1,120,0|2,1:0|1:0,0:0:0:0:
444,226,133945,1,10,1:0:0:0:
460,106,134460,2,0,L|333:94,1,120,0|2,1:0|1:0,0:0:0:0:
269,130,135317,1,10,1:0:0:0:
200,31,135831,1,0,1:0:0:0:
80,16,136345,2,0,P|27:41|11:75,1,80,2|10,1:0|1:0,0:0:0:0:
3,177,137202,5,0,1:0:0:0:
120,203,137717,2,0,L|232:191,1,80,2|10,1:0|1:0,0:0:0:0:
290,115,138574,1,0,1:0:0:0:
408,93,139088,2,0,P|468:109|507:182,1,120,2|10,1:0|1:0,0:0:0:0:
496,233,139945,2,0,L|465:311,1,80,0|10,1:0|1:0,0:0:0:0:
403,357,140631,2,0,L|319:360,1,80,10|10,0:0|1:0,0:0:0:0:
251,322,141317,1,10,1:2:0:0:
267,203,141831,1,10,1:2:0:0:
267,203,142174,2,0,P|270:146|257:69,1,120,14|4,1:0|0:1,0:0:0:0:
256,192,153660,21,4,0:0:0:0:
361,215,154174,1,2,1:2:0:0:
431,133,154688,1,2,1:2:0:0:
327,13,155374,2,0,P|289:5|210:8,2,107.999996704102,2|2|2,1:2|1:1|1:2,0:0:0:0:
356,117,156917,1,2,1:2:0:0:
323,219,157431,1,2,1:2:0:0:
323,219,157774,2,0,P|321:270|324:316,2,71.9999978027344,2|2|10,1:2|1:2|0:0,0:0:0:0:
173,169,159145,5,2,1:2:0:0:
94,242,159660,1,2,1:2:0:0:
116,347,160174,2,0,P|158:353|201:350,1,71.9999978027344,2|0,1:2|0:0,0:0:0:0:
266,328,160860,1,2,1:2:0:0:
369,360,161374,1,2,1:1:0:0:
473,334,161888,2,0,P|485:289|478:217,1,107.999996704102,2|2,1:2|1:2,0:0:0:0:
400,156,162917,1,2,1:2:0:0:
400,156,163260,1,10,0:0:0:0:
256,80,163945,1,8,0:0:0:0:
112,156,164631,5,4,1:2:0:0:
78,271,165145,2,0,P|83:316|116:384,1,120,2|10,1:3|1:0,0:0:0:0:
195,382,166002,1,2,1:3:0:0:
306,337,166517,1,2,1:3:0:0:
315,257,166860,2,0,P|294:196|248:141,1,120,10|2,1:0|1:3,0:0:0:0:
160,88,167888,1,2,1:3:0:0:
258,20,168402,1,10,1:0:0:0:
337,17,168745,2,0,P|403:25|456:49,1,120,2|2,1:3|1:3,0:0:0:0:
483,119,169602,2,0,L|469:256,1,120,10|2,1:0|1:3,0:0:0:0:
495,358,170631,5,2,1:3:0:0:
380,323,171145,1,10,1:0:0:0:
301,339,171488,2,0,P|245:334|173:292,1,120,2|2,1:3|1:3,0:0:0:0:
148,236,172345,1,10,1:0:0:0:
149,115,172860,2,0,P|128:55|62:29,1,120,2|2,1:3|1:3,0:0:0:0:
4,52,173717,1,10,1:0:0:0:
0,176,174231,2,0,P|46:173|131:192,1,120,2|2,1:3|1:3,0:0:0:0:
192,215,175088,1,10,1:0:0:0:
293,146,175602,22,0,P|363:148|428:187,1,120,4|2,1:0|1:3,0:0:0:0:
450,236,176460,1,10,1:0:0:0:
406,347,176974,1,2,1:3:0:0:
286,350,177488,2,0,P|243:323|218:283,1,80,2|10,1:3|1:0,0:0:0:0:
219,180,178345,2,0,L|233:44,1,120,4|2,1:0|1:0,0:0:0:0:
302,24,179202,1,10,1:0:0:0:
328,141,179717,2,0,L|314:277,1,120,4|2,1:0|1:0,0:0:0:0:
245,297,180574,1,10,1:0:0:0:
130,265,181088,6,0,P|63:263|9:274,2,120,4|2|10,1:0|1:0|1:0,0:0:0:0:
192,315,182460,2,0,P|250:325|310:323,1,120,4|2,1:0|1:0,0:0:0:0:
388,303,183317,1,10,1:0:0:0:
484,231,183831,1,4,1:0:0:0:
457,114,184345,1,2,1:0:0:0:
337,99,184860,1,10,1:0:0:0:
279,154,185202,2,0,P|201:174|113:140,1,160,4|10,1:0|0:0,0:0:0:0:
107,72,186231,1,10,0:0:0:0:
148,3,186574,5,4,1:2:0:0:
264,30,187088,1,2,1:0:0:0:
343,23,187431,1,10,1:0:0:0:
458,54,187945,2,0,P|462:106|456:182,1,120,2|2,1:3|1:0,0:0:0:0:
423,246,188802,1,10,1:0:0:0:
304,224,189317,1,2,1:3:0:0:
186,246,189831,1,2,1:0:0:0:
147,316,190174,2,0,P|93:336|32:330,1,120,10|2,1:0|1:3,0:0:0:0:
3,255,191031,1,10,1:0:0:0:
7,175,191374,1,10,0:0:0:0:
57,112,191717,2,0,P|115:104|152:104,1,80,2|2,1:0|1:3,0:0:0:0:
256,114,192574,5,2,1:0:0:0:
318,64,192917,2,0,P|388:47|445:51,1,120,10|2,1:0|1:3,0:0:0:0:
500,95,193774,1,10,1:0:0:0:
512,174,194117,2,0,L|498:335,1,160,10|2,0:0|1:3,0:0:0:0:
381,361,195317,1,2,1:0:0:0:
308,327,195660,1,10,1:0:0:0:
191,355,196174,2,0,P|140:339|100:280,1,120,2|2,1:3|1:0,0:0:0:0:
95,207,197031,1,10,1:0:0:0:
154,102,197545,21,4,1:2:0:0:
261,156,198060,1,2,1:0:0:0:
274,277,198574,1,10,1:0:0:0:
299,353,198917,2,0,P|360:370|447:359,1,120,4|2,1:0|1:0,0:0:0:0:
475,314,199774,1,10,1:0:0:0:
497,196,200288,2,0,L|480:71,1,120,4|2,1:0|1:0,0:0:0:0:
418,26,201145,1,10,1:0:0:0:
355,128,201660,1,4,1:0:0:0:
236,146,202174,2,0,P|192:144|150:124,1,80,2|10,1:0|1:0,0:0:0:0:
86,34,203031,5,4,1:0:0:0:
42,145,203545,1,2,1:0:0:0:
67,262,204060,2,0,P|87:278|142:296,1,80,10|4,1:0|1:0,0:0:0:0:
256,272,204917,1,2,1:0:0:0:
333,290,205260,2,0,P|394:287|458:295,1,120,10|4,1:0|1:0,0:0:0:0:
510,188,206288,1,2,1:0:0:0:
436,157,206631,1,10,1:0:0:0:
320,188,207145,2,0,P|259:191|155:141,1,160,12|10,1:0|0:0,0:0:0:0:
135,80,208174,2,0,L|139:21,2,40,14|14|4,1:0|1:0|0:1,0:0:0:0:
256,192,208688,12,4,214002,0:1:0:0:
256,192,215374,37,6,0:1:0:0:
