osu file format v14

[General]
AudioFilename: audio.ogg
AudioLeadIn: 0
PreviewTime: 153660
Countdown: 0
SampleSet: Soft
StackLeniency: 0.7
Mode: 0
LetterboxInBreaks: 0
WidescreenStoryboard: 1

[Editor]
DistanceSpacing: 1
BeatDivisor: 4
GridSize: 16
TimelineZoom: 1.8

[Metadata]
Title:Deep Sea
TitleUnicode:Deep Sea
Artist:Yousei Teikoku
ArtistUnicode:妖精帝國
Creator:ent
Version:Another
Source:
Tags:stigma electronic instrumental
BeatmapID:3995918
BeatmapSetID:1758918

[Difficulty]
HPDrainRate:6
CircleSize:4
OverallDifficulty:8
ApproachRate:8
SliderMultiplier:1.75
SliderTickRate:2

[Events]
//Background and Video events
0,0,"29182021_p0 1.6.jpg",0,0
//Break Periods
2,77060,87081
2,88031,98052
//Storyboard Layer 0 (Background)
//Storyboard Layer 1 (Fail)
//Storyboard Layer 2 (Pass)
//Storyboard Layer 3 (Foreground)
//Storyboard Layer 4 (Overlay)
//Storyboard Sound Samples

[TimingPoints]
60,342.857142857143,4,2,0,30,1,0
10688,-100,4,2,1,42,0,1
10774,-100,4,2,1,44,0,1
10860,-100,4,2,1,46,0,1
10945,-100,4,2,1,48,0,1
11031,-100,4,2,1,50,0,0
21831,-100,4,2,0,50,0,0
22002,-100,4,2,1,50,0,0
22860,-100,4,2,1,50,0,0
32588,-100,4,2,0,40,0,0
32802,-100,4,2,0,30,0,0
32974,-100,4,2,1,50,0,0
33831,-100,4,2,1,50,0,0
43945,-83.3333333333333,4,2,1,50,0,1
44631,-100,4,2,1,50,0,0
54917,-151.515151515152,4,2,1,40,0,1
60402,-100,4,2,1,50,0,0
75488,-100,4,2,2,40,0,1
75831,-100,4,2,2,47,0,1
76174,-100,4,2,2,54,0,1
76517,-100,4,2,2,61,0,1
76860,-100,4,2,0,30,0,0
87831,-100,4,2,66,20,0,1
88345,-100,4,2,66,20,0,0
98802,-100,4,2,1,60,0,0
119374,-100,4,2,1,30,0,1
119545,-100,4,2,0,30,0,1
120060,-100,4,2,2,50,0,1
120745,-100,4,2,1,60,0,0
141317,-100,4,2,2,60,0,1
142002,-100,4,2,2,66,0,1
142688,-666.666666666667,4,2,0,30,0,0
144060,-666.666666666667,4,2,0,5,0,0
144231,-666.666666666667,4,2,0,30,0,0
145431,-666.666666666667,4,2,0,5,0,0
145602,-500,4,2,0,30,0,0
146117,-666.666666666667,4,2,0,5,0,0
146288,-666.666666666667,4,2,0,30,0,0
146802,-666.666666666667,4,2,0,5,0,0
146974,-666.666666666667,4,2,0,30,0,0
148174,-666.666666666667,4,2,0,5,0,0
148345,-333.333333333333,4,2,0,30,0,0
150231,-666.666666666667,4,2,0,5,0,0
150402,-666.666666666667,4,2,0,30,0,0
150917,-666.666666666667,4,2,0,15,0,0
151088,-666.666666666667,4,2,0,30,0,0
153660,-151.515151515152,4,2,1,50,0,1
160002,-151.515151515152,4,2,1,50,0,1
160345,-151.515151515152,4,2,1,50,0,1
161373,-151.515151515152,4,2,1,50,0,1
163260,-151.515151515152,4,2,0,55,0,0
163602,-250,4,2,66,55,0,0
163945,-166.666666666667,4,2,1,60,0,0
164288,-166.666666666667,4,2,1,66,0,0
164631,-80,4,2,1,70,0,1
186231,-80,4,2,1,72,0,1
186317,-80,4,2,1,74,0,1
186402,-80,4,2,1,76,0,1
186488,-80,4,2,1,78,0,1
186574,-80,4,2,1,80,0,1
207145,-80,4,2,2,80,0,1
207488,-80,4,2,2,85,0,1
207831,-80,4,2,2,90,0,1
208174,-80,4,2,2,95,0,1
208517,-100,4,2,66,100,0,0
208688,-100,4,2,66,20,0,0
214002,-100,4,2,66,20,0,1
215374,-100,4,2,66,20,0,0

[Colours]
Combo1 : 255,255,255
Combo2 : 173,255,95
Combo3 : 255,88,100
Combo4 : 255,94,55
Combo5 : 17,254,176

[HitObjects]
256,192,5545,12,2,10517,0:0:0:0:
256,192,10688,5,10,0:0:0:0:
256,192,10774,1,10,0:0:0:0:
256,192,10860,1,10,0:0:0:0:
256,192,10945,1,10,0:0:0:0:
256,192,11031,1,4,1:0:0:0:
342,184,11202,1,2,0:1:0:0:
383,261,11374,1,10,1:1:0:0:
215,115,11545,2,0,P|218:56|231:14,1,87.5,2|2,1:0|0:0,0:0:0:0:
275,277,11888,2,0,L|207:291,1,43.75,10|0,1:0|0:1,0:1:0:0:
165,338,12060,2,0,L|97:324,1,43.75,10|0,1:0|0:1,0:1:0:0:
69,266,12231,1,2,0:0:0:0:
69,266,12402,6,0,P|73:190|58:88,1,175,0|10,1:0|1:0,0:0:0:0:
175,0,12917,2,0,P|171:76|186:178,1,175,2|10,1:1|1:1,0:0:0:0:
184,173,13345,1,0,0:0:0:0:
184,173,13431,1,10,0:1:0:0:
316,84,13602,1,10,0:1:0:0:
316,84,13774,6,0,P|359:81|418:81,1,87.5,0|2,1:0|0:1,0:0:0:0:
512,205,14117,2,0,P|469:202|410:202,1,87.5,10|2,1:0|1:0,0:0:0:0:
338,219,14460,1,2,0:0:0:0:
256,384,14631,2,0,L|251:330,1,43.75,10|0,1:0|0:0,0:0:0:0:
222,261,14802,2,0,L|227:207,1,43.75,10|0,1:0|0:0,0:0:0:0:
275,142,14974,1,2,0:0:0:0:
256,0,15145,5,0,1:0:0:0:
108,27,15317,1,2,0:1:0:0:
112,48,15402,1,0,0:0:0:0:
116,69,15488,1,10,1:0:0:0:
120,90,15574,1,0,0:0:0:0:
124,110,15660,2,0,P|120:154|114:197,1,87.5,2|2,1:0|0:0,0:0:0:0:
18,264,16002,2,0,P|5:231|0:206,2,43.75,10|0|2,1:0|0:0|1:2,0:0:0:0:
210,264,16345,2,0,P|223:231|228:206,2,43.75,10|0|0,1:0|0:0|1:0,0:0:0:0:
114,196,16688,21,2,0:1:0:0:
114,196,16774,1,0,0:0:0:0:
114,196,16860,1,10,1:0:0:0:
113,339,17031,2,0,P|158:360|297:342,1,175,2|10,1:1|1:0,0:0:0:0:
486,336,17545,2,0,L|435:327,1,43.75,10|0,1:0|0:0,0:0:0:0:
360,315,17717,1,2,0:0:0:0:
360,315,17888,6,0,P|365:265|366:223,1,87.5,0|2,1:0|0:1,0:0:0:0:
481,131,18231,1,10,1:0:0:0:
481,131,18402,2,0,P|476:181|475:223,1,87.5,2|2,1:0|0:0,0:0:0:0:
383,46,18745,2,0,L|339:38,1,43.75,10|0,1:0|0:0,0:0:0:0:
302,158,18917,2,0,L|330:124,1,43.75,10|0,1:0|0:0,0:0:0:0:
245,31,19088,2,0,L|260:72,1,43.75,10|0,1:0|0:0,0:0:0:0:
163,142,19260,6,0,P|156:74|62:17,1,175,0|10,1:0|1:0,0:0:0:0:
0,131,19774,2,0,P|7:199|101:256,1,175,2|10,1:0|1:0,0:0:0:0:
90,255,20202,1,0,0:0:0:0:
90,255,20288,1,10,1:0:0:0:
199,236,20460,1,2,0:0:0:0:
199,236,20545,1,0,0:0:0:0:
199,236,20631,5,0,1:0:0:0:
172,335,20802,1,2,0:1:0:0:
172,335,20974,2,0,P|223:337|284:350,2,87.5,10|2|2,1:1|1:1|0:0,0:1:0:0:
370,342,21488,1,10,1:0:0:0:
370,342,21660,2,0,P|413:335|457:334,1,87.5,10|2,1:1|0:0,0:0:0:0:
319,228,22002,21,6,1:2:0:0:
319,228,22174,1,2,0:1:0:0:
336,142,22345,1,10,1:0:0:0:
354,56,22517,1,2,1:0:0:0:
193,228,22860,5,10,1:0:0:0:
158,56,23031,1,10,1:0:0:0:
319,228,23374,5,0,1:0:0:0:
319,228,23545,1,2,0:1:0:0:
401,199,23717,1,10,1:0:0:0:
485,172,23888,1,2,1:0:0:0:
193,228,24231,5,10,1:0:0:0:
111,199,24402,1,10,1:0:0:0:
27,172,24574,1,10,1:0:0:0:
127,299,24745,2,0,P|197:327|285:258,1,175,0|10,1:0|1:0,0:0:0:0:
314,193,25260,1,2,1:0:0:0:
311,171,25345,1,0,0:0:0:0:
308,149,25431,1,2,0:0:0:0:
305,127,25517,1,0,0:0:0:0:
302,105,25602,2,0,L|309:51,1,43.75,10|0,1:0|0:0,0:0:0:0:
401,2,25774,2,0,L|394:56,1,43.75,10|0,1:0|0:0,0:0:0:0:
455,116,25945,1,2,0:0:0:0:
455,116,26117,21,0,1:0:0:0:
399,212,26288,2,0,P|387:168|377:146,4,43.75,2|0|10|0|2,0:1|0:0|1:0|0:0|1:0,0:0:0:0:
504,384,26974,2,0,P|512:326|511:282,2,87.5,10|0|10,1:0|1:0|1:0,0:0:0:0:
446,208,27488,6,0,P|375:208|318:202,1,87.5,0|2,1:0|0:1,0:0:0:0:
337,201,27745,1,0,0:0:0:0:
316,193,27831,1,10,1:0:0:0:
227,155,28002,2,0,P|174:157|50:189,1,175,2|10,1:0|1:0,0:0:0:0:
1,341,28517,2,0,L|8:389,2,43.75,10|0|2,1:0|0:0|0:0,0:0:0:0:
70,279,28860,6,0,P|117:282|164:288,1,87.5,0|2,1:0|0:1,0:0:0:0:
236,322,29202,1,10,1:0:0:0:
300,381,29374,1,2,1:0:0:0:
225,160,29717,2,0,L|230:85,1,43.75,10|0,1:0|0:0,0:0:0:0:
320,144,29888,2,0,L|325:69,1,43.75,10|0,1:0|0:0,0:0:0:0:
415,128,30060,2,0,L|420:53,1,43.75,10|0,1:0|0:0,0:0:0:0:
509,112,30231,6,0,P|513:68|509:25,1,87.5,0|2,1:0|0:1,0:0:0:0:
431,222,30574,2,0,P|427:266|431:309,1,87.5,10|2,1:0|1:0,0:0:0:0:
225,160,31088,1,10,1:0:0:0:
225,160,31260,2,0,P|224:91|112:48,1,175,10|0,1:0|1:0,0:0:0:0:
56,74,31774,1,2,0:1:0:0:
55,95,31860,1,0,0:0:0:0:
55,116,31945,1,10,1:0:0:0:
83,234,32117,2,0,P|82:284|13:385,1,175,2|2,1:0|0:3,0:0:0:0:
103,331,32631,2,0,P|149:323|229:332,1,87.5,2|2,0:0|0:3,0:0:0:0:
378,384,32974,21,6,1:2:0:0:
378,384,33060,1,0,0:0:0:0:
378,384,33145,1,2,0:1:0:0:
430,313,33317,1,10,1:0:0:0:
483,243,33488,1,2,1:1:0:0:
378,0,33831,5,10,1:0:0:0:
430,71,34002,1,10,1:0:0:0:
483,141,34174,1,2,0:0:0:0:
384,192,34345,5,0,1:0:0:0:
367,192,34431,1,0,0:0:0:0:
351,192,34517,1,2,0:1:0:0:
334,192,34602,1,0,0:0:0:0:
318,192,34688,1,10,1:0:0:0:
301,192,34774,1,0,0:0:0:0:
285,192,34860,1,2,1:0:0:0:
269,192,34945,1,0,0:0:0:0:
252,192,35031,2,0,P|236:161|227:131,1,43.75
247,43,35202,1,10,1:0:0:0:
247,43,35374,1,10,1:0:0:0:
247,43,35545,1,10,1:0:0:0:
247,43,35717,6,0,P|244:6|238:-13,4,43.75,0|0|2|0|10,1:0|0:0|0:1|0:0|1:0,0:0:0:0:
129,82,36231,2,0,P|105:53|89:41,2,43.75,2|0|2,1:0|0:0|0:0,0:0:0:0:
63,188,36574,2,0,P|25:184|-30:185,2,87.5,10|10|2,1:0|1:0|0:0,0:0:0:0:
129,302,37088,1,0,1:0:0:0:
247,341,37260,2,0,P|244:378|238:397,2,43.75,2|0|10,0:1|0:0|1:0,0:0:0:0:
246,75,37602,2,0,P|236:157|241:260,2,175,2|10|10,1:0|1:0|1:0,0:0:0:0:
288,0,38460,21,0,1:0:0:0:
360,145,38631,1,2,0:1:0:0:
360,145,38717,1,0,0:0:0:0:
360,145,38802,2,0,P|373:94|374:48,1,87.5,10|2,1:0|1:0,0:0:0:0:
463,160,39145,1,2,0:0:0:0:
463,160,39317,2,0,P|465:203|477:245,2,87.5,10|10|2,1:0|1:0|0:0,0:0:0:0:
459,340,39831,6,0,P|417:351|391:353,4,43.75,0|0|2|0|10,1:0|0:0|0:1|0:0|1:0,0:0:0:0:
336,280,40345,2,0,P|294:269|268:267,2,43.75,2|0|2,1:0|0:0|0:0,0:0:0:0:
212,350,40688,2,0,L|159:357,1,43.75,10|0,1:0|0:0,0:0:0:0:
126,229,40860,2,0,L|152:263,1,43.75,10|0,1:0|0:0,0:0:0:0:
65,364,41031,2,0,L|81:323,1,43.75,10|0,1:0|0:0,0:0:0:0:
27,202,41202,5,0,1:0:0:0:
24,180,41288,1,0,0:0:0:0:
21,158,41374,1,2,0:1:0:0:
18,136,41460,1,0,0:0:0:0:
15,114,41545,1,10,1:0:0:0:
68,34,41717,2,0,P|114:30|163:16,1,87.5,2|2,1:0|0:0,0:0:0:0:
255,130,42060,1,10,1:0:0:0:
255,130,42231,2,0,P|212:119|169:115,2,87.5,10|2|0,1:0|0:0|1:0,0:0:0:0:
371,0,42745,6,0,P|372:57|378:112,2,87.5,2|10|2,0:1|1:0|1:0,0:0:0:0:
490,101,43260,1,2,0:0:0:0:
490,101,43345,1,0,0:0:0:0:
490,101,43431,2,0,P|489:158|483:213,2,87.5,10|2|10,1:0|1:2|1:0,0:0:0:0:
352,234,43945,22,0,P|292:239|141:319,2,209.999993591309,4|10|10,1:0|1:0|0:0,0:0:0:0:
373,237,44717,1,0,0:0:0:0:
393,243,44802,2,0,L|457:273,1,43.75,10|0,1:0|0:0,0:0:0:0:
378,350,44974,2,0,L|314:320,1,43.75,10|0,1:0|0:0,0:0:0:0:
373,83,45317,5,0,1:0:0:0:
309,16,45488,1,2,0:1:0:0:
309,16,45574,1,0,0:0:0:0:
309,16,45660,2,0,P|257:6|197:10,1,87.5,10|2,1:0|1:0,0:0:0:0:
25,42,46002,1,10,0:0:0:0:
88,108,46174,2,0,L|80:161,1,43.75,10|0,1:0|0:0,0:0:0:0:
166,92,46345,2,0,L|158:145,1,43.75,10|0,1:0|0:0,0:0:0:0:
147,209,46517,2,0,L|139:262,1,43.75,10|0,1:0|0:0,0:0:0:0:
69,225,46688,6,0,P|62:261|71:324,1,87.5,0|2,1:0|0:1,0:0:0:0:
197,371,47031,1,10,1:0:0:0:
197,371,47202,2,0,P|208:318|204:260,1,87.5,2|10,1:0|0:0,0:0:0:0:
199,123,47545,2,0,P|211:94|224:74,1,43.75,10|0,1:0|0:0,0:0:0:0:
265,28,47717,2,0,P|291:12|313:2,1,43.75,10|0,1:0|0:0,0:0:0:0:
382,0,47888,1,10,0:0:0:0:
382,0,47974,1,0,0:0:0:0:
382,0,48060,1,0,1:0:0:0:
512,114,48231,6,0,P|453:111|408:115,2,87.5,2|10|2,0:1|1:0|1:0,0:0:0:0:
390,203,48745,1,10,0:0:0:0:
390,203,48917,2,0,P|369:200|348:195,1,43.75,10|0,1:0|0:0,0:0:0:0:
252,164,49088,1,2,1:2:0:0:
252,164,49260,2,0,P|230:167|209:172,1,43.75,10|0,1:0|0:0,0:0:0:0:
107,202,49431,22,0,P|108:143|61:33,1,175,0|10,1:0|1:0,0:0:0:0:
23,181,49945,2,0,P|33:251|53:275,1,87.5,2|10,1:0|0:0,0:0:0:0:
41,263,50202,1,0,0:0:0:0:
41,263,50288,1,10,1:0:0:0:
0,384,50460,1,10,1:0:0:0:
0,384,50631,1,10,0:0:0:0:
112,347,50802,5,0,1:0:0:0:
195,373,50974,1,2,0:1:0:0:
217,286,51145,1,10,1:0:0:0:
138,264,51317,2,0,P|162:225|288:233,1,175,2|10,1:0|1:0,0:0:0:0:
292,241,51745,1,0,0:0:0:0:
303,259,51831,1,10,1:0:0:0:
348,383,52002,1,10,1:0:0:0:
348,383,52088,1,0,0:0:0:0:
349,384,52174,6,0,P|368:345|377:302,1,87.5,0|10,1:0|0:0,0:0:0:0:
512,301,52517,2,0,P|481:270|443:248,1,87.5,10|2,1:0|1:0,0:0:0:0:
483,120,52860,2,0,P|444:139|411:169,1,87.5,10|10,0:0|1:0,0:0:0:0:
302,91,53202,2,0,P|308:134|326:173,1,87.5,10|10,1:0|0:0,0:0:0:0:
219,254,53545,6,0,P|262:260|305:255,1,87.5,0|10,1:0|0:0,0:0:0:0:
483,120,53888,2,0,P|444:139|411:169,1,87.5,10|2,1:0|1:0,0:0:0:0:
349,384,54231,2,0,P|368:345|377:302,1,87.5,10|10,0:0|1:0,0:0:0:0:
302,91,54574,2,0,P|308:134|326:173,1,87.5,10|10,1:0|0:0,0:0:0:0:
512,301,54917,21,4,0:0:0:0:
512,301,55088,2,0,P|485:274|452:255,2,57.749999823761,0|2|0,0:0|0:0|1:2,0:0:0:0:
374,230,55774,1,2,0:0:0:0:
374,230,55945,1,2,1:2:0:0:
374,230,56117,1,2,0:2:0:0:
236,159,56460,2,0,P|262:185|295:204,2,57.749999823761,2|0|2,0:0|1:0|0:0,0:0:0:0:
142,12,57145,1,0,1:0:0:0:
70,0,57317,1,2,0:0:0:0:
37,64,57488,1,2,0:0:0:0:
87,114,57660,6,0,P|89:161|74:240,1,115.499999647522,0|2,1:0|0:0,0:0:0:0:
35,308,58174,1,0,1:0:0:0:
35,308,58345,1,8,0:0:0:0:
169,191,58688,1,0,1:0:0:0:
169,191,58860,1,2,0:0:0:0:
169,191,59031,2,0,P|216:184|286:187,2,115.499999647522,2|0|8,0:0|1:0|0:0,0:0:0:0:
354,208,60060,1,2,0:0:0:0:
406,260,60231,1,2,0:0:0:0:
421,332,60402,6,0,P|349:354|301:361,1,87.5,4|2,1:2|0:1,0:0:0:0:
314,357,60660,1,0,0:0:0:0:
292,356,60745,1,10,1:0:0:0:
270,353,60831,1,0,0:0:0:0:
248,348,60917,1,2,1:0:0:0:
72,381,61260,1,10,1:0:0:0:
72,381,61431,1,10,1:0:0:0:
186,217,61774,6,0,P|185:165|190:112,1,87.5,0|2,1:0|0:1,0:0:0:0:
193,108,62031,1,0,0:0:0:0:
199,87,62117,1,10,1:0:0:0:
256,0,62288,1,2,1:0:0:0:
399,158,62631,2,0,L|390:218,1,43.75,10|0,1:0|0:0,0:0:0:0:
457,298,62802,2,0,L|409:260,1,43.75,10|0,1:0|0:0,0:0:0:0:
306,278,62974,2,0,L|362:255,1,43.75,10|0,1:0|0:0,0:0:0:0:
472,210,63145,21,0,1:0:0:0:
472,210,63317,1,2,0:1:0:0:
498,105,63488,1,10,1:0:0:0:
498,105,63660,1,2,1:0:0:0:
393,79,63831,2,0,P|336:88|286:106,1,87.5,10|10,0:0|1:0,0:0:0:0:
141,4,64174,2,0,P|198:13|248:31,1,87.5,10|10,1:0|0:0,0:0:0:0:
46,121,64517,6,0,P|40:72|43:24,1,87.5,0|2,1:0|0:1,0:0:0:0:
151,191,64860,2,0,P|157:142|154:94,1,87.5,10|2,1:0|1:0,0:0:0:0:
35,308,65202,2,0,P|29:259|32:211,1,87.5,10|10,0:0|1:0,0:0:0:0:
162,384,65545,2,0,P|168:335|165:287,2,87.5,2|10|0,1:2|1:0|1:0,0:0:0:0:
222,242,66060,5,2,0:1:0:0:
222,242,66145,1,0,0:0:0:0:
222,242,66231,1,10,1:1:0:0:
299,287,66402,2,0,P|348:285|479:305,1,175,2|10,1:0|1:0,0:0:0:0:
472,303,66831,1,0,0:0:0:0:
472,303,66917,1,10,1:0:0:0:
418,111,67260,6,0,P|422:78|432:44,4,43.75,0|0|2|0|10,1:0|0:0|0:1|0:0|1:1,0:0:0:0:
317,0,67774,1,2,1:0:0:0:
317,0,67860,1,0,0:0:0:0:
317,0,67945,1,2,0:0:0:0:
249,50,68117,2,0,P|204:45|143:44,2,87.5,10|10|10,1:0|1:0|1:0,0:0:0:0:
47,63,68631,21,0,1:0:0:0:
54,160,68802,1,2,0:1:0:0:
151,153,68974,1,10,1:0:0:0:
144,56,69145,1,2,1:0:0:0:
3,255,69488,2,0,P|-3:305|2:349,1,87.5,10|10,1:0|1:0,0:0:0:0:
0,341,69745,1,0,0:0:0:0:
0,341,69831,1,2,0:0:0:0:
185,380,70002,6,0,P|184:329|126:216,1,175,0|10,1:0|1:0,0:0:0:0:
229,105,70517,2,0,P|230:156|288:269,1,175,2|10,1:0|1:0,0:0:0:0:
366,294,71031,1,10,1:0:0:0:
451,276,71202,1,10,1:0:0:0:
489,94,71374,5,0,1:0:0:0:
468,86,71460,1,0,0:0:0:0:
447,78,71545,1,2,0:1:0:0:
426,70,71631,1,0,0:0:0:0:
405,62,71717,2,0,P|338:62|288:75,1,87.5,10|2,1:0|1:0,0:0:0:0:
174,214,72231,2,0,P|131:210|103:200,1,43.75,10|0,1:0|0:0,0:0:0:0:
59,179,72402,2,0,P|26:151|9:127,1,43.75,10|0,1:0|0:0,0:0:0:0:
0,80,72574,1,2,0:0:0:0:
0,80,72745,6,0,P|2:31|0:-12,2,87.5,0|2|10,1:0|0:1|1:0,0:0:0:0:
91,55,73260,2,0,P|134:55|279:89,1,175,2|10,1:0|1:0,0:0:0:0:
347,233,73774,1,10,1:0:0:0:
347,233,73860,1,0,0:0:0:0:
347,233,73945,1,10,1:0:0:0:
365,132,74117,22,0,P|386:91|435:46,1,87.5,0|2,1:0|0:1,0:0:0:0:
505,220,74460,2,0,P|484:179|435:134,1,87.5,10|2,1:0|1:0,0:0:0:0:
282,358,74974,2,0,L|230:364,1,43.75,10|0,1:0|0:0,0:0:0:0:
180,274,75145,2,0,L|232:280,1,43.75,10|0,1:0|0:0,0:0:0:0:
13,147,75488,6,0,L|0:105,3,43.75,8|8|10|8,1:0|0:0|0:1|0:0,0:0:0:0:
13,237,75831,2,0,L|0:278,3,43.75,14|10|10|10,1:0|0:0|1:0|0:0,0:0:0:0:
81,192,76174,1,8,0:0:0:0:
102,192,76260,1,10,0:0:0:0:
124,192,76345,1,14,1:0:0:0:
146,192,76431,1,10,0:0:0:0:
168,192,76517,1,14,1:0:0:0:
190,192,76602,1,10,0:0:0:0:
212,192,76688,1,14,1:0:0:0:
234,192,76774,1,10,0:0:0:0:
256,192,76860,5,4,0:1:0:0:
256,192,87831,21,6,0:1:0:0:
87,353,98802,5,4,1:2:0:0:
149,279,98974,1,10,0:0:0:0:
148,257,99060,1,0,0:0:0:0:
148,235,99145,1,10,1:0:0:0:
146,213,99231,1,0,0:0:0:0:
143,191,99317,1,0,1:0:0:0:
140,170,99402,1,0,0:0:0:0:
136,148,99488,1,8,0:0:0:0:
131,127,99574,1,0,0:0:0:0:
126,106,99660,1,10,1:0:0:0:
119,85,99745,1,0,0:0:0:0:
112,64,99831,2,0,P|60:48|20:51,1,87.5,10|10,1:0|0:0,0:0:0:0:
229,128,100174,5,2,1:2:0:0:
250,124,100260,1,0,0:0:0:0:
272,121,100345,1,10,0:0:0:0:
294,119,100431,1,0,0:0:0:0:
315,119,100517,2,0,P|340:121|382:132,3,43.75,10|0|0|0,1:0|0:0|1:0|0:0,0:0:0:0:
459,107,100860,2,0,P|444:127|414:158,3,43.75,10|0|10|0,0:0|0:0|1:0|0:0,0:0:0:0:
397,237,101202,2,0,P|387:214|375:172,3,43.75,10|0|10|0,1:0|0:0|1:0|0:0,0:0:0:0:
397,237,101545,1,2,1:2:0:0:
381,339,101717,5,10,0:0:0:0:
381,339,101802,1,0,0:0:0:0:
381,339,101888,2,0,P|325:328|271:328,1,87.5,10|0,1:0|1:0,0:0:0:0:
272,328,102145,1,0,0:0:0:0:
251,330,102231,1,10,0:0:0:0:
229,335,102317,1,0,0:0:0:0:
208,341,102402,1,10,1:0:0:0:
188,349,102488,1,0,0:0:0:0:
168,358,102574,1,10,1:0:0:0:
149,369,102660,1,0,0:0:0:0:
131,382,102745,1,10,0:0:0:0:
46,331,102917,6,0,P|54:293|53:267,3,43.75,0|0|10|0,1:0|0:0|0:0|0:0,0:0:0:0:
146,264,103260,2,0,P|138:226|139:200,3,43.75,10|0|0|0,1:0|0:0|1:0|0:0,0:0:0:0:
60,174,103602,1,10,0:0:0:0:
60,174,103774,2,0,P|59:84|78:-20,1,175,10|10,1:0|1:0,0:0:0:0:
265,58,104288,21,0,1:0:0:0:
252,142,104460,1,10,0:0:0:0:
168,129,104631,1,10,1:0:0:0:
181,45,104802,2,0,L|175:1,2,43.75,0|0|10,1:0|0:0|0:0,0:0:0:0:
252,142,105145,1,10,1:0:0:0:
252,142,105231,1,0,0:0:0:0:
252,142,105317,2,0,L|246:186,2,43.75,10|0|10,1:0|0:0|0:0,0:0:0:0:
376,60,105660,5,0,1:0:0:0:
494,41,105831,1,0,1:0:0:0:
394,36,106002,1,10,1:0:0:0:
509,67,106174,1,0,1:0:0:0:
510,88,106260,1,0,0:0:0:0:
510,110,106345,1,10,0:0:0:0:
509,132,106431,1,0,0:0:0:0:
507,154,106517,1,10,1:0:0:0:
504,176,106602,1,0,0:0:0:0:
500,197,106688,1,10,1:0:0:0:
495,218,106774,1,0,0:0:0:0:
489,239,106860,2,0,P|433:250|397:251,1,87.5,10|0,1:0|1:0,0:0:0:0:
289,348,107202,2,0,P|345:337|381:336,1,87.5,10|10,0:0|1:0,0:0:0:0:
264,249,107545,5,0,1:0:0:0:
242,254,107631,1,0,0:0:0:0:
222,261,107717,1,10,0:0:0:0:
202,271,107802,1,0,0:0:0:0:
183,282,107888,1,10,1:0:0:0:
166,295,107974,1,0,0:0:0:0:
150,310,108060,1,10,1:0:0:0:
135,326,108145,1,0,0:0:0:0:
122,343,108231,1,10,0:0:0:0:
110,362,108317,1,0,0:0:0:0:
101,382,108402,2,0,P|48:380|10:365,2,87.5,0|10|10,1:0|0:0|1:0,0:0:0:0:
31,266,108917,1,0,1:0:0:0:
31,266,109002,1,0,0:0:0:0:
31,266,109088,2,0,P|27:222|31:200,3,43.75,10|0|10|0,0:0|0:0|1:0|0:0,0:0:0:0:
103,161,109431,2,0,P|107:205|103:227,3,43.75,10|0|10|0,1:0|0:0|0:0|0:0,0:0:0:0:
24,116,109774,5,4,1:0:0:0:
36,98,109860,1,0,0:0:0:0:
53,84,109945,1,10,0:2:0:0:
73,74,110031,1,0,0:0:0:0:
94,69,110117,1,10,1:0:0:0:
116,69,110202,1,0,0:0:0:0:
137,75,110288,1,0,1:0:0:0:
156,85,110374,1,0,0:0:0:0:
172,100,110460,1,10,0:0:0:0:
185,118,110545,1,0,0:0:0:0:
193,140,110631,2,0,P|187:173|191:236,2,87.5,10|10|10,1:0|1:0|0:0,0:0:0:0:
265,39,111145,22,0,P|302:33|322:36,3,43.75,0|0|0|0,1:0|0:0|1:2|0:0,0:0:0:0:
370,107,111488,2,0,P|333:113|313:110,3,43.75,10|0|0|0,1:0|0:0|1:0|0:0,0:0:0:0:
407,29,111831,2,0,P|444:23|464:26,3,43.75,10|0|10|0,0:0|0:0|1:0|0:0,0:0:0:0:
512,97,112174,2,0,P|475:103|455:100,3,43.75,10|0|10|0,1:0|0:0|1:0|0:0,0:0:0:0:
413,191,112517,5,0,1:0:0:0:
320,278,112688,1,10,0:0:0:0:
390,317,112860,1,10,1:0:0:0:
447,263,113031,1,0,1:0:0:0:
335,201,113202,1,10,0:0:0:0:
335,201,113288,1,0,0:0:0:0:
335,201,113374,2,0,P|285:200|235:206,1,87.5,10|10,1:0|1:0,0:0:0:0:
164,249,113717,1,10,0:0:0:0:
164,249,113802,1,0,0:0:0:0:
164,249,113888,6,0,P|105:247|24:153,1,175,0|10,1:0|1:0,0:0:0:0:
27,146,114317,1,0,0:0:0:0:
31,124,114402,1,0,1:0:0:0:
65,269,114574,2,0,P|68:329|65:366,1,87.5,10|10,0:0|1:0,0:0:0:0:
164,249,114917,2,0,P|161:189|164:152,1,87.5,10|10,1:0|1:0,0:0:0:0:
252,7,115260,6,0,P|205:28|159:37,1,87.5,0|10,1:0|0:0,0:0:0:0:
148,36,115517,1,0,0:0:0:0:
126,33,115602,1,10,1:0:0:0:
271,87,115774,2,0,P|313:97|353:115,1,87.5,0|10,1:0|0:0,0:0:0:0:
370,128,116031,1,0,0:0:0:0:
383,144,116117,1,10,1:0:0:0:
385,316,116288,2,0,P|376:262|376:222,1,87.5,10|10,1:0|0:0,0:0:0:0:
425,69,116631,21,0,1:0:0:0:
446,64,116717,1,0,0:0:0:0:
468,62,116802,1,10,0:0:0:0:
490,61,116888,1,0,0:0:0:0:
511,62,116974,1,10,1:0:0:0:
336,27,117145,2,0,P|293:20|252:7,1,87.5,0|10,1:0|0:0,0:0:0:0:
100,82,117488,1,10,1:0:0:0:
100,82,117660,1,10,1:0:0:0:
100,82,117831,1,10,0:0:0:0:
137,152,118002,6,0,P|124:197|135:327,1,175,0|10,1:0|1:0,0:0:0:0:
147,340,118431,1,0,0:0:0:0:
165,352,118517,1,0,1:0:0:0:
185,360,118602,1,0,0:0:0:0:
206,364,118688,1,10,0:0:0:0:
228,364,118774,1,0,0:0:0:0:
249,359,118860,1,10,1:0:0:0:
269,350,118945,1,0,0:0:0:0:
287,337,119031,1,10,1:0:0:0:
301,321,119117,1,0,0:0:0:0:
312,302,119202,1,10,1:0:0:0:
319,281,119288,1,0,0:0:0:0:
321,259,119374,5,8,1:0:0:0:
256,192,119545,1,4,1:2:0:0:
256,192,119888,1,4,1:2:0:0:
256,192,120060,1,8,0:0:0:0:
256,167,120145,1,2,0:0:0:0:
256,142,120231,1,12,1:2:0:0:
256,119,120317,1,8,0:0:0:0:
256,95,120402,1,8,0:0:0:0:
256,70,120488,1,8,0:0:0:0:
256,47,120574,1,12,0:0:0:0:
256,22,120660,1,8,0:0:0:0:
256,0,120745,5,4,1:2:0:0:
342,42,120917,1,2,0:1:0:0:
342,42,121002,1,0,0:0:0:0:
342,42,121088,2,0,P|350:91|353:227,1,175,10|10,1:0|0:0,0:0:0:0:
312,328,121602,2,0,L|300:278,1,43.75,10|0,1:0|0:0,0:0:0:0:
398,342,121774,2,0,L|386:392,2,43.75,10|0|10,1:0|0:0|0:0,0:0:0:0:
241,376,122117,21,0,1:0:0:0:
241,376,122288,2,0,P|195:368|161:368,2,43.75,2|0|10,0:1|0:0|1:0,0:0:0:0:
112,379,122631,2,0,P|62:365|2:249,1,175,0|10,1:0|1:0,0:0:0:0:
73,119,123145,2,0,P|21:168|6:206,1,87.5,10|10,1:0|1:0,0:0:0:0:
32,42,123488,5,0,1:0:0:0:
32,42,123574,1,0,0:0:0:0:
32,42,123660,1,2,0:1:0:0:
109,8,123831,1,10,1:0:0:0:
109,8,124002,2,0,P|158:26|280:30,1,175,2|10,1:0|1:0,0:0:0:0:
301,26,124431,1,0,0:0:0:0:
321,19,124517,1,10,1:0:0:0:
399,64,124688,2,0,P|456:66|489:75,1,87.5,10|0,0:0|1:0,0:0:0:0:
362,138,125031,2,0,P|327:106|317:89,2,43.75,2|0|10,0:1|0:0|1:0,0:0:0:0:
291,191,125374,2,0,P|298:243|284:376,2,175,2|10|10,1:0|1:0|1:0,0:0:0:0:
424,324,126231,6,0,P|486:327|539:344,1,87.5,0|10,1:0|0:0,0:0:0:0:
472,223,126574,1,10,1:0:0:0:
472,223,126660,1,0,0:0:0:0:
472,223,126745,2,0,P|410:220|357:203,1,87.5,2|10,1:0|0:0,0:0:0:0:
199,151,127088,2,0,L|207:93,1,43.75,10|0,1:0|0:0,0:0:0:0:
291,191,127260,2,0,L|299:249,1,43.75,10|0,1:0|0:0,0:0:0:0:
196,298,127431,1,10,0:0:0:0:
196,298,127602,6,0,P|144:294|90:311,2,87.5,0|10|10,1:0|0:0|1:0,0:0:0:0:
21,359,128117,2,0,P|28:295|8:150,1,175,2|10,1:0|1:0,0:0:0:0:
17,185,128545,1,0,0:0:0:0:
17,185,128631,1,10,1:0:0:0:
0,39,128802,2,0,L|53:44,1,43.75,10|0,1:0|0:0,0:0:0:0:
131,45,128974,22,0,P|145:99|182:137,1,87.5,2|10,1:0|0:0,0:0:0:0:
110,210,129317,2,0,P|165:213|213:189,1,87.5,10|2,1:0|1:0,0:0:0:0:
260,280,129660,2,0,P|280:228|272:175,1,87.5,10|10,0:0|1:0,0:0:0:0:
373,158,130002,2,0,P|329:122|277:113,1,87.5,10|10,1:0|0:0,0:0:0:0:
293,14,130345,6,0,P|245:44|221:90,1,87.5,2|10,1:0|0:0,0:0:0:0:
110,210,130688,2,0,P|165:213|213:189,1,87.5,10|2,1:0|1:0,0:0:0:0:
373,158,131031,2,0,P|329:122|277:113,1,87.5,10|10,0:0|1:0,0:0:0:0:
131,45,131374,2,0,P|145:99|182:137,1,87.5,10|10,1:0|1:0,0:0:0:0:
260,280,131717,5,0,1:0:0:0:
237,371,131888,1,2,0:1:0:0:
237,371,131974,1,0,0:0:0:0:
237,371,132060,1,10,1:0:0:0:
334,234,132231,2,0,P|402:230|508:268,1,175,2|10,1:0|1:0,0:0:0:0:
423,197,132745,1,10,1:0:0:0:
420,175,132831,1,0,0:0:0:0:
421,153,132917,1,10,0:0:0:0:
508,59,133088,5,0,1:0:0:0:
511,81,133174,1,0,0:0:0:0:
510,103,133260,1,2,0:1:0:0:
333,124,133431,2,0,P|278:115|244:97,2,87.5,10|2|10,1:0|1:0|0:0,0:0:0:0:
250,5,133945,2,0,L|181:28,1,43.75,10|0,1:0|0:0,0:0:0:0:
129,27,134117,2,0,L|85:85,1,43.75,10|0,1:0|0:0,0:0:0:0:
43,113,134288,2,0,L|41:185,1,43.75,10|0,1:0|0:0,0:0:0:0:
0,226,134460,21,0,1:0:0:0:
103,208,134631,1,2,0:1:0:0:
158,297,134802,1,10,1:0:0:0:
261,279,134974,1,2,1:0:0:0:
261,279,135060,1,0,0:0:0:0:
261,279,135145,1,10,0:0:0:0:
404,381,135317,2,0,L|409:334,1,43.75,10|0,1:0|0:0,0:0:0:0:
472,286,135488,2,0,P|387:285|334:218,1,175,10|0,1:0|1:0,0:0:0:0:
354,135,136002,1,2,0:1:0:0:
354,135,136088,1,0,0:0:0:0:
354,135,136174,1,10,1:0:0:0:
162,199,136345,2,0,P|249:197|334:219,2,175,2|10|10,1:0|1:0|1:0,0:0:0:0:
23,228,137202,5,0,1:0:0:0:
66,304,137374,1,10,0:0:0:0:
153,286,137545,1,10,1:0:0:0:
81,162,137717,2,0,P|74:74|83:-11,2,175,2|10|10,1:0|1:0|0:0,0:0:0:0:
162,199,138574,1,0,1:0:0:0:
261,95,138745,1,10,0:0:0:0:
261,95,138831,1,0,0:0:0:0:
261,95,138917,1,10,1:0:0:0:
342,132,139088,2,0,P|379:125|516:134,1,175,2|10,1:0|1:0,0:0:0:0:
483,309,139602,1,10,1:0:0:0:
483,309,139688,1,0,0:0:0:0:
483,309,139774,1,10,1:0:0:0:
468,216,139945,6,0,P|418:220|372:212,1,87.5,0|10,1:0|0:0,0:0:0:0:
286,343,140288,2,0,P|282:293|290:247,1,87.5,10|2,1:0|1:0,0:0:0:0:
159,161,140631,2,0,P|209:157|255:165,1,87.5,10|10,0:0|1:0,0:0:0:0:
341,34,140974,2,0,P|345:84|337:130,1,87.5,10|10,1:0|0:0,0:0:0:0:
256,0,141317,5,10,1:2:0:0:
234,2,141402,1,8,0:0:0:0:
212,5,141488,1,8,0:0:0:0:
190,7,141574,1,8,0:0:0:0:
169,10,141660,1,14,1:0:0:0:
147,12,141745,1,10,0:0:0:0:
125,15,141831,1,10,1:2:0:0:
103,17,141917,1,10,0:0:0:0:
82,20,142002,1,10,0:0:0:0:
65,40,142087,1,10,0:0:0:0:
50,61,142173,1,14,1:0:0:0:
37,84,142259,1,10,0:0:0:0:
25,108,142344,1,14,1:0:0:0:
17,132,142430,1,10,0:0:0:0:
10,158,142516,1,14,1:0:0:0:
5,184,142602,1,10,0:0:0:0:
3,210,142687,21,4,0:1:0:0:
256,192,142860,12,0,145431,0:0:0:0:
256,192,145602,12,0,148174,0:0:0:0:
256,192,148345,12,4,153660,0:0:0:0:
256,192,153831,5,2,0:0:0:0:
256,192,154002,1,2,0:0:0:0:
256,192,154174,2,0,P|265:235|266:268,1,57.749999823761,2|8,1:2|0:0,0:0:0:0:
182,133,154517,1,2,0:0:0:0:
182,133,154688,1,2,1:2:0:0:
182,133,154860,2,0,P|185:104|192:76,1,57.749999823761,2|0,0:0|0:0,0:0:0:0:
120,205,155202,1,2,0:0:0:0:
120,205,155374,1,2,1:2:0:0:
120,205,155545,2,0,P|129:248|130:281,1,57.749999823761,2|8,0:0|0:0,0:0:0:0:
31,138,155888,1,2,1:1:0:0:
52,65,156060,1,2,0:1:0:0:
121,36,156231,1,2,0:1:0:0:
192,58,156402,6,0,P|238:66|271:64,1,57.749999823761,2|2,1:2|0:2,0:0:0:0:
392,20,156745,2,0,P|346:12|313:14,1,57.749999823761,2|2,0:0|1:2,0:0:0:0:
205,138,157088,2,0,P|251:146|284:144,1,57.749999823761,10|2,0:0|0:0,0:0:0:0:
405,100,157431,2,0,P|359:92|326:94,1,57.749999823761,2|2,1:2|0:0,0:0:0:0:
218,218,157774,1,2,1:2:0:0:
218,218,157860,1,0,0:0:0:0:
218,218,157945,2,0,P|264:226|297:224,2,57.749999823761,2|2|2,0:0|1:2|0:0,0:0:0:0:
361,171,158460,2,0,P|389:173|417:179,1,57.749999823761,10|2,0:0|1:2,0:0:0:0:
512,276,158802,2,0,P|483:274|455:267,1,57.749999823761,2|2,0:0|0:2,0:0:0:0:
368,345,159145,5,2,1:2:0:0:
368,345,159317,1,2,0:0:0:0:
301,305,159488,1,2,0:0:0:0:
207,366,159660,2,0,P|157:359|77:367,2,115.499999647522,2|2|2,1:2|0:0|0:0,0:0:0:0:
38,297,160517,1,0,0:0:0:0:
38,297,160688,1,2,0:0:0:0:
68,228,160860,1,2,1:2:0:0:
9,114,161031,2,0,P|9:56|0:0,2,115.499999647522,2|2|2,0:1|1:1|0:1,0:0:0:0:
135,154,161888,21,2,1:2:0:0:
207,145,162060,1,2,0:0:0:0:
198,73,162231,1,2,0:0:0:0:
126,82,162402,1,2,1:2:0:0:
131,151,162574,1,10,0:0:0:0:
204,148,162745,1,2,0:0:0:0:
201,75,162917,1,2,1:2:0:0:
128,78,163088,1,2,0:0:0:0:
282,112,163260,6,2,L|306:0,2,115.499999647522,10|2|8,0:0|0:3|0:0,0:1:0:0:
278,130,164031,1,2,0:0:0:0:
276,147,164117,1,8,0:0:0:0:
275,164,164202,1,2,0:0:0:0:
274,181,164288,1,8,1:2:0:0:
274,199,164374,1,8,0:0:0:0:
274,216,164460,1,8,0:0:0:0:
274,233,164545,1,8,0:0:0:0:
280,261,164631,6,0,P|359:280|497:362,1,218.75,4|10,1:2|1:0,0:0:0:0:
478,346,165060,1,0,0:0:0:0:
478,346,165145,1,2,1:3:0:0:
405,265,165317,2,0,P|405:212|423:150,1,109.375,10|10,0:0|1:0,0:0:0:0:
484,86,165660,1,10,1:0:0:0:
484,86,165745,1,2,0:3:0:0:
484,86,165831,1,10,1:0:0:0:
320,159,166002,6,0,P|212:157|114:203,1,218.75,2|10,1:3|1:0,0:0:0:0:
37,83,166517,2,0,P|1:185|14:293,1,218.75,2|10,1:3|1:0,0:0:0:0:
28,316,166945,1,2,0:3:0:0:
52,329,167031,2,0,L|134:336,1,54.6875,10|2,1:0|0:3,0:0:0:0:
183,384,167202,2,0,L|265:377,1,54.6875,10|2,1:0|0:3,0:0:0:0:
333,291,167374,21,2,1:3:0:0:
333,291,167460,1,0,0:0:0:0:
333,291,167545,2,0,P|330:231|334:187,2,54.6875,2|0|10,1:1|0:0|1:0,0:0:0:0:
404,184,167888,2,0,P|399:123|286:21,1,218.75,2|10,1:3|1:0,0:0:0:0:
205,114,168402,2,0,P|263:140|316:134,1,109.375,10|10,1:0|1:0,0:0:0:0:
458,42,168745,5,2,1:3:0:0:
472,65,168831,1,0,0:0:0:0:
482,90,168917,1,2,1:0:0:0:
489,116,169002,1,0,0:0:0:0:
493,144,169088,1,10,1:0:0:0:
441,293,169260,2,0,P|339:278|215:267,1,218.75,2|10,1:3|1:0,0:0:0:0:
131,287,169774,1,10,1:0:0:0:
81,367,169945,1,10,1:0:0:0:
97,162,170117,5,2,1:3:0:0:
99,135,170202,1,0,0:0:0:0:
96,107,170288,2,0,P|85:60|49:2,1,109.375,2|10,1:1|1:0,0:0:0:0:
192,148,170631,2,0,P|307:149|435:134,1,218.75,2|10,1:3|1:0,0:0:0:0:
512,0,171145,1,10,1:0:0:0:
512,0,171231,1,2,0:3:0:0:
512,0,171317,1,10,1:0:0:0:
482,83,171488,6,0,P|495:141|479:214,1,109.375,2|2,1:3|1:0,0:0:0:0:
476,214,171745,1,0,0:0:0:0:
460,236,171831,1,10,1:0:0:0:
440,255,171917,1,0,0:0:0:0:
416,269,172002,1,2,1:3:0:0:
226,279,172174,1,10,0:0:0:0:
226,279,172345,2,0,P|287:280|333:292,2,109.375,10|10|10,1:0|1:0|1:0,0:0:0:0:
27,351,172860,21,2,1:3:0:0:
117,383,173031,1,2,1:1:0:0:
117,383,173117,1,2,0:0:0:0:
117,383,173202,1,10,1:0:0:0:
149,293,173374,1,2,1:3:0:0:
59,261,173545,1,10,0:0:0:0:
59,261,173631,1,2,0:0:0:0:
59,261,173717,2,0,P|49:201|55:146,1,109.375,10|10,1:0|1:0,0:0:0:0:
125,0,174060,1,10,1:0:0:0:
125,0,174231,6,0,P|139:60|139:222,1,218.75,2|10,1:3|1:0,0:0:0:0:
231,102,174745,1,2,1:3:0:0:
231,102,174831,1,2,0:0:0:0:
231,102,174917,2,0,P|291:87|364:88,1,109.375,10|10,0:0|1:0,0:0:0:0:
512,120,175260,1,10,1:0:0:0:
509,147,175345,1,2,0:3:0:0:
507,174,175431,1,10,1:0:0:0:
505,201,175517,1,2,0:3:0:0:
502,228,175602,6,0,L|507:291,4,54.6875,4|0|2|2|10,1:0|0:0|1:0|0:0|1:0,0:0:0:0:
397,384,176117,1,2,1:3:0:0:
397,384,176202,1,2,0:0:0:0:
397,384,176288,2,0,L|402:321,2,54.6875,10|2|10,0:0|0:0|1:0,0:0:0:0:
307,279,176631,2,0,P|299:222|307:155,1,109.375,10|10,1:0|1:0,0:0:0:0:
195,0,176974,5,2,1:3:0:0:
232,96,177145,1,2,1:0:0:0:
232,96,177231,1,2,0:0:0:0:
232,96,177317,2,0,P|212:164|206:221,2,109.375,10|2|10,1:0|1:3|0:0,0:0:0:0:
234,352,177831,1,10,1:0:0:0:
234,352,178002,1,10,1:0:0:0:
234,352,178174,1,10,1:0:0:0:
31,384,178345,22,0,P|46:334|49:270,1,109.375,4|2,1:0|1:0,0:0:0:0:
47,249,178602,1,0,0:0:0:0:
41,222,178688,1,10,1:0:0:0:
32,196,178774,1,0,0:0:0:0:
19,171,178860,1,2,1:0:0:0:
224,0,179202,1,10,1:0:0:0:
224,0,179288,1,2,0:3:0:0:
224,0,179374,2,0,P|215:69|220:115,1,109.375,10|10,1:0|1:0,0:0:0:0:
291,276,179717,5,4,1:0:0:0:
291,276,179802,1,0,0:0:0:0:
291,276,179888,2,0,P|300:345|295:391,2,109.375,2|10|2,1:0|1:0|1:0,0:0:0:0:
403,7,180574,2,0,L|512:0,2,109.375,10|10|10,1:0|1:0|1:0,0:0:0:0:
512,164,181088,6,0,P|475:242|464:415,1,218.75,4|10,1:0|1:0,0:0:0:0:
399,196,181602,2,0,P|378:127|274:2,1,218.75,2|10,1:0|1:0,0:0:0:0:
288,12,182031,1,2,0:3:0:0:
288,12,182117,1,10,1:0:0:0:
126,0,182288,2,0,L|114:59,1,54.6875,10|2,1:0|0:3,0:3:0:0:
77,133,182460,6,0,P|150:136|216:184,1,109.375,4|2,1:0|1:0,0:0:0:0:
240,234,182802,1,10,1:0:0:0:
240,234,182888,1,0,0:0:0:0:
240,234,182974,1,2,1:0:0:0:
86,339,183145,1,10,0:0:0:0:
86,339,183317,2,0,P|83:281|101:224,2,109.375,10|10|10,1:0|1:0|1:0,0:0:0:0:
240,234,183831,21,4,1:0:0:0:
240,234,183917,1,2,0:0:0:0:
240,234,184002,1,2,1:0:0:0:
295,384,184174,1,10,1:0:0:0:
295,384,184345,2,0,P|311:323|425:207,1,218.75,2|10,1:0|1:0,0:0:0:0:
512,192,184860,1,10,1:0:0:0:
512,192,184945,1,2,0:3:0:0:
512,192,185031,1,10,1:0:0:0:
440,21,185202,6,0,P|404:13|377:14,4,54.6875,4|0|2|0|10,1:0|0:0|1:0|0:0|1:0,0:0:0:0:
231,30,185717,2,0,P|267:38|294:37,4,54.6875,2|0|10|0|2,1:0|0:0|0:0|0:0|1:0,0:0:0:0:
256,192,186231,1,10,0:0:0:0:
256,192,186317,1,10,0:0:0:0:
256,192,186402,1,10,0:0:0:0:
256,192,186488,1,10,0:0:0:0:
256,192,186574,5,4,1:2:0:0:
297,294,186745,1,2,1:0:0:0:
195,335,186917,1,10,1:0:0:0:
154,233,187088,1,2,1:0:0:0:
342,224,187260,1,10,0:0:0:0:
342,224,187345,1,0,0:0:0:0:
342,224,187431,2,0,P|417:236|466:261,1,109.375,10|10,1:0|1:0,0:0:0:0:
389,86,187774,1,10,0:0:0:0:
389,86,187945,6,0,P|319:100|251:91,1,109.375,2|2,1:3|1:0,0:0:0:0:
254,91,188202,1,0,0:0:0:0:
230,76,188288,1,10,1:0:0:0:
208,58,188374,1,0,0:0:0:0:
190,36,188460,1,2,1:0:0:0:
73,100,188631,2,0,P|77:161|65:243,1,109.375,10|10,0:0|1:0,0:0:0:0:
64,235,188888,1,2,0:3:0:0:
51,259,188974,2,0,L|-25:285,2,54.6875,10|2|10,1:0|0:3|1:0,0:0:0:0:
172,384,189317,21,2,1:3:0:0:
168,356,189402,1,0,0:0:0:0:
167,329,189488,1,2,1:0:0:0:
169,302,189574,1,0,0:0:0:0:
173,275,189660,1,10,1:0:0:0:
386,103,189831,2,0,P|311:115|195:209,1,218.75,2|10,1:0|1:0,0:0:0:0:
291,322,190345,1,10,1:0:0:0:
291,322,190431,1,2,0:3:0:0:
291,322,190517,2,0,P|310:262|309:209,1,109.375,10|2,0:0|1:3,0:0:0:0:
249,63,190860,5,2,1:0:0:0:
249,63,190945,1,0,0:0:0:0:
249,63,191031,1,10,1:0:0:0:
181,154,191202,2,0,P|276:141|368:43,2,218.75,2|10|10,1:0|1:0|1:0,0:0:0:0:
33,66,192060,5,2,1:3:0:0:
130,43,192231,1,2,1:0:0:0:
153,140,192402,1,10,1:0:0:0:
56,163,192574,1,2,1:0:0:0:
52,190,192660,1,0,0:0:0:0:
49,217,192745,1,10,0:0:0:0:
46,244,192831,1,0,0:0:0:0:
43,271,192917,2,0,L|54:341,1,54.6875,10|2,1:0|0:3,0:0:0:0:
163,384,193088,2,0,L|152:314,1,54.6875,10|2,1:0|0:3,0:0:0:0:
215,237,193260,1,10,0:0:0:0:
215,237,193431,6,0,P|265:257|349:257,1,109.375,2|2,1:3|1:0,0:0:0:0:
453,384,193774,1,10,1:0:0:0:
453,384,193860,1,0,0:0:0:0:
453,384,193945,2,0,P|403:364|319:364,1,109.375,2|10,1:0|0:0,0:0:0:0:
494,229,194288,2,0,L|512:102,2,109.375,10|10|10,1:0|1:0|1:0,0:0:0:0:
475,34,194802,21,2,1:3:0:0:
447,33,194887,1,0,0:0:0:0:
420,33,194973,1,2,1:0:0:0:
393,34,195059,1,2,0:0:0:0:
365,37,195144,1,10,1:0:0:0:
338,40,195230,1,2,0:0:0:0:
311,44,195316,1,2,1:0:0:0:
284,49,195402,1,0,0:0:0:0:
258,55,195488,2,0,L|190:43,3,54.6875,10|2|10|2,0:0|0:0|1:0|0:3,0:0:0:0:
121,0,195831,2,0,L|53:12,3,54.6875,10|2|10|2,1:0|0:3|1:0|0:3,0:0:0:0:
0,78,196174,6,0,P|13:138|16:219,1,109.375,2|2,1:3|1:0,0:0:0:0:
72,377,196517,1,10,1:0:0:0:
72,377,196602,1,0,0:0:0:0:
72,377,196688,2,0,P|85:317|88:236,1,109.375,2|10,1:0|0:0,0:0:0:0:
162,105,197031,1,10,1:0:0:0:
172,130,197116,1,2,0:3:0:0:
181,156,197202,1,10,1:0:0:0:
189,182,197288,1,2,0:3:0:0:
196,208,197373,1,10,1:0:0:0:
201,235,197459,1,2,0:3:0:0:
205,262,197545,6,0,P|267:270|320:270,2,109.375,4|2|10,1:2|1:0|1:0,0:0:0:0:
310,387,198060,2,0,P|386:363|525:362,1,218.75,2|10,1:0|1:0,0:0:0:0:
405,251,198574,2,0,P|413:210|410:135,1,109.375,10|10,1:0|1:0,0:0:0:0:
506,0,198917,1,4,1:0:0:0:
503,27,199002,1,0,0:0:0:0:
503,54,199088,1,2,1:0:0:0:
506,81,199174,1,0,0:0:0:0:
512,108,199259,1,10,1:0:0:0:
366,56,199431,2,0,P|298:42|215:55,1,109.375,2|10,1:0|0:0,0:0:0:0:
40,102,199774,1,10,1:0:0:0:
40,102,199946,1,10,1:0:0:0:
40,102,200117,1,10,1:0:0:0:
87,305,200288,6,0,P|89:247|103:180,1,109.375,4|2,1:0|1:0,0:0:0:0:
109,172,200545,1,0,0:0:0:0:
122,149,200631,1,10,1:0:0:0:
137,127,200717,1,0,0:0:0:0:
156,109,200802,1,2,1:0:0:0:
311,207,200974,1,10,0:0:0:0:
311,207,201060,1,0,0:0:0:0:
311,207,201145,2,0,P|239:208|178:190,2,109.375,10|10|10,1:0|1:0|1:0,0:0:0:0:
485,165,201660,2,0,P|487:113|492:94,4,54.6875,4|0|2|0|10,1:0|0:0|1:0|0:0|1:0,0:0:0:0:
512,299,202174,2,0,P|432:295|276:327,2,218.75,2|10|10,1:0|1:0|1:0,0:0:0:0:
216,360,203031,22,0,P|200:308|199:240,1,109.375,4|2,1:0|1:0,0:0:0:0:
203,226,203288,1,0,0:0:0:0:
212,200,203374,1,10,1:0:0:0:
286,36,203545,2,0,P|301:121|276:259,1,218.75,2|10,1:0|1:0,0:0:0:0:
344,129,204060,2,0,P|384:119|472:122,1,109.375,10|10,1:0|1:0,0:0:0:0:
210,103,204402,5,4,1:0:0:0:
210,103,204488,1,0,0:0:0:0:
210,103,204574,2,0,P|134:95|75:106,1,109.375,2|10,1:0|1:0,0:0:0:0:
0,225,204917,2,0,P|74:233|213:200,1,218.75,2|10,1:0|1:0,0:0:0:0:
235,184,205345,1,2,0:3:0:0:
256,166,205431,1,10,1:0:0:0:
273,145,205517,1,2,0:3:0:0:
287,121,205602,1,10,1:0:0:0:
314,0,205774,5,4,1:0:0:0:
314,0,205860,1,0,0:0:0:0:
314,0,205945,2,0,P|378:-2|437:8,1,109.375,2|10,1:0|1:0,0:0:0:0:
447,15,206202,1,0,0:0:0:0:
470,29,206288,2,0,P|457:107|468:266,1,218.75,2|10,1:0|1:0,0:0:0:0:
512,384,206802,1,10,1:0:0:0:
512,384,206888,1,2,0:3:0:0:
512,384,206974,1,10,1:0:0:0:
373,334,207145,5,12,1:0:0:0:
345,335,207230,1,8,0:0:0:0:
318,336,207316,1,8,0:0:0:0:
291,338,207402,1,8,0:0:0:0:
263,339,207487,1,14,1:0:0:0:
236,341,207573,1,10,0:0:0:0:
209,342,207659,1,10,1:2:0:0:
181,344,207745,1,10,0:0:0:0:
154,345,207831,1,10,0:0:0:0:
121,334,207916,1,10,0:0:0:0:
92,317,208002,1,14,1:0:0:0:
67,293,208088,1,10,0:0:0:0:
48,265,208173,1,14,1:0:0:0:
36,233,208259,1,10,0:0:0:0:
31,200,208345,1,14,1:0:0:0:
34,166,208431,1,10,0:0:0:0:
44,133,208516,21,4,0:1:0:0:
256,192,208688,12,4,214002,0:1:0:0:
256,192,215374,53,6,0:1:0:0:
