osu file format v14

[General]
AudioFilename: audio.mp3
AudioLeadIn: 0
PreviewTime: 47656
Countdown: 0
SampleSet: Normal
StackLeniency: 0.4
Mode: 0
LetterboxInBreaks: 0
WidescreenStoryboard: 1

[Editor]
Bookmarks: 26544,28944,48144,67344,78144,87744,97344,106944,126144,138144,169344,188544
DistanceSpacing: 1.4
BeatDivisor: 4
GridSize: 32
TimelineZoom: 1.7

[Metadata]
Title:Dea x Crisis
TitleUnicode:Dea×Crisis
Artist:Yousei Teikoku
ArtistUnicode:妖精帝國
Creator:Lasse
Version:Hard
Source:超ヒロイン戦記
Tags:deaxcrisis japanese symphonic rock metal Hades The Other World 伊月ゆい Itsuki Yui yōsei Super Heroine Chronicle video game
BeatmapID:2780068
BeatmapSetID:1338846

[Difficulty]
HPDrainRate:4
CircleSize:3.8
OverallDifficulty:6.8
ApproachRate:8
SliderMultiplier:1.38
SliderTickRate:1

[Events]
//Background and Video events
0,0,"v.jpg",0,0
//Break Periods
2,135644,137394
2,157544,158994
2,159944,161394
2,162344,163794
//Storyboard Layer 0 (Background)
//Storyboard Layer 1 (Fail)
//Storyboard Layer 2 (Pass)
//Storyboard Layer 3 (Foreground)
//Storyboard Layer 4 (Overlay)
//Storyboard Sound Samples

[TimingPoints]
3744,300,4,2,1,50,1,0
12744,-100,4,2,1,55,0,0
13044,-100,4,2,1,60,0,0
13344,-100,4,1,1,65,0,0
15744,-100,4,1,2,65,0,0
15819,-100,4,1,1,65,0,0
16344,-100,4,1,2,65,0,0
16419,-100,4,1,1,65,0,0
17244,-100,4,1,2,65,0,0
18144,-100,4,1,1,65,0,0
20544,-100,4,1,2,65,0,0
20619,-100,4,1,1,65,0,0
21144,-100,4,1,2,65,0,0
21219,-100,4,1,1,65,0,0
22044,-100,4,1,2,65,0,0
22644,-100,4,1,1,65,0,0
22944,-100,4,1,1,70,0,0
27744,-100,4,2,1,50,0,0
28494,-100,4,2,1,40,0,0
28644,-100,4,2,1,60,0,0
28944,-111.111111111111,4,1,1,60,0,0
38544,-100,4,1,1,60,0,0
42144,-100,4,1,2,60,0,0
42294,-100,4,1,1,60,0,0
42594,-100,4,1,2,60,0,0
42744,-100,4,1,1,60,0,0
43044,-100,4,1,2,60,0,0
43194,-100,4,1,1,60,0,0
45744,-100,4,1,1,65,0,0
46944,-100,4,1,1,70,0,0
47694,-100,4,1,2,70,0,0
48144,-90.9090909090909,4,1,3,70,0,1
48219,-90.9090909090909,4,1,1,70,0,1
52944,-90.9090909090909,4,1,2,70,0,1
53019,-90.9090909090909,4,1,1,70,0,1
55344,-76.9230769230769,4,1,1,70,0,1
55794,-76.9230769230769,4,1,2,70,0,1
56244,-76.9230769230769,4,1,1,70,0,1
56694,-76.9230769230769,4,1,2,70,0,1
56994,-76.9230769230769,4,1,1,70,0,1
57144,-100,4,1,1,70,0,1
57744,-90.9090909090909,4,1,3,70,0,1
57819,-90.9090909090909,4,1,1,70,0,1
62544,-90.9090909090909,4,1,2,70,0,1
62619,-90.9090909090909,4,1,1,70,0,1
64944,-76.9230769230769,4,1,1,70,0,1
65394,-76.9230769230769,4,1,2,70,0,1
65844,-76.9230769230769,4,1,1,70,0,1
66294,-76.9230769230769,4,1,2,70,0,1
66594,-76.9230769230769,4,1,1,70,0,1
66744,-100,4,1,1,70,0,1
67344,-100,4,1,1,65,0,0
72144,-100,4,1,2,65,0,0
72219,-100,4,1,1,65,0,0
74094,-100,4,1,2,65,0,0
74319,-100,4,1,1,65,0,0
76494,-100,4,1,2,65,0,0
76719,-100,4,1,1,65,0,0
76944,-100,4,1,2,55,0,0
78144,-100,4,1,1,65,0,0
80544,-100,4,1,2,65,0,0
80619,-100,4,1,1,65,0,0
81144,-100,4,1,2,65,0,0
81219,-100,4,1,1,65,0,0
82044,-100,4,1,2,65,0,0
82944,-100,4,1,1,65,0,0
85344,-100,4,1,2,65,0,0
85419,-100,4,1,1,65,0,0
85944,-100,4,1,2,65,0,0
86019,-100,4,1,1,65,0,0
86844,-100,4,1,2,65,0,0
86994,-100,4,1,1,65,0,0
87744,-111.111111111111,4,1,1,60,0,0
97344,-100,4,1,1,60,0,0
100944,-100,4,1,2,60,0,0
101094,-100,4,1,1,60,0,0
101394,-100,4,1,2,60,0,0
101544,-100,4,1,1,60,0,0
101844,-100,4,1,2,60,0,0
101994,-100,4,1,1,60,0,0
104544,-100,4,1,1,65,0,0
105744,-100,4,1,1,70,0,0
106494,-100,4,1,2,70,0,0
106944,-90.9090909090909,4,1,3,70,0,1
107019,-90.9090909090909,4,1,1,70,0,1
111744,-90.9090909090909,4,1,2,70,0,1
111819,-90.9090909090909,4,1,1,70,0,1
114144,-76.9230769230769,4,1,1,70,0,1
114594,-76.9230769230769,4,1,2,70,0,1
115044,-76.9230769230769,4,1,1,70,0,1
115494,-76.9230769230769,4,1,2,70,0,1
115794,-76.9230769230769,4,1,1,70,0,1
116094,-100,4,1,1,70,0,1
116544,-90.9090909090909,4,1,3,70,0,1
116619,-90.9090909090909,4,1,1,70,0,1
121344,-90.9090909090909,4,1,2,70,0,1
121419,-90.9090909090909,4,1,1,70,0,1
123744,-76.9230769230769,4,1,1,70,0,1
124194,-76.9230769230769,4,1,2,70,0,1
124644,-76.9230769230769,4,1,1,70,0,1
125094,-76.9230769230769,4,1,2,70,0,1
125394,-76.9230769230769,4,1,1,70,0,1
125694,-100,4,1,1,70,0,1
126144,-100,4,1,1,65,0,0
130944,-100,4,1,2,65,0,0
131019,-100,4,1,1,65,0,0
132894,-100,4,1,2,65,0,0
133119,-100,4,1,1,65,0,0
135294,-100,4,1,2,65,0,0
135519,-100,4,1,1,65,0,0
138144,-100,4,1,1,65,0,0
145344,-83.3333333333333,4,1,1,65,0,0
145794,-83.3333333333333,4,1,2,65,0,0
146244,-83.3333333333333,4,1,1,65,0,0
146694,-83.3333333333333,4,1,2,65,0,0
147144,-83.3333333333333,4,1,1,65,0,0
147744,-90.9090909090909,4,1,1,70,0,0
152544,-90.9090909090909,4,1,2,70,0,0
152619,-90.9090909090909,4,1,1,70,0,0
154944,-90.9090909090909,4,1,2,70,0,0
155019,-90.9090909090909,4,1,1,70,0,0
156144,-83.3333333333333,4,1,1,70,0,0
157344,-83.3333333333333,4,2,1,50,0,0
157644,-83.3333333333333,4,2,1,40,0,0
159744,-83.3333333333333,4,2,1,50,0,0
160044,-83.3333333333333,4,2,1,40,0,0
162144,-83.3333333333333,4,2,1,50,0,0
162444,-83.3333333333333,4,2,1,40,0,0
164544,-83.3333333333333,4,2,1,50,0,0
165894,-133.333333333333,4,2,1,50,0,0
166344,-133.333333333333,4,2,1,52,0,0
166444,-133.333333333333,4,2,1,30,0,0
166544,-133.333333333333,4,2,1,54,0,0
166644,-133.333333333333,4,2,1,30,0,0
166744,-133.333333333333,4,2,1,56,0,0
166844,-133.333333333333,4,2,1,30,0,0
166944,-133.333333333333,4,2,1,58,0,0
169344,-86.2068965517241,4,1,3,75,0,1
169419,-86.2068965517241,4,1,1,75,0,1
174144,-86.2068965517241,4,1,2,75,0,1
174219,-86.2068965517241,4,1,1,75,0,1
176544,-73.5294117647059,4,1,1,75,0,1
176994,-73.5294117647059,4,1,2,75,0,1
177444,-73.5294117647059,4,1,1,75,0,1
177894,-73.5294117647059,4,1,2,75,0,1
178194,-73.5294117647059,4,1,1,75,0,1
178494,-100,4,1,1,75,0,1
178944,-86.2068965517241,4,1,3,75,0,1
179019,-86.2068965517241,4,1,1,75,0,1
183744,-86.2068965517241,4,1,2,75,0,1
183819,-86.2068965517241,4,1,1,75,0,1
186144,-73.5294117647059,4,1,1,75,0,1
186594,-73.5294117647059,4,1,2,75,0,1
187044,-73.5294117647059,4,1,1,75,0,1
187494,-73.5294117647059,4,1,2,75,0,1
187794,-73.5294117647059,4,1,1,75,0,1
188094,-100,4,1,1,75,0,1
188544,-100,4,1,1,65,0,0
195294,-100,4,1,2,65,0,0
195519,-100,4,1,1,65,0,0
197694,-100,4,1,2,65,0,0
197919,-100,4,1,1,65,0,0
198144,-100,4,1,1,60,0,0
207744,-100,4,1,99,55,0,0

[Colours]
Combo1 : 240,140,140
Combo2 : 200,180,220
Combo3 : 240,200,155
Combo4 : 150,185,220

[HitObjects]
126,48,3744,6,0,P|91:44|54:42,1,69,6|0,1:2|1:2,0:0:0:0:
131,66,6144,6,0,P|96:62|59:60,1,69,6|0,1:2|0:0,0:2:0:0:
0,169,6744,6,0,P|35:173|72:175,1,69,6|0,1:2|0:0,0:2:0:0:
335,107,7644,6,0,P|300:103|263:101,1,69,6|0,1:2|0:2,0:2:0:0:
248,177,7944,2,0,P|282:178|316:182,1,69,2|0,1:2|0:2,0:2:0:0:
329,259,8244,2,0,P|294:255|260:253,1,69,2|0,1:2|0:2,0:2:0:0:
186,292,8544,6,0,L|195:382,1,69,6|0,1:2|1:2,0:0:0:0:
164,277,10944,6,0,L|173:367,1,69,6|0,1:2|0:0,0:2:0:0:
333,217,11544,6,0,L|324:307,1,69,6|0,1:2|0:0,0:2:0:0:
232,91,12144,5,0,1:2:0:0:
232,91,12294,1,0,1:2:0:0:
162,128,12444,2,0,P|128:121|90:115,1,69,14|0,0:2|0:2,0:2:0:0:
47,191,12744,6,0,P|23:195|-9:220,2,46,8|8|8,0:3|0:3|0:3,0:0:0:0:
54,222,13044,2,0,P|34:237|19:274,2,46,4|4|4,0:3|0:3|0:3,0:0:0:0:
74,247,13344,6,0,P|59:297|101:373,2,138,6|8|0,0:1|0:2|0:0,0:0:0:0:
134,190,14094,1,0,0:2:0:0:
209,222,14244,2,0,P|243:230|292:218,1,69,10|0,0:2|0:2,0:2:0:0:
385,177,14544,5,2,0:1:0:0:
385,177,14694,1,0,0:1:0:0:
448,229,14844,2,0,P|463:279|421:355,1,138,8|0,0:2|0:0,0:0:0:0:
347,380,15294,1,0,0:2:0:0:
297,313,15444,2,0,L|287:231,1,69,10|0,0:2|0:2,0:2:0:0:
210,164,15744,5,6,0:1:0:0:
210,164,15894,1,0,0:2:0:0:
140,209,16044,2,0,P|107:209|69:189,1,69,10|0,0:2|0:2,0:2:0:0:
0,114,16344,1,6,0:1:0:0:
0,114,16494,1,0,0:2:0:0:
33,38,16644,2,0,P|63:23|98:23,1,69,10|0,0:2|0:2,0:2:0:0:
215,50,16944,5,2,0:1:0:0:
215,50,17094,1,0,0:2:0:0:
152,114,17244,2,0,L|62:97,1,69,14|0,0:1|0:2,0:2:0:0:
123,196,17544,2,0,L|47:247,1,69,14|0,0:1|0:2,0:2:0:0:
160,274,17844,2,0,L|142:363,1,69,14|0,0:1|0:2,0:2:0:0:
248,308,18144,6,0,P|309:332|381:284,2,138,6|8|0,0:1|0:2|0:2,0:0:0:0:
189,249,18894,1,0,0:2:0:0:
180,166,19044,2,0,P|190:128|211:99,1,69,10|0,0:2|0:2,0:2:0:0:
306,35,19344,5,2,0:1:0:0:
306,35,19494,1,0,0:2:0:0:
374,81,19644,2,0,P|394:130|356:205,1,138,8|0,0:2|0:2,0:0:0:0:
286,242,20094,1,0,0:2:0:0:
218,194,20244,2,0,P|183:174|136:172,1,69,10|0,0:2|0:2,0:2:0:0:
43,178,20544,5,6,0:1:0:0:
43,178,20694,1,0,0:2:0:0:
62,258,20844,2,0,L|75:332,1,69,10|0,0:2|0:2,0:0:0:0:
174,377,21144,1,6,0:1:0:0:
174,377,21294,1,0,0:2:0:0:
198,298,21444,2,0,L|209:230,1,69,10|0,0:2|0:2,0:2:0:0:
303,151,21744,5,2,0:1:0:0:
303,151,21894,1,0,0:2:0:0:
378,199,22044,2,0,P|420:196|456:166,1,69,14|0,0:1|0:2,0:2:0:0:
385,112,22344,2,0,P|403:74|395:27,1,69,14|0,0:1|0:2,0:2:0:0:
313,62,22644,2,0,P|289:27|245:10,1,69,8|8,3:3|3:3,0:0:0:0:
167,51,22944,6,0,L|119:60,4,34.5,2|0|0|0|12,0:1|0:2|0:2|0:2|0:2,0:0:0:0:
285,167,23544,2,0,L|333:176,4,34.5,2|0|0|0|12,0:1|0:2|0:2|0:2|0:2,0:0:0:0:
158,274,24144,2,0,L|110:283,4,34.5,2|0|0|0|12,0:1|0:2|0:2|0:2|0:2,0:0:0:0:
303,353,24744,5,2,0:1:0:0:
303,353,24894,2,0,B|348:343|397:379|397:379|428:369|434:353,1,138,12|8,0:2|0:2,0:2:0:0:
466,287,25344,6,0,L|461:240,4,34.5,2|0|0|0|12,0:1|0:2|0:2|0:2|0:2,0:0:0:0:
353,165,25944,2,0,L|348:212,4,34.5,2|0|0|0|12,0:1|0:2|0:2|0:2|0:2,0:0:0:0:
235,282,26544,2,0,L|230:235,4,34.5,2|0|0|0|12,0:1|0:2|0:2|0:2|0:2,0:0:0:0:
141,145,27144,5,2,0:1:0:0:
141,145,27294,2,0,B|102:172|102:172|47:174|15:132,1,138,12|0,0:2|0:2,0:2:0:0:
256,6,28644,1,8,0:2:0:0:
256,6,28794,1,8,0:2:0:0:
331,50,28944,6,0,P|346:83|318:174,1,124.199996209717,4|8,0:1|0:2,0:2:0:0:
183,198,29544,1,2,0:2:0:0:
183,198,29694,2,0,L|102:184,1,62.0999981048585,0|8,0:2|0:2,0:2:0:0:
59,229,29994,2,0,P|41:287|63:344,1,124.199996209717,2|0,0:2|0:2,0:0:0:0:
135,379,30444,2,0,L|150:295,1,62.0999981048585,8|0,0:2|0:2,0:0:0:0:
215,276,30744,1,2,0:2:0:0:
215,276,30894,2,0,L|296:286,1,62.0999981048585,0|8,0:2|0:2,0:0:0:0:
373,343,31194,5,2,0:2:0:0:
373,343,31344,2,0,B|412:379|453:359|453:359|485:313,1,124.199996209717,0|8,0:2|0:2,0:0:0:0:
416,190,31944,1,2,0:2:0:0:
416,190,32094,2,0,P|439:168|448:139,1,62.0999981048585,0|8,0:2|0:2,0:0:0:0:
446,64,32394,2,0,P|400:61|342:8,1,124.199996209717,2|2,0:2|0:2,0:0:0:0:
272,59,32844,2,0,P|233:63|200:82,1,62.0999981048585,8|0,0:2|0:2,0:0:0:0:
148,122,33144,1,8,0:2:0:0:
221,154,33294,2,0,P|242:188|241:284,1,124.199996209717,12|8,0:2|0:2,0:2:0:0:
196,334,33744,6,0,B|153:338|153:338|131:360|131:360|64:378,1,124.199996209717,4|8,0:1|0:2,0:0:0:0:
10,248,34344,1,2,0:2:0:0:
10,248,34494,2,0,L|23:175,1,62.0999981048585,0|8,0:2|0:2,0:0:0:0:
80,142,34794,2,0,B|137:162|137:162|202:125,1,124.199996209717,2|0,0:2|0:2,0:0:0:0:
253,87,35244,2,0,P|242:50|253:10,1,62.0999981048585,8|0,0:2|0:2,0:2:0:0:
323,53,35544,1,2,0:2:0:0:
323,53,35694,2,0,P|359:32|394:36,1,62.0999981048585,0|8,0:2|0:2,0:0:0:0:
459,81,35994,5,2,0:2:0:0:
459,81,36144,2,0,P|480:160|464:210,1,124.199996209717,0|8,0:2|0:2,0:0:0:0:
376,315,36744,1,2,0:2:0:0:
376,315,36894,2,0,L|365:245,1,62.0999981048585,0|8,0:2|0:2,0:0:0:0:
305,210,37194,2,0,B|271:243|271:243|186:224,1,124.199996209717,2|0,0:2|0:2,0:0:0:0:
140,176,37644,2,0,P|141:145|128:105,1,62.0999981048585,8|0,0:2|0:0,0:0:0:0:
67,79,37944,2,0,L|11:89,2,31.0499990524292,8|8|8,2:2|2:2|2:2,0:0:0:0:
118,24,38244,1,8,2:3:0:0:
118,24,38394,1,8,2:3:0:0:
208,59,38544,6,0,B|293:59|250:21|353:16,1,138,4|8,0:1|0:2,0:2:0:0:
418,24,38994,1,0,0:2:0:0:
484,72,39144,2,0,P|503:130|489:218,1,138,0|8,0:2|0:2,0:2:0:0:
451,276,39594,1,0,0:2:0:0:
383,218,39744,6,0,L|373:139,1,69,2|0,0:2|0:2,0:0:0:0:
285,117,40044,2,0,L|293:185,1,69,8|0,0:2|0:2,0:0:0:0:
216,240,40344,2,0,L|206:161,1,69,2|0,0:2|0:2,0:0:0:0:
118,139,40644,2,0,L|126:207,1,69,8|0,0:2|0:2,0:0:0:0:
28,254,40944,6,0,P|8:188|17:120,1,138,6|8,0:2|0:2,0:0:0:0:
70,49,41394,1,2,0:2:0:0:
70,49,41544,2,0,B|105:53|105:53|142:30,1,69,0|0,0:2|0:2,0:2:0:0:
209,84,41844,2,0,B|244:88|244:88|281:65,1,69,8|0,0:2|0:2,0:2:0:0:
371,14,42144,6,0,P|413:15|463:103,1,138,6|0,0:1|0:2,0:0:0:0:
439,173,42594,2,0,L|300:155,1,138,14|0,0:1|0:2,0:0:0:0:
370,244,43044,2,0,P|372:279|355:307,1,69,14|0,0:1|0:2,0:0:0:0:
256,350,43344,6,0,B|207:340|207:340|182:350|182:350|108:337,1,138,6|8,0:2|0:2,0:2:0:0:
42,382,43794,2,0,L|31:290,1,69,2|0,0:2|0:2,0:0:0:0:
131,256,44094,1,2,0:2:0:0:
131,256,44244,2,0,L|142:164,1,69,8|0,0:2|0:2,0:0:0:0:
261,234,44544,6,0,B|293:262|293:262|344:240|349:184,1,138,6|8,0:2|0:2,0:0:0:0:
450,155,44994,2,0,P|377:151|333:98,1,138,2|2,0:2|0:2,0:0:0:0:
298,29,45444,1,8,0:2:0:0:
298,29,45594,1,0,0:2:0:0:
222,104,45744,6,0,P|204:153|245:253,1,138,2|10,0:1|0:1,0:0:0:0:
291,294,46194,1,0,0:2:0:0:
229,359,46344,2,0,L|149:375,1,69,2|0,0:1|0:2,0:0:0:0:
87,331,46644,1,10,0:1:0:0:
87,331,46794,1,0,0:2:0:0:
156,251,46944,6,0,P|164:217|161:183,1,69,10|8,0:1|0:2,0:0:0:0:
65,153,47244,2,0,P|56:186|59:220,1,69,10|10,0:1|0:1,0:0:0:0:
141,104,47544,1,10,0:1:0:0:
68,50,47694,1,14,0:1:0:0:
68,50,48144,6,0,B|97:83|156:75|156:75|168:45|199:26,1,151.800004632568,14|8,0:1|0:2,0:1:0:0:
232,132,48594,1,2,0:1:0:0:
232,132,48669,1,0,0:2:0:0:
232,132,48744,2,0,P|265:148|301:141,1,75.9000023162842,0|0,0:2|0:2,0:1:0:0:
353,56,49044,2,0,P|386:39|422:46,1,75.9000023162842,10|0,0:1|0:2,0:0:0:0:
501,107,49344,2,2,B|483:188|546:178|517:265,2,151.800004632568,2|10|2,0:1|0:1|0:1,0:1:0:0:
325,14,50244,5,10,0:2:0:0:
266,74,50394,1,0,0:2:0:0:
185,51,50544,2,0,P|141:35|53:95,1,151.800004632568,2|8,0:1|0:2,0:0:0:0:
25,177,50994,1,2,0:1:0:0:
25,177,51069,1,0,0:2:0:0:
25,177,51144,2,0,P|59:171|109:167,1,75.9000023162842,0|0,0:2|0:2,0:2:0:0:
176,265,51444,2,0,P|139:256|89:251,1,75.9000023162842,10|0,0:1|0:2,0:2:0:0:
212,184,51744,2,0,P|206:127|252:33,1,151.800004632568,2|10,0:1|0:1,0:1:0:0:
426,193,52344,2,0,P|432:250|386:344,1,151.800004632568,2|10,0:1|0:1,0:0:0:0:
173,375,52944,6,0,P|133:363|85:358,1,75.9000023162842,6|0,0:1|0:2,0:0:0:0:
8,373,53244,1,8,0:2:0:0:
39,287,53394,2,0,B|49:226|49:226|46:213|46:213|60:135,1,151.800004632568,2|2,0:2|0:2,0:0:0:0:
70,47,53844,1,8,0:2:0:0:
70,47,53994,1,0,0:2:0:0:
144,98,54144,2,2,P|209:117|282:59,1,151.800004632568,2|10,0:1|0:1,0:1:0:0:
334,14,54594,1,0,0:2:0:0:
396,69,54744,2,2,P|403:93|385:148,1,75.9000023162842,2|0,0:1|0:2,0:1:0:0:
306,184,55044,2,2,L|218:167,1,75.9000023162842,10|0,0:1|0:2,0:1:0:0:
121,204,55344,6,2,P|86:296|115:384,1,179.39999178772,6|0,0:1|0:1,0:1:0:0:
209,336,55794,2,2,P|296:325|401:324,1,179.39999178772,6|0,0:1|0:2,0:1:0:0:
486,365,56244,2,2,P|505:279|471:197,1,179.39999178772,6|0,0:1|0:2,0:1:0:0:
384,134,56694,2,2,P|295:145|205:146,1,179.39999178772,6|8,0:1|0:2,0:1:0:0:
205,146,57294,6,0,B|234:102|210:50|210:50|144:28,1,138,10|10,0:1|0:1,0:0:0:0:
69,81,57744,6,0,P|50:124|73:247,1,151.800004632568,14|8,0:1|0:2,0:1:0:0:
132,308,58194,1,2,0:1:0:0:
132,308,58269,1,0,0:2:0:0:
132,308,58344,2,0,P|173:295|217:296,1,75.9000023162842,0|0,0:2|0:2,0:2:0:0:
289,347,58644,2,0,P|326:348|362:360,1,75.9000023162842,10|0,0:1|0:2,0:0:0:0:
454,323,58944,2,2,P|473:280|450:157,2,151.800004632568,2|8|0,0:1|0:2|0:1,0:1:0:0:
280,382,59844,5,10,0:2:0:0:
237,309,59994,1,0,0:2:0:0:
281,238,60144,2,2,P|300:195|277:72,1,151.800004632568,2|8,0:1|0:2,0:1:0:0:
216,43,60594,1,2,0:1:0:0:
216,43,60669,1,0,0:2:0:0:
216,43,60744,2,0,L|204:126,1,75.9000023162842,0|0,0:2|0:2,0:2:0:0:
120,164,61044,2,0,L|109:88,1,75.9000023162842,10|0,0:1|0:2,0:2:0:0:
30,31,61344,2,0,P|6:102|21:175,1,151.800004632568,2|10,0:1|0:1,0:0:0:0:
149,332,61944,2,0,P|215:304|320:317,1,151.800004632568,2|10,0:1|0:1,0:0:0:0:
512,382,62544,6,0,L|497:298,1,75.9000023162842,6|0,0:1|0:2,0:0:0:0:
456,218,62844,1,8,0:2:0:0:
391,284,62994,2,0,P|324:302|266:235,1,151.800004632568,2|2,0:2|0:2,0:0:0:0:
276,162,63444,1,8,0:2:0:0:
276,162,63594,1,0,0:2:0:0:
361,130,63744,2,0,P|341:59|272:39,1,151.800004632568,2|10,0:1|0:1,0:0:0:0:
202,91,64194,1,0,0:2:0:0:
118,84,64344,2,0,L|100:-6,1,75.9000023162842,2|0,0:1|0:2,0:0:0:0:
23,68,64644,2,0,L|41:158,1,75.9000023162842,10|0,0:1|0:2,0:0:0:0:
155,175,64944,6,2,P|233:137|340:153,1,179.39999178772,6|0,0:1|0:2,0:1:0:0:
342,252,65394,2,2,P|264:290|157:274,1,179.39999178772,6|0,0:1|0:2,0:1:0:0:
130,182,65844,2,2,P|153:97|115:14,1,179.39999178772,6|0,0:1|0:2,0:1:0:0:
9,29,66294,2,2,P|-14:114|23:196,1,179.39999178772,6|8,0:1|0:2,0:1:0:0:
196,282,66894,5,2,3:1:0:0:
196,282,66969,1,0,3:3:0:0:
196,282,67044,2,0,P|235:271|284:268,1,69,0|0,3:3|3:3,0:0:0:0:
347,325,67344,6,0,B|378:358|378:358|433:371|474:322,1,138,6|8,0:1|0:2,0:2:0:0:
475,244,67794,2,0,P|507:191|465:101,1,138,2|0,0:1|0:2,0:2:0:0:
429,60,68244,1,10,0:1:0:0:
429,60,68394,1,0,0:2:0:0:
369,127,68544,2,0,B|338:160|338:160|283:173|242:124,1,138,2|8,0:1|0:2,0:2:0:0:
197,64,68994,2,0,P|153:41|49:63,1,138,2|0,0:1|0:2,0:2:0:0:
6,115,69444,1,10,0:1:0:0:
6,115,69594,1,0,0:2:0:0:
55,189,69744,6,0,P|99:212|203:190,1,138,2|8,0:2|0:2,0:0:0:0:
253,151,70194,1,2,0:2:0:0:
253,151,70269,1,0,0:2:0:0:
253,151,70344,2,0,P|244:98|320:42,1,138,0|8,0:2|0:2,0:0:0:0:
385,14,70794,1,0,0:2:0:0:
457,66,70944,2,0,L|450:212,1,138,2|8,0:1|0:1,0:1:0:0:
498,279,71394,2,0,P|433:247|352:278,1,138,2|0,0:1|0:2,0:2:0:0:
298,313,71844,2,0,L|289:237,1,69,10|0,0:1|0:2,0:2:0:0:
245,149,72144,6,0,B|220:185|220:185|171:197|107:164,1,138,6|8,0:1|0:2,0:0:0:0:
101,87,72594,2,0,P|104:53|93:21,1,69,2|0,0:1|0:2,0:0:0:0:
18,124,72894,2,0,P|3:180|29:267,1,138,2|8,0:1|0:2,0:0:0:0:
84,342,73344,2,0,P|129:313|219:333,1,138,2|8,0:1|0:2,0:0:0:0:
285,383,73794,2,0,L|293:305,1,69,2|0,0:1|0:2,0:0:0:0:
360,233,74094,5,6,0:1:0:0:
391,319,74244,1,6,0:1:0:0:
496,173,74544,6,0,B|452:182|452:182|404:162|402:105,1,138,6|8,0:1|0:2,0:0:0:0:
348,37,74994,2,0,P|317:16|279:9,1,69,2|0,0:1|0:2,0:0:0:0:
214,62,75294,2,0,P|209:121|243:203,1,138,2|8,0:1|0:2,0:0:0:0:
313,239,75744,2,0,B|356:218|399:233|399:233|416:247|432:274,1,138,2|8,0:1|0:2,0:0:0:0:
369,351,76194,2,0,P|323:338|289:338,1,69,2|0,0:1|0:2,0:0:0:0:
218,384,76494,5,6,0:1:0:0:
219,291,76644,1,6,0:1:0:0:
34,247,76944,6,0,L|-9:249,2,34.5,8|0|0,3:2|3:2|3:2,0:0:0:0:
110,200,77244,2,0,L|153:198,2,34.5,8|0|0,3:2|3:2|3:2,0:0:0:0:
37,146,77544,2,0,L|-6:148,2,34.5,8|0|0,3:2|3:2|3:2,0:0:0:0:
102,79,77844,6,0,B|100:65|100:65|103:59|103:59|100:36,3,34.5,6|0|0|0,3:1|3:2|3:2|3:2,0:0:0:0:
128,31,78144,6,0,P|203:26|239:83,2,138,6|8|0,0:1|0:2|0:0,0:0:0:0:
73,94,78894,1,0,0:2:0:0:
117,163,79044,2,0,P|159:167|204:143,1,69,10|0,0:2|0:2,0:2:0:0:
260,87,79344,5,2,0:1:0:0:
260,87,79494,1,0,0:1:0:0:
296,161,79644,2,0,P|270:224|296:297,1,138,8|0,0:2|0:0,0:0:0:0:
352,341,80094,1,0,0:2:0:0:
429,312,80244,2,0,L|444:237,1,69,10|0,0:2|0:2,0:2:0:0:
512,157,80544,5,6,0:1:0:0:
512,157,80694,1,0,0:2:0:0:
429,157,80844,2,0,L|358:137,1,69,10|0,0:2|0:2,0:2:0:0:
298,62,81144,1,6,0:1:0:0:
298,62,81294,1,0,0:2:0:0:
231,111,81444,2,0,L|160:131,1,69,10|0,0:2|0:2,0:2:0:0:
81,74,81744,5,2,0:1:0:0:
81,74,81894,1,0,0:2:0:0:
19,129,82044,2,0,P|9:156|23:203,1,69,14|0,0:1|0:2,0:2:0:0:
91,245,82344,2,0,P|124:228|161:227,1,69,14|0,0:1|0:2,0:2:0:0:
220,287,82644,2,0,P|250:303|284:305,1,69,14|0,0:1|0:2,0:2:0:0:
374,244,82944,6,0,L|395:85,2,138,6|8|0,0:1|0:2|0:2,0:0:0:0:
375,326,83694,1,0,0:2:0:0:
302,366,83844,2,0,P|262:362|230:332,1,69,10|0,0:2|0:2,0:2:0:0:
170,269,84144,5,2,0:1:0:0:
170,269,84294,1,0,0:2:0:0:
225,207,84444,2,0,P|250:153|226:61,1,138,8|0,0:2|0:2,0:0:0:0:
179,18,84894,1,0,0:2:0:0:
121,77,85044,2,0,L|112:149,1,69,10|0,0:2|0:2,0:2:0:0:
38,214,85344,5,6,0:1:0:0:
38,214,85494,1,0,0:2:0:0:
94,274,85644,2,0,P|130:273|172:243,1,69,10|0,0:2|0:2,0:0:0:0:
227,189,85944,1,6,0:1:0:0:
227,189,86094,1,0,0:2:0:0:
283,249,86244,2,0,L|274:319,1,69,10|0,0:2|0:2,0:2:0:0:
359,381,86544,5,2,0:1:0:0:
359,381,86694,1,0,0:2:0:0:
418,322,86844,2,2,L|409:252,1,69,14|0,0:1|0:2,0:1:0:0:
305,233,87144,2,2,L|314:163,1,69,10|0,0:1|0:0,0:1:0:0:
411,124,87444,2,2,L|402:54,1,69,10|0,0:1|0:0,0:1:0:0:
317,18,87744,6,0,B|310:57|270:72|270:72|199:44,1,124.199996209717,4|8,0:1|0:2,0:0:0:0:
73,16,88344,1,2,0:2:0:0:
73,16,88494,2,0,P|59:42|67:89,1,62.0999981048585,0|8,0:2|0:2,0:2:0:0:
112,127,88794,2,0,B|148:109|148:109|192:119|197:178,1,124.199996209717,2|0,0:2|0:2,0:0:0:0:
155,237,89244,2,0,L|77:246,1,62.0999981048585,8|0,0:2|0:2,0:0:0:0:
91,326,89544,1,2,0:2:0:0:
91,326,89694,2,0,L|172:336,1,62.0999981048585,0|8,0:2|0:2,0:0:0:0:
242,374,89994,5,2,0:2:0:0:
242,374,90144,2,0,B|221:329|280:311|253:247,1,124.199996209717,0|8,0:2|0:2,0:0:0:0:
131,181,90744,1,0,0:2:0:0:
131,181,90894,2,0,L|53:171,1,62.0999981048585,0|8,0:2|0:2,0:0:0:0:
126,99,91194,2,0,P|129:59|206:37,1,124.199996209717,2|2,0:2|0:2,0:0:0:0:
267,74,91644,2,0,L|269:145,1,62.0999981048585,8|0,0:2|0:2,0:0:0:0:
327,195,91944,1,8,0:2:0:0:
327,195,92094,2,0,P|396:205|441:165,1,124.199996209717,12|8,0:2|0:2,0:2:0:0:
461,86,92544,6,0,P|424:26|364:17,1,124.199996209717,4|8,0:1|0:2,0:0:0:0:
235,71,93144,1,2,0:2:0:0:
235,71,93294,2,0,L|235:144,1,62.0999981048585,0|8,0:2|0:2,0:0:0:0:
191,193,93594,2,0,B|134:213|134:213|69:176,1,124.199996209717,2|0,0:2|0:2,0:0:0:0:
0,123,94044,2,0,L|58:103,1,62.0999981048585,8|0,0:2|0:2,0:2:0:0:
104,38,94344,1,2,0:2:0:0:
104,38,94494,2,0,L|162:18,1,62.0999981048585,0|8,0:2|0:2,0:0:0:0:
244,77,94794,5,2,0:2:0:0:
244,77,94944,2,0,P|232:158|251:198,1,124.199996209717,0|8,0:2|0:2,0:0:0:0:
400,249,95544,1,2,0:2:0:0:
400,249,95694,2,0,L|482:236,1,62.0999981048585,0|8,0:2|0:2,0:0:0:0:
508,310,95994,2,0,B|498:332|473:349|473:349|390:334,1,124.199996209717,2|0,0:2|0:2,0:0:0:0:
329,377,96444,2,0,L|317:306,1,62.0999981048585,8|0,0:2|0:0,0:0:0:0:
259,261,96744,2,0,L|204:268,2,31.0499990524292,8|8|8,2:2|2:2|2:2,0:0:0:0:
319,206,97044,1,8,2:3:0:0:
319,206,97194,1,8,2:3:0:0:
261,126,97344,6,0,P|225:101|127:132,1,138,4|8,0:1|0:2,0:2:0:0:
89,187,97794,1,0,0:2:0:0:
135,254,97944,2,0,P|171:279|269:248,1,138,0|8,0:2|0:2,0:2:0:0:
319,206,98394,1,0,0:2:0:0:
270,133,98544,6,0,P|264:112|277:49,1,69,2|0,0:2|0:2,0:0:0:0:
345,97,98844,2,0,P|355:77|409:42,1,69,8|0,0:2|0:2,0:0:0:0:
423,124,99144,2,0,P|444:117|507:131,1,69,2|0,0:2|0:2,0:0:0:0:
459,198,99444,2,0,P|478:208|513:262,1,69,8|0,0:2|0:2,0:0:0:0:
422,287,99744,6,0,P|419:338|339:359,1,138,6|8,0:2|0:2,0:0:0:0:
276,316,100194,1,2,0:2:0:0:
276,316,100344,2,0,B|288:284|288:284|278:241,1,69,0|0,0:2|0:2,0:2:0:0:
241,176,100644,2,0,B|253:144|253:144|243:101,1,69,8|0,0:2|0:2,0:2:0:0:
165,39,100944,6,0,B|150:69|126:74|126:74|85:52|24:63,1,138,6|0,0:1|0:2,0:0:0:0:
58,156,101394,2,0,P|21:177|8:282,1,138,14|0,0:1|0:2,0:0:0:0:
49,344,101844,2,0,L|132:328,1,69,14|0,0:1|0:2,0:0:0:0:
201,384,102144,6,0,B|208:335|208:335|200:313|200:313|210:229,1,138,6|8,0:2|0:2,0:2:0:0:
144,182,102594,2,0,P|111:193|77:191,1,69,2|0,0:2|0:2,0:0:0:0:
124,97,102894,1,2,0:2:0:0:
124,97,103044,2,0,P|147:88|198:91,1,69,8|0,0:2|0:2,0:0:0:0:
290,125,103344,6,0,B|332:145|332:145|367:120|418:117,1,138,6|8,0:2|0:2,0:0:0:0:
441,205,103794,2,0,P|480:224|493:324,1,138,2|2,0:2|0:2,0:0:0:0:
444,382,104244,1,8,0:2:0:0:
444,382,104394,1,0,0:2:0:0:
370,307,104544,6,0,B|359:270|359:270|359:260|359:260|333:168,1,138,2|10,0:1|0:1,0:0:0:0:
296,92,104994,1,0,0:2:0:0:
227,149,105144,2,0,P|190:154|154:129,1,69,2|0,0:1|0:2,0:0:0:0:
98,84,105444,1,10,0:1:0:0:
98,84,105594,1,0,0:2:0:0:
26,162,105744,6,0,P|18:196|21:230,1,69,10|8,0:1|0:2,0:0:0:0:
115,274,106044,2,0,P|124:241|121:207,1,69,10|10,0:1|0:1,0:0:0:0:
30,319,106344,1,10,0:1:0:0:
102,372,106494,1,14,0:1:0:0:
102,372,106944,6,0,L|259:351,1,151.800004632568,14|8,0:1|0:2,0:1:0:0:
357,377,107394,1,2,0:1:0:0:
357,377,107469,1,0,0:2:0:0:
357,377,107544,2,0,P|357:331|338:294,1,75.9000023162842,0|0,0:2|0:2,0:1:0:0:
257,259,107844,2,0,P|243:223|245:186,1,75.9000023162842,10|0,0:1|0:2,0:0:0:0:
318,118,108144,2,2,L|475:139,2,151.800004632568,2|10|2,0:1|0:1|0:1,0:1:0:0:
177,4,109044,5,10,0:2:0:0:
126,70,109194,1,0,0:2:0:0:
178,135,109344,2,0,P|201:179|178:302,1,151.800004632568,2|8,0:1|0:2,0:0:0:0:
143,357,109794,1,2,0:1:0:0:
143,357,109869,1,0,0:2:0:0:
143,357,109944,2,0,L|59:347,1,75.9000023162842,0|0,0:2|0:2,0:2:0:0:
0,283,110244,2,0,L|11:199,1,75.9000023162842,10|0,0:1|0:2,0:2:0:0:
38,112,110544,2,0,B|71:141|71:141|196:113,1,151.800004632568,2|10,0:1|0:1,0:0:0:0:
407,18,111144,2,0,B|374:47|374:47|268:23,1,151.800004632568,2|10,0:1|0:1,0:0:0:0:
96,155,111744,6,0,P|89:193|99:229,1,75.9000023162842,6|0,0:1|0:2,0:0:0:0:
146,308,112044,1,8,0:2:0:0:
216,365,112194,2,0,P|284:375|368:327,1,151.800004632568,2|2,0:2|0:2,0:0:0:0:
380,254,112644,1,8,0:2:0:0:
380,254,112794,1,0,0:2:0:0:
434,181,112944,2,2,B|462:200|462:200|516:158|486:93,1,151.800004632568,2|10,0:1|0:1,0:1:0:0:
429,23,113394,1,0,0:2:0:0:
346,60,113544,2,2,P|308:74|257:67,1,75.9000023162842,2|0,0:1|0:2,0:1:0:0:
216,144,113844,2,2,P|178:145|143:131,1,75.9000023162842,10|0,0:1|0:2,0:1:0:0:
98,35,114144,6,2,B|37:17|37:17|-2:140,1,179.39999178772,6|0,0:1|0:1,0:1:0:0:
48,225,114594,2,2,P|99:201|230:211,1,179.39999178772,6|0,0:1|0:2,0:1:0:0:
190,310,115044,2,2,P|278:321|361:291,1,179.39999178772,6|0,0:1|0:2,0:1:0:0:
416,199,115494,2,2,B|450:88|450:88|511:106,1,179.39999178772,6|8,0:1|0:2,0:1:0:0:
511,106,116094,6,0,P|468:127|384:97,1,138,10|10,0:1|0:1,0:0:0:0:
322,14,116544,6,0,B|300:27|287:49|287:49|286:85|317:163,1,151.800004632568,14|8,0:1|0:2,0:1:0:0:
372,224,116994,1,2,0:1:0:0:
372,224,117069,1,0,0:2:0:0:
372,224,117144,2,0,P|413:211|457:212,1,75.9000023162842,0|0,0:2|0:2,0:2:0:0:
359,313,117444,2,0,P|321:311|285:299,1,75.9000023162842,10|0,0:1|0:2,0:0:0:0:
202,218,117744,2,2,P|193:152|157:53,2,151.800004632568,2|8|0,0:1|0:2|0:1,0:1:0:0:
80,376,118644,5,10,0:2:0:0:
13,325,118794,1,0,0:2:0:0:
2,242,118944,2,2,P|11:176|47:77,1,151.800004632568,2|8,0:1|0:2,0:1:0:0:
99,27,119394,1,2,0:1:0:0:
99,27,119469,1,0,0:2:0:0:
99,27,119544,2,0,P|138:43|178:42,1,75.9000023162842,0|0,0:2|0:2,0:2:0:0:
233,110,119844,2,0,P|270:108|305:93,1,75.9000023162842,10|0,0:1|0:2,0:2:0:0:
385,34,120144,2,0,P|437:16|515:76,1,151.800004632568,2|10,0:1|0:1,0:0:0:0:
469,289,120744,2,0,P|417:307|339:247,1,151.800004632568,2|10,0:1|0:1,0:0:0:0:
201,96,121344,6,0,L|285:84,1,75.9000023162842,6|0,0:1|0:2,0:0:0:0:
365,69,121644,1,8,0:2:0:0:
444,114,121794,2,0,P|467:165|455:280,1,151.800004632568,2|2,0:2|0:2,0:0:0:0:
404,328,122244,1,8,0:2:0:0:
404,328,122394,1,0,0:2:0:0:
317,355,122544,2,0,B|277:349|277:349|229:367|229:367|151:355,1,151.800004632568,2|10,0:1|0:1,0:0:0:0:
80,377,122994,1,0,0:2:0:0:
19,308,123144,2,0,L|35:219,1,75.9000023162842,2|0,0:1|0:2,0:0:0:0:
131,241,123444,2,0,L|115:152,1,75.9000023162842,10|0,0:1|0:2,0:0:0:0:
17,119,123744,6,2,P|64:136|175:70,1,179.39999178772,6|0,0:1|0:2,0:1:0:0:
256,145,124194,2,2,P|324:90|409:104,1,179.39999178772,6|0,0:1|0:2,0:1:0:0:
484,182,124644,2,2,P|497:268|441:335,1,179.39999178772,6|0,0:1|0:2,0:1:0:0:
335,353,125094,2,2,P|266:298|181:312,1,179.39999178772,6|8,0:1|0:2,0:1:0:0:
0,382,125694,5,2,3:1:0:0:
0,382,125769,1,0,3:3:0:0:
0,382,125844,2,0,L|14:292,1,69,0|0,3:3|3:3,0:0:0:0:
37,211,126144,6,0,B|60:256|114:259|114:259|167:222,1,138,6|8,0:1|0:2,0:2:0:0:
202,162,126594,2,0,P|173:107|209:32,1,138,2|0,0:1|0:2,0:2:0:0:
283,3,127044,1,10,0:1:0:0:
283,3,127194,1,0,0:2:0:0:
348,64,127344,2,0,P|357:125|299:184,1,138,2|8,0:1|0:2,0:2:0:0:
243,238,127794,2,0,P|234:304|279:354,1,138,2|0,0:1|0:2,0:2:0:0:
370,379,128244,1,10,0:1:0:0:
370,379,128394,1,0,0:2:0:0:
448,324,128544,6,0,P|473:261|442:202,1,138,2|8,0:2|0:2,0:0:0:0:
369,150,128994,1,2,0:2:0:0:
369,150,129069,1,0,0:2:0:0:
369,150,129144,2,0,B|338:174|338:174|291:180|233:139,1,138,0|8,0:2|0:2,0:0:0:0:
176,88,129594,1,0,0:2:0:0:
158,175,129744,2,0,B|148:222|148:222|158:251|158:251|145:318,1,138,2|8,0:1|0:1,0:1:0:0:
67,359,130194,2,0,B|57:312|57:312|67:283|67:283|55:224,1,138,2|0,0:1|0:2,0:2:0:0:
7,149,130644,2,0,L|25:76,1,69,10|0,0:1|0:2,0:2:0:0:
107,25,130944,6,0,B|132:61|132:61|181:76|229:30,1,138,6|8,0:1|0:2,0:0:0:0:
290,93,131394,2,0,P|333:72|379:66,1,69,2|0,0:1|0:2,0:0:0:0:
442,81,131694,2,0,P|484:123|502:222,1,138,2|8,0:1|0:2,0:0:0:0:
451,269,132144,2,0,B|398:257|398:257|381:265|381:265|312:249,1,138,2|8,0:1|0:2,0:0:0:0:
264,322,132594,2,0,L|182:333,1,69,2|0,0:1|0:2,0:0:0:0:
119,266,132894,5,6,0:1:0:0:
152,182,133044,1,6,0:1:0:0:
19,72,133344,6,0,P|-4:117|7:214,1,138,6|8,0:1|0:2,0:0:0:0:
51,279,133794,2,0,L|121:265,1,69,2|0,0:1|0:2,0:0:0:0:
192,316,134094,2,0,P|218:349|311:342,1,138,2|8,0:1|0:2,0:0:0:0:
369,281,134544,2,0,B|359:241|359:241|360:225|360:225|336:125,1,138,2|8,0:1|0:2,0:0:0:0:
260,105,134994,2,0,P|237:115|185:111,1,69,2|0,0:1|0:2,0:0:0:0:
114,54,135294,5,6,0:1:0:0:
91,140,135444,1,6,0:1:0:0:
85,263,138144,6,0,P|50:264|17:251,1,69,6|0,0:1|0:2,0:2:0:0:
71,179,138444,2,0,P|45:155|31:122,1,69,10|0,0:2|0:2,0:2:0:0:
120,109,138744,2,0,P|118:74|132:41,1,69,2|0,0:2|0:2,0:2:0:0:
204,94,139044,2,0,P|227:68|260:54,1,69,10|0,0:2|0:2,0:2:0:0:
324,124,139344,2,0,P|360:163|358:260,1,138,2|8,0:1|0:2,0:0:0:0:
314,320,139794,1,2,0:2:0:0:
314,320,139869,1,0,0:2:0:0:
314,320,139944,2,0,B|262:314|262:314|249:317|249:317|154:305,1,138,0|2,0:2|0:2,0:0:0:0:
6,377,140544,6,2,L|15:288,1,69,2|0,0:2|0:2,0:1:0:0:
95,272,140844,2,2,L|86:183,1,69,10|0,0:2|0:2,0:1:0:0:
16,149,141144,2,2,L|25:60,1,69,2|0,0:2|0:2,0:1:0:0:
94,25,141444,1,10,0:2:0:0:
94,25,141594,1,0,0:2:0:0:
165,79,141744,2,0,P|232:91|297:41,1,138,2|8,0:1|0:2,0:0:0:0:
363,4,142194,1,0,0:2:0:0:
443,42,142344,2,0,P|464:79|455:182,1,138,2|8,0:1|0:2,0:0:0:0:
333,303,142944,6,2,L|186:295,2,138,4|8|0,0:1|0:2|0:2,0:1:0:0:
405,355,143694,1,0,0:2:0:0:
482,309,143844,2,0,P|489:279|478:221,1,69,10|0,3:1|3:2,0:0:0:0:
428,171,144144,2,0,P|382:186|307:139,1,138,2|8,0:1|0:2,0:0:0:0:
253,72,144594,1,0,0:2:0:0:
222,156,144744,2,0,B|200:194|214:244|214:244|193:293,1,138,2|8,0:1|0:2,0:0:0:0:
16,376,145344,6,2,L|7:209,1,165.599994946289,6|0,0:1|0:2,0:1:0:0:
96,295,145794,2,2,L|87:128,1,165.599994946289,6|0,0:1|0:2,0:1:0:0:
179,242,146244,6,2,L|187:76,1,165.599994946289,6|0,0:1|0:2,0:1:0:0:
265,201,146694,2,2,L|273:35,1,165.599994946289,6|0,0:1|0:2,0:1:0:0:
372,130,147144,6,0,P|413:138|453:130,1,82.7999974731446,2|0,0:1|0:2,0:0:0:0:
451,34,147444,2,0,P|410:26|370:34,1,82.7999974731446,2|0,0:1|0:2,0:0:0:0:
273,90,147744,6,0,B|235:119|235:119|125:98,1,151.800004632568,6|10,0:1|0:1,0:0:0:0:
64,39,148194,1,0,0:2:0:0:
9,111,148344,2,0,L|16:192,1,75.9000023162842,2|0,0:1|0:2,0:0:0:0:
81,248,148644,2,0,L|166:236,1,75.9000023162842,10|0,0:1|0:2,0:0:0:0:
247,193,148944,6,2,B|216:167|216:167|264:37,1,151.800004632568,2|8,0:1|0:2,0:1:0:0:
338,27,149394,1,2,0:1:0:0:
338,27,149469,1,0,0:2:0:0:
338,27,149544,2,0,P|377:45|422:40,1,75.9000023162842,0|0,0:2|0:2,0:2:0:0:
496,8,149844,1,10,0:1:0:0:
496,8,149994,1,0,0:2:0:0:
512,103,150144,6,2,L|494:288,2,151.800004632568,2|8|0,0:1|0:2|0:2,0:1:0:0:
338,27,151044,1,10,0:1:0:0:
278,95,151194,1,0,0:2:0:0:
192,63,151344,2,0,P|131:42|39:93,1,151.800004632568,2|8,0:1|0:2,0:0:0:0:
81,161,151794,2,2,P|41:208|36:298,1,151.800004632568,2|0,0:1|0:2,0:1:0:0:
93,365,152244,1,8,0:2:0:0:
272,301,152544,6,2,B|301:334|301:334|425:314,1,151.800004632568,6|8,0:1|0:2,0:1:0:0:
494,362,152994,2,2,P|511:311|481:213,1,151.800004632568,2|0,0:1|0:2,0:1:0:0:
423,159,153444,1,10,0:1:0:0:
423,159,153594,1,0,0:2:0:0:
371,234,153744,2,2,B|342:267|342:267|218:247,1,151.800004632568,2|8,0:1|0:2,0:1:0:0:
171,188,154194,1,2,0:1:0:0:
171,188,154269,1,0,0:2:0:0:
171,188,154344,2,0,P|179:100|115:67,1,151.800004632568,0|10,0:2|0:1,0:2:0:0:
11,212,154944,6,0,L|-2:381,2,151.800004632568,6|8|0,0:1|0:2|0:2,0:0:0:0:
75,147,155694,1,2,0:1:0:0:
131,218,155844,2,0,P|162:233|213:221,1,75.9000023162842,8|0,0:2|0:2,0:0:0:0:
267,136,156144,6,0,B|250:102|250:102|258:48,1,82.7999974731446,10|8,0:1|0:2,0:0:0:0:
365,40,156444,2,0,B|382:74|382:74|374:128,1,82.7999974731446,10|8,0:1|0:2,0:0:0:0:
332,207,156744,1,10,0:1:0:0:
414,262,156894,1,8,0:2:0:0:
146,346,157344,5,6,1:2:0:0:
426,299,159744,5,6,1:2:0:0:
75,145,162144,5,6,1:2:0:0:
128,32,164544,5,6,1:2:0:0:
256,96,164994,5,6,1:2:0:0:
384,32,165444,5,6,1:2:0:0:
512,192,165894,6,0,B|475:182|475:182|457:189|457:189|393:176,1,103.500003948212,4|8,1:2|0:2,0:2:0:0:
354,130,166344,2,2,L|347:54,2,69.0000026321412,8|4|8,0:3|0:3|0:2,0:1:0:0:
333,256,166944,5,6,1:2:0:0:
166,173,167394,5,6,1:2:0:0:
89,342,167844,5,6,1:2:0:0:
247,377,169344,6,0,B|255:326|255:326|237:297|237:297|254:211,1,160.080004885254,14|8,0:1|0:2,0:1:0:0:
337,288,169794,1,2,0:1:0:0:
337,288,169869,1,0,0:2:0:0:
337,288,169944,2,0,P|391:289|419:272,1,80.040002442627,0|0,0:2|0:2,0:0:0:0:
475,204,170244,2,0,P|490:167|488:128,1,80.040002442627,10|0,0:1|0:2,0:0:0:0:
430,51,170544,2,2,L|256:32,2,160.080004885254,2|8|2,0:1|0:0|0:2,0:1:0:0:
512,239,171444,5,10,0:2:0:0:
430,205,171594,1,0,0:2:0:0:
372,271,171744,2,0,P|334:316|239:281,1,160.080004885254,2|8,0:1|0:2,0:0:0:0:
175,239,172194,1,2,0:1:0:0:
175,239,172269,1,0,0:2:0:0:
175,239,172344,2,0,L|187:151,1,80.040002442627,0|0,0:2|0:2,0:2:0:0:
281,174,172644,2,0,L|269:86,1,80.040002442627,10|0,0:1|0:2,0:2:0:0:
207,21,172944,2,0,B|190:46|155:53|155:53|61:25,1,160.080004885254,2|10,0:1|0:1,0:0:0:0:
0,254,173544,2,0,B|17:279|52:286|52:286|145:258,1,160.080004885254,2|10,0:1|0:1,0:0:0:0:
311,119,174144,6,0,P|315:77|335:45,1,80.040002442627,6|0,0:1|0:2,0:0:0:0:
428,21,174444,1,8,0:2:0:0:
497,87,174594,2,0,P|504:151|459:251,1,160.080004885254,2|2,0:2|0:2,0:0:0:0:
406,311,175044,1,8,0:2:0:0:
406,311,175194,1,0,0:2:0:0:
329,252,175344,2,0,B|286:228|286:228|223:223|197:300,1,160.080004885254,2|10,0:1|0:1,0:0:0:0:
168,377,175794,1,0,0:2:0:0:
84,328,175944,2,0,P|76:294|81:240,1,80.040002442627,2|0,0:1|0:2,0:0:0:0:
122,163,176244,2,0,P|167:158|210:128,1,80.040002442627,10|0,0:1|0:2,0:0:0:0:
273,60,176544,6,2,B|307:26|307:26|449:47,1,187.680001145508,6|0,0:1|0:1,0:1:0:0:
451,150,176994,2,2,P|486:202|448:334,1,187.680001145508,6|0,0:1|0:2,0:1:0:0:
367,357,177444,2,2,B|333:323|333:323|191:344,1,187.680001145508,6|0,0:1|0:2,0:1:0:0:
97,379,177894,2,2,P|68:292|109:210,1,187.680001145508,6|8,0:1|0:2,0:1:0:0:
109,210,178494,6,0,B|137:228|147:269|147:269|184:276|210:243,1,138,10|10,0:1|0:1,0:0:0:0:
279,173,178944,6,0,P|292:86|240:17,1,160.080004885254,14|8,0:1|0:2,0:1:0:0:
170,8,179394,1,2,0:1:0:0:
170,8,179469,1,0,0:2:0:0:
170,8,179544,2,0,L|158:92,1,80.040002442627,0|0,0:2|0:2,0:2:0:0:
89,151,179844,2,0,L|-3:166,1,80.040002442627,10|0,0:1|0:2,0:0:0:0:
143,227,180144,2,2,P|156:261|288:259,2,160.080004885254,2|8|0,0:1|0:2|0:1,0:1:0:0:
184,33,181044,5,10,0:2:0:0:
255,84,181194,1,0,0:2:0:0:
333,43,181344,2,2,P|408:27|467:77,1,160.080004885254,2|8,0:1|0:2,0:1:0:0:
503,166,181794,1,2,0:1:0:0:
503,166,181869,1,0,0:2:0:0:
503,166,181944,2,0,L|494:252,1,80.040002442627,0|0,0:2|0:2,0:2:0:0:
402,276,182244,2,0,L|393:196,1,80.040002442627,10|0,0:1|0:2,0:2:0:0:
320,131,182544,2,0,B|257:142|222:91|222:91|161:81,1,160.080004885254,2|10,0:1|0:1,0:0:0:0:
0,247,183144,2,0,B|62:258|97:207|97:207|158:197,1,160.080004885254,2|10,0:1|0:1,0:0:0:0:
302,372,183744,6,0,P|338:382|391:361,1,80.040002442627,6|0,0:1|0:2,0:0:0:0:
455,313,184044,1,8,0:2:0:0:
493,225,184194,2,0,P|497:151|444:59,1,160.080004885254,2|2,0:2|0:2,0:0:0:0:
386,22,184644,1,8,0:2:0:0:
386,22,184794,1,0,0:2:0:0:
322,93,184944,2,0,B|287:126|287:126|160:103,1,160.080004885254,2|10,0:1|0:1,0:0:0:0:
90,65,185394,1,0,0:2:0:0:
15,113,185544,2,0,P|6:145|9:203,1,80.040002442627,2|0,0:1|0:2,0:0:0:0:
49,269,185844,2,0,L|155:254,1,80.040002442627,10|0,0:1|0:2,0:0:0:0:
229,190,186144,6,2,B|196:155|196:155|199:62|251:7,1,187.680001145508,6|0,0:1|0:2,0:1:0:0:
345,19,186594,2,2,B|382:57|385:150|385:150|352:185,1,187.680001145508,6|0,0:1|0:2,0:1:0:0:
270,253,187044,2,2,P|200:193|108:196,1,187.680001145508,6|0,0:1|0:2,0:1:0:0:
68,297,187494,2,2,P|137:356|229:353,1,187.680001145508,6|8,0:1|0:2,0:1:0:0:
372,222,188094,5,2,3:1:0:0:
372,222,188169,1,0,3:3:0:0:
372,222,188244,2,0,L|386:132,1,69,0|0,3:3|3:3,0:0:0:0:
340,65,188544,6,0,B|328:96|300:105|300:105|202:74,1,138,6|8,0:1|0:2,0:2:0:0:
167,150,188994,2,0,B|155:119|127:110|127:110|29:141,1,138,2|0,0:1|0:2,0:2:0:0:
5,212,189444,1,10,0:1:0:0:
5,212,189594,1,0,0:2:0:0:
50,289,189744,2,0,P|122:318|189:278,1,138,2|8,0:1|0:2,0:2:0:0:
240,234,190194,2,0,P|228:165|273:87,1,138,2|0,0:1|0:2,0:2:0:0:
332,58,190644,1,10,0:1:0:0:
332,58,190794,1,0,0:2:0:0:
406,132,190944,6,0,P|418:201|373:279,1,138,2|8,0:2|0:2,0:0:0:0:
320,331,191394,1,2,0:2:0:0:
320,331,191469,1,0,0:2:0:0:
320,331,191544,2,0,B|268:324|268:324|240:335|240:335|182:325,1,138,0|8,0:2|0:2,0:0:0:0:
110,375,191994,1,0,0:2:0:0:
39,319,192144,2,0,P|27:250|72:172,1,138,2|8,0:1|0:1,0:1:0:0:
128,139,192594,2,0,B|161:167|161:167|256:146,1,138,2|0,0:1|0:2,0:2:0:0:
323,89,193044,2,0,P|322:55|343:18,1,69,10|0,0:1|0:2,0:0:0:0:
431,64,193344,6,0,P|472:80|492:177,1,138,6|8,0:1|0:2,0:2:0:0:
450,240,193794,2,0,L|309:218,1,138,2|0,0:1|0:2,0:2:0:0:
236,261,194244,1,10,0:2:0:0:
236,261,194394,1,0,0:2:0:0:
185,187,194544,2,0,P|182:121|117:94,1,138,2|8,0:1|0:2,0:0:0:0:
47,145,194994,2,0,L|57:240,1,69,2|0,0:1|0:2,0:0:0:0:
71,328,195294,5,6,0:1:0:0:
146,279,195444,1,6,0:1:0:0:
309,370,195744,6,0,B|339:385|339:385|464:365,1,138,6|8,0:1|0:2,0:0:0:0:
493,294,196194,2,0,P|502:261|494:221,1,69,2|0,0:1|0:2,0:0:0:0:
431,165,196494,2,0,B|401:180|401:180|276:160,1,138,2|8,0:1|0:2,0:0:0:0:
262,245,196944,2,0,B|232:230|232:230|107:250,1,138,2|8,0:1|0:2,0:0:0:0:
46,210,197394,2,0,P|45:163|54:141,1,69,2|0,0:1|0:2,0:0:0:0:
118,62,197694,5,6,0:1:0:0:
177,133,197844,1,6,0:1:0:0:
334,34,198144,6,0,P|401:21|468:57,1,138,4|8,0:1|0:2,0:2:0:0:
512,135,198594,1,2,0:2:0:0:
512,135,198669,1,0,0:2:0:0:
512,135,198744,2,0,L|500:220,1,69,0|0,0:2|0:2,0:2:0:0:
436,263,199044,2,0,P|405:247|368:247,1,69,10|0,0:2|0:2,0:2:0:0:
307,309,199344,2,0,B|274:341|274:341|174:323,1,138,2|8,0:2|0:2,0:0:0:0:
105,370,199794,1,2,0:2:0:0:
105,370,199869,1,0,0:2:0:0:
105,370,199944,2,0,L|92:227,1,138,0|8,0:2|0:2,0:2:0:0:
0,66,200544,6,0,B|37:88|37:88|139:58,1,138,2|8,0:2|0:2,0:2:0:0:
222,88,200994,1,2,0:2:0:0:
222,88,201069,1,0,0:2:0:0:
222,88,201144,2,0,P|226:45|215:18,1,69,0|0,0:2|0:2,0:0:0:0:
128,61,201444,2,0,P|123:103|134:130,1,69,10|0,0:2|0:2,0:0:0:0:
203,182,201744,2,0,P|278:164|351:164,1,138,2|8,0:2|0:2,0:0:0:0:
321,251,202194,2,0,P|389:248|456:231,1,138,2|0,0:2|0:2,0:0:0:0:
512,147,202644,5,10,0:2:0:0:
512,147,202794,1,0,0:2:0:0:
422,104,202944,6,0,B|389:137|389:137|271:116,1,138,6|8,0:2|0:2,0:2:0:0:
218,146,203394,1,2,0:2:0:0:
218,146,203469,1,0,0:2:0:0:
218,146,203544,2,0,P|217:91|208:73,1,69,0|0,0:2|0:2,0:2:0:0:
140,23,203844,2,0,L|62:31,1,69,10|0,0:2|0:2,0:2:0:0:
11,97,204144,2,0,P|0:149|33:241,1,138,2|8,0:2|0:2,0:0:0:0:
105,287,204594,1,2,0:2:0:0:
105,287,204669,1,0,0:2:0:0:
105,287,204744,2,0,P|151:261|240:269,1,138,0|8,0:2|0:2,0:0:0:0:
367,384,205344,6,0,B|383:350|383:345|355:301|355:295|371:244,1,138,2|8,0:2|0:2,0:2:0:0:
439,193,205794,1,2,0:2:0:0:
439,193,205869,1,0,0:2:0:0:
439,193,205944,2,0,P|473:201|512:194,1,69,0|0,0:2|0:2,0:2:0:0:
447,105,206244,2,0,P|416:88|376:85,1,69,10|0,0:2|0:2,0:2:0:0:
289,145,206544,6,0,L|300:224,1,69,2|0,0:2|0:2,0:0:0:0:
221,286,206844,2,0,L|147:256,1,69,8|0,0:1|0:2,0:0:0:0:
132,156,207144,2,0,L|194:106,1,69,2|0,0:2|0:2,0:0:0:0:
268,52,207444,1,8,0:2:0:0:
268,52,207594,1,8,0:2:0:0:
170,8,207744,5,14,2:2:0:0:
