osu file format v14

[General]
AudioFilename: audio.mp3
AudioLeadIn: 0
PreviewTime: 47656
Countdown: 0
SampleSet: Soft
StackLeniency: 0.7
Mode: 0
LetterboxInBreaks: 0
WidescreenStoryboard: 0

[Editor]
Bookmarks: 3744,13344,22944,28944,38544,48144,57744,67344,78144,87744,97344,106944,116544,126144,135744,138144,147744,157344,164544,169344,178944,188544,198144,207744,213744
DistanceSpacing: 1.4
BeatDivisor: 4
GridSize: 32
TimelineZoom: 2.3

[Metadata]
Title:Dea x Crisis
TitleUnicode:Dea×Crisis
Artist:Yousei Teikoku
ArtistUnicode:妖精帝國
Creator:Lasse
Version:Despair
Source:超ヒロイン戦記
Tags:deaxcrisis japanese symphonic rock metal Hades The Other World 伊月ゆい Itsuki Yui yōsei Super Heroine Chronicle video game
BeatmapID:2773398
BeatmapSetID:1338846

[Difficulty]
HPDrainRate:6.4
CircleSize:4.2
OverallDifficulty:9
ApproachRate:9.3
SliderMultiplier:1.92
SliderTickRate:1

[Events]
//Background and Video events
0,0,"v.jpg",0,0
//Break Periods
//Storyboard Layer 0 (Background)
//Storyboard Layer 1 (Fail)
//Storyboard Layer 2 (Pass)
//Storyboard Layer 3 (Foreground)
//Storyboard Layer 4 (Overlay)
//Storyboard Sound Samples

[TimingPoints]
3744,300,4,2,1,50,1,0
3744,-133.333333333333,4,2,1,50,0,0
12744,-133.333333333333,4,2,1,55,0,0
13044,-133.333333333333,4,2,1,60,0,0
13344,-100,4,1,1,65,0,0
15744,-100,4,1,2,65,0,0
15819,-100,4,1,1,65,0,0
16344,-100,4,1,2,65,0,0
16419,-100,4,1,1,65,0,0
16944,-83.3333333333333,4,1,1,65,0,0
17244,-83.3333333333333,4,1,2,65,0,0
18144,-100,4,1,1,65,0,0
20544,-100,4,1,2,65,0,0
20619,-100,4,1,1,65,0,0
21144,-100,4,1,2,65,0,0
21219,-100,4,1,1,65,0,0
21744,-83.3333333333333,4,1,1,65,0,0
22044,-83.3333333333333,4,1,2,65,0,0
22644,-83.3333333333333,4,1,1,65,0,0
22944,-83.3333333333333,4,1,1,70,0,0
27744,-133.333333333333,4,2,1,50,0,0
28494,-133.333333333333,4,2,1,40,0,0
28644,-133.333333333333,4,2,1,60,0,0
28944,-116.279069767442,4,1,1,60,0,0
33294,-133.333333333333,4,1,1,60,0,0
33744,-116.279069767442,4,1,1,60,0,0
38544,-111.111111111111,4,1,1,60,0,0
42144,-111.111111111111,4,1,2,60,0,0
42294,-111.111111111111,4,1,1,60,0,0
42594,-111.111111111111,4,1,2,60,0,0
42744,-111.111111111111,4,1,1,60,0,0
43044,-111.111111111111,4,1,2,60,0,0
43194,-111.111111111111,4,1,1,60,0,0
45744,-100,4,1,1,65,0,0
46944,-100,4,1,1,70,0,0
47694,-100,4,1,2,70,0,0
48144,-90.9090909090909,4,1,3,70,0,1
48219,-90.9090909090909,4,1,1,70,0,1
52944,-90.9090909090909,4,1,2,70,0,1
53019,-90.9090909090909,4,1,1,70,0,1
55344,-76.9230769230769,4,1,1,70,0,1
55794,-76.9230769230769,4,1,2,70,0,1
56244,-66.6666666666667,4,1,1,70,0,1
56694,-66.6666666666667,4,1,2,70,0,1
56994,-66.6666666666667,4,1,1,70,0,1
57144,-111.111111111111,4,1,1,70,0,1
57744,-90.9090909090908,4,1,3,70,0,1
57819,-90.9090909090908,4,1,1,70,0,1
62544,-90.9090909090908,4,1,2,70,0,1
62619,-90.9090909090908,4,1,1,70,0,1
64944,-76.9230769230769,4,1,1,70,0,1
65394,-76.9230769230769,4,1,2,70,0,1
65844,-66.6666666666667,4,1,1,70,0,1
66294,-66.6666666666667,4,1,2,70,0,1
66594,-66.6666666666667,4,1,1,70,0,1
67344,-100,4,1,1,65,0,0
72144,-100,4,1,2,65,0,0
72219,-100,4,1,1,65,0,0
74094,-100,4,1,2,65,0,0
74319,-100,4,1,1,65,0,0
76494,-100,4,1,2,65,0,0
76719,-100,4,1,1,65,0,0
76944,-100,4,1,2,55,0,0
78144,-100,4,1,1,65,0,0
80544,-100,4,1,2,65,0,0
80619,-100,4,1,1,65,0,0
81144,-100,4,1,2,65,0,0
81219,-100,4,1,1,65,0,0
82044,-83.3333333333333,4,1,2,65,0,0
82944,-100,4,1,1,65,0,0
85344,-100,4,1,2,65,0,0
85419,-100,4,1,1,65,0,0
85944,-100,4,1,2,65,0,0
86019,-100,4,1,1,65,0,0
86544,-100,4,1,1,65,0,0
86844,-90.9090909090909,4,1,2,65,0,0
86994,-90.9090909090909,4,1,1,65,0,0
87144,-83.3333333333333,4,1,1,65,0,0
87444,-76.9230769230769,4,1,1,65,0,0
87744,-116.279069767442,4,1,1,60,0,0
91944,-133.333333333333,4,1,1,60,0,0
92544,-116.279069767442,4,1,1,60,0,0
97344,-111.111111111111,4,1,1,60,0,0
100944,-111.111111111111,4,1,2,60,0,0
101094,-111.111111111111,4,1,1,60,0,0
101394,-111.111111111111,4,1,2,60,0,0
101544,-111.111111111111,4,1,1,60,0,0
101844,-111.111111111111,4,1,2,60,0,0
101994,-111.111111111111,4,1,1,60,0,0
104544,-111.111111111111,4,1,1,65,0,0
105744,-111.111111111111,4,1,1,70,0,0
106494,-111.111111111111,4,1,2,70,0,0
106944,-90.9090909090909,4,1,3,70,0,1
107019,-90.9090909090909,4,1,1,70,0,1
111744,-90.9090909090909,4,1,2,70,0,1
111819,-90.9090909090909,4,1,1,70,0,1
114144,-76.9230769230769,4,1,1,70,0,1
114594,-76.9230769230769,4,1,2,70,0,1
115044,-66.6666666666667,4,1,1,70,0,1
115494,-66.6666666666667,4,1,2,70,0,1
115794,-66.6666666666667,4,1,1,70,0,1
116544,-90.9090909090909,4,1,3,70,0,1
116619,-90.9090909090909,4,1,1,70,0,1
121344,-90.9090909090909,4,1,2,70,0,1
121419,-90.9090909090909,4,1,1,70,0,1
123744,-76.9230769230769,4,1,1,70,0,1
124194,-76.9230769230769,4,1,2,70,0,1
124644,-66.6666666666667,4,1,1,70,0,1
125094,-66.6666666666667,4,1,2,70,0,1
125394,-66.6666666666667,4,1,1,70,0,1
126144,-100,4,1,1,65,0,0
130944,-100,4,1,2,65,0,0
131019,-100,4,1,1,65,0,0
132894,-100,4,1,2,65,0,0
133119,-100,4,1,1,65,0,0
135294,-100,4,1,2,65,0,0
135519,-100,4,1,1,65,0,0
138144,-100,4,1,1,65,0,0
145344,-71.4285714285714,4,1,1,65,0,0
145794,-71.4285714285714,4,1,2,65,0,0
146244,-66.6666666666667,4,1,1,65,0,0
146694,-66.6666666666667,4,1,2,65,0,0
147144,-66.6666666666667,4,1,1,65,0,0
147744,-66.6666666666667,4,1,1,70,0,0
148944,-90.9090909090909,4,1,1,70,0,0
152544,-83.3333333333333,4,1,2,70,0,0
152619,-83.3333333333333,4,1,1,70,0,0
153744,-76.9230769230769,4,1,1,70,0,0
154944,-76.9230769230769,4,1,2,70,0,0
155019,-76.9230769230769,4,1,1,70,0,0
157344,-200,4,2,1,50,0,0
157644,-200,4,2,1,40,0,0
159744,-200,4,2,1,50,0,0
160044,-200,4,2,1,40,0,0
162144,-200,4,2,1,50,0,0
162444,-200,4,2,1,40,0,0
164544,-200,4,2,1,50,0,0
165894,-133.333333333333,4,2,1,50,0,0
166344,-142.857142857143,4,2,1,52,0,0
166444,-142.857142857143,4,2,1,30,0,0
166544,-125,4,2,1,54,0,0
166644,-125,4,2,1,30,0,0
166744,-111.111111111111,4,2,1,56,0,0
166844,-111.111111111111,4,2,1,30,0,0
166944,-111.111111111111,4,2,1,58,0,0
169344,-83.3333333333333,4,1,3,75,0,1
169419,-83.3333333333333,4,1,1,75,0,1
174144,-83.3333333333333,4,1,2,75,0,1
174219,-83.3333333333333,4,1,1,75,0,1
176544,-71.4285714285714,4,1,1,75,0,1
176994,-71.4285714285714,4,1,2,75,0,1
177444,-62.5,4,1,1,75,0,1
177894,-62.5,4,1,2,75,0,1
178194,-62.5,4,1,1,75,0,1
178944,-83.3333333333333,4,1,3,75,0,1
179019,-83.3333333333333,4,1,1,75,0,1
183744,-83.3333333333333,4,1,2,75,0,1
183819,-83.3333333333333,4,1,1,75,0,1
186144,-71.4285714285714,4,1,1,75,0,1
186594,-71.4285714285714,4,1,2,75,0,1
187044,-62.5,4,1,1,75,0,1
187494,-62.5,4,1,2,75,0,1
187794,-62.5,4,1,1,75,0,1
188544,-100,4,1,1,65,0,0
195294,-100,4,1,2,65,0,0
195519,-100,4,1,1,65,0,0
197694,-100,4,1,2,65,0,0
197919,-100,4,1,1,65,0,0
198144,-100,4,1,1,60,0,0
207744,-133.333333333333,4,1,99,55,0,0

[Colours]
Combo1 : 240,140,140
Combo2 : 200,180,220
Combo3 : 240,200,155
Combo4 : 150,185,220

[HitObjects]
39,221,3744,5,6,1:2:0:0:
39,221,3894,1,0,1:2:0:0:
100,329,4044,5,0,0:2:0:0:
169,348,4344,1,0,0:2:0:0:
231,312,4644,1,0,0:2:0:0:
249,242,4944,1,0,0:2:0:0:
311,205,5244,1,0,0:2:0:0:
381,222,5544,1,0,0:2:0:0:
418,283,5844,1,0,0:2:0:0:
497,190,6144,6,0,P|502:122|504:26,1,144.000005493164,6|0,1:2|0:2,0:2:0:0:
301,113,6744,2,0,P|296:181|294:277,2,144.000005493164,6|0|0,1:2|0:2|0:2,0:2:0:0:
167,34,7644,6,0,P|209:32|252:24,1,72.0000027465821,6|0,1:2|0:2,0:2:0:0:
166,189,7944,2,0,P|143:153|114:120,1,72.0000027465821,2|0,1:2|0:2,0:2:0:0:
301,113,8244,2,0,P|281:150|267:191,1,72.0000027465821,2|0,1:2|0:2,0:2:0:0:
215,113,8544,5,6,1:2:0:0:
215,113,8694,1,0,1:2:0:0:
276,207,8844,5,0,0:2:0:0:
345,226,9144,1,0,0:2:0:0:
395,175,9444,1,0,0:2:0:0:
464,192,9744,1,0,0:2:0:0:
483,260,10044,1,0,0:2:0:0:
433,312,10344,1,0,0:2:0:0:
362,294,10644,1,0,0:2:0:0:
348,169,10944,6,0,P|353:110|356:25,1,144.000005493164,6|0,1:2|0:2,0:2:0:0:
158,121,11544,2,0,P|152:192|150:264,1,144.000005493164,6|0,1:2|0:2,0:2:0:0:
256,384,12144,5,0,1:2:0:0:
256,384,12294,1,0,1:2:0:0:
150,264,12444,6,0,L|46:283,1,72.0000027465821,14|0,0:2|0:2,0:2:0:0:
212,176,12744,5,8,0:3:0:0:
212,176,12844,2,8,P|227:201|252:224,1,48.0000018310548,8|8,0:3|0:3,0:3:0:0:
105,179,13044,5,4,0:3:0:0:
105,179,13144,2,4,P|119:153|126:120,1,48.0000018310548,4|4,0:3|0:3,0:3:0:0:
57,39,13344,5,6,0:1:0:0:
0,251,13494,1,0,0:1:0:0:
124,136,13644,1,8,0:2:0:0:
212,176,13794,2,0,B|263:208|352:172|359:90,1,192,2|0,0:2|0:2,0:2:0:0:
418,221,14244,2,0,P|463:209|521:208,1,96,10|0,0:2|0:2,0:2:0:0:
260,92,14544,5,2,0:1:0:0:
439,19,14694,1,0,0:1:0:0:
418,221,14844,1,8,0:2:0:0:
311,192,14994,2,0,B|240:175|182:249|223:323,1,192,2|0,0:2|0:2,0:2:0:0:
418,221,15444,2,0,P|463:209|521:208,1,96,10|0,0:2|0:2,0:2:0:0:
348,65,15744,5,6,0:1:0:0:
258,190,15894,1,0,0:2:0:0:
418,221,16044,2,0,B|424:173|422:121,1,96,10|0,0:2|0:2,0:2:0:0:
451,345,16344,5,6,0:1:0:0:
329,248,16494,1,0,0:2:0:0:
507,168,16644,2,0,B|511:220|507:268,1,96,10|0,0:2|0:2,0:2:0:0:
261,300,16944,5,2,0:1:0:0:
464,366,17094,1,0,0:2:0:0:
261,300,17244,6,0,P|321:291|392:288,1,115.199996484375,14|0,0:1|0:2,0:2:0:0:
183,70,17544,2,0,P|160:126|127:189,1,115.199996484375,14|0,0:1|0:2,0:2:0:0:
421,117,17844,2,0,P|384:69|345:9,1,115.199996484375,14|0,0:1|0:2,0:2:0:0:
135,174,18144,5,6,0:1:0:0:
313,140,18294,1,0,0:2:0:0:
139,43,18444,1,8,0:2:0:0:
226,68,18594,2,0,P|279:62|342:57,1,96,2|0,0:2|0:2,0:2:0:0:
204,273,18894,1,0,0:2:0:0:
130,318,19044,2,0,P|77:324|14:329,1,96,10|0,0:2|0:2,0:2:0:0:
135,174,19344,5,2,0:1:0:0:
259,383,19494,1,0,0:2:0:0:
375,185,19644,1,8,0:2:0:0:
440,258,19794,2,0,P|442:304|438:381,1,96,2|0,0:2|0:2,0:2:0:0:
288,162,20094,1,0,0:2:0:0:
375,185,20244,2,0,P|424:180|476:171,1,96,10|0,0:2|0:2,0:2:0:0:
279,15,20544,5,6,0:1:0:0:
246,262,20694,1,0,0:2:0:0:
380,69,20844,1,10,0:2:0:0:
380,69,20994,1,0,0:2:0:0:
156,164,21144,5,6,0:1:0:0:
375,185,21294,1,0,0:2:0:0:
256,357,21444,2,0,P|253:312|242:248,1,96,10|0,0:2|0:2,0:2:0:0:
106,62,21744,5,2,0:1:0:0:
45,339,21894,1,0,0:2:0:0:
112,194,22044,6,0,P|55:203|0:216,1,115.199996484375,14|0,0:1|0:2,0:2:0:0:
400,190,22344,2,0,P|451:182|530:162,1,115.199996484375,14|0,0:1|0:2,0:2:0:0:
256,32,22644,5,8,3:3:0:0:
256,32,22719,1,8,3:3:0:0:
256,32,22794,1,8,3:3:0:0:
256,32,22869,1,8,3:3:0:0:
256,32,22944,5,2,0:1:0:0:
246,73,23019,1,0,0:2:0:0:
216,103,23094,1,0,0:2:0:0:
175,112,23169,1,0,0:2:0:0:
135,97,23244,1,12,0:2:0:0:
133,109,23544,5,2,0:1:0:0:
176,126,23619,1,0,0:2:0:0:
222,116,23694,1,0,0:2:0:0:
255,83,23769,1,0,0:2:0:0:
265,37,23844,1,12,0:2:0:0:
275,40,24144,5,2,0:1:0:0:
264,91,24219,1,0,0:2:0:0:
227,127,24294,1,0,0:2:0:0:
177,138,24369,1,0,0:2:0:0:
130,120,24444,1,12,0:2:0:0:
124,131,24744,5,2,0:1:0:0:
276,196,24894,2,0,B|428:176|359:235|516:204,1,230.39999296875,12|8,0:2|0:2,0:2:0:0:
362,365,25344,5,2,0:1:0:0:
356,323,25419,1,0,0:2:0:0:
329,290,25494,1,0,0:2:0:0:
289,276,25569,1,0,0:2:0:0:
248,287,25644,1,12,0:2:0:0:
246,297,25944,5,2,0:1:0:0:
288,314,26019,1,0,0:2:0:0:
334,306,26094,1,0,0:2:0:0:
368,275,26169,1,0,0:2:0:0:
381,230,26244,1,12,0:2:0:0:
375,219,26544,5,2,0:1:0:0:
334,250,26619,1,0,0:2:0:0:
316,297,26694,1,0,0:2:0:0:
328,347,26769,1,0,0:2:0:0:
364,384,26844,1,12,0:2:0:0:
379,381,27144,5,2,0:1:0:0:
227,298,27294,2,0,B|94:265|142:334|-4:301,1,230.39999296875,12|0,0:2|0:2,0:2:0:0:
166,141,27744,6,2,B|268:101|365:176|284:213|357:297|475:248,1,360.000013732911,2|0,0:1|0:2,0:1:0:0:
512,141,28644,5,8,0:2:0:0:
512,141,28794,1,8,0:2:0:0:
384,36,28944,6,0,P|430:28|482:23,1,82.5600012597657,4|0,0:1|0:2,0:2:0:0:
366,216,29244,2,0,P|412:208|464:203,1,82.5600012597657,8|0,0:2|0:2,0:2:0:0:
241,67,29544,1,2,0:2:0:0:
179,140,29694,2,0,P|133:148|81:153,1,82.5600012597657,0|8,0:2|0:2,0:2:0:0:
248,74,29994,5,2,0:2:0:0:
248,74,30069,1,0,0:2:0:0:
248,74,30144,1,0,0:2:0:0:
280,216,30294,1,0,0:2:0:0:
318,361,30444,1,8,0:2:0:0:
318,361,30594,1,0,0:2:0:0:
169,269,30744,5,2,0:2:0:0:
280,216,30894,1,0,0:2:0:0:
392,166,31044,1,8,0:2:0:0:
495,199,31194,5,2,0:2:0:0:
495,199,31269,1,0,0:2:0:0:
495,199,31344,1,0,0:2:0:0:
392,166,31494,1,0,0:2:0:0:
461,95,31644,5,8,0:2:0:0:
309,118,31794,1,0,0:2:0:0:
388,260,31944,5,2,0:2:0:0:
156,316,32094,1,0,0:2:0:0:
255,213,32244,1,8,0:2:0:0:
290,363,32394,1,2,0:2:0:0:
290,363,32469,1,0,0:2:0:0:
290,363,32544,1,0,0:2:0:0:
162,207,32694,5,2,0:2:0:0:
40,339,32844,1,8,0:2:0:0:
0,238,32994,1,0,0:2:0:0:
156,316,33144,1,8,0:2:0:0:
256,258,33294,2,0,B|277:188|257:116,1,144.000005493164,12|8,0:2|0:2,0:2:0:0:
153,6,33744,5,4,0:1:0:0:
130,156,33894,1,0,0:2:0:0:
153,6,34044,1,8,0:2:0:0:
130,156,34194,1,0,0:2:0:0:
15,64,34344,5,2,0:2:0:0:
130,156,34494,1,0,0:2:0:0:
256,64,34644,1,8,0:2:0:0:
383,165,34794,5,2,0:2:0:0:
383,165,34869,1,0,0:2:0:0:
383,165,34944,2,0,P|388:205|391:259,1,82.5600012597657,0|0,0:2|0:2,0:2:0:0:
165,379,35244,2,0,P|160:339|157:285,1,82.5600012597657,8|0,0:2|0:2,0:2:0:0:
256,145,35544,5,2,0:2:0:0:
390,247,35694,1,0,0:2:0:0:
512,131,35844,1,8,0:2:0:0:
423,31,35994,5,2,0:2:0:0:
423,31,36069,1,0,0:2:0:0:
423,31,36144,1,0,0:2:0:0:
390,247,36294,1,0,0:2:0:0:
239,7,36444,1,8,0:2:0:0:
206,223,36594,1,0,0:2:0:0:
342,123,36744,5,2,0:2:0:0:
422,161,36894,1,0,0:2:0:0:
503,117,37044,1,8,0:2:0:0:
430,41,37194,5,2,0:2:0:0:
430,41,37269,1,0,0:2:0:0:
430,41,37344,1,0,0:2:0:0:
256,285,37494,1,0,0:2:0:0:
82,41,37644,1,8,0:2:0:0:
256,192,37944,5,8,2:2:0:0:
256,192,38019,1,8,2:2:0:0:
256,192,38094,1,8,2:2:0:0:
100,251,38244,5,8,2:3:0:0:
412,133,38394,1,8,2:3:0:0:
150,156,38544,6,0,L|57:143,1,86.3999973632813,4|0,0:1|0:2,0:2:0:0:
360,225,38844,2,0,L|453:238,1,86.3999973632813,8|0,0:2|0:2,0:2:0:0:
232,83,39144,2,0,L|197:-4,1,86.3999973632813,0|0,0:2|0:2,0:2:0:0:
278,299,39444,2,0,L|313:386,1,86.3999973632813,8|0,0:2|0:2,0:2:0:0:
328,126,39744,5,2,0:2:0:0:
328,126,39894,1,0,0:2:0:0:
173,265,40044,1,8,0:2:0:0:
173,265,40194,1,0,0:2:0:0:
360,225,40344,1,2,0:2:0:0:
150,156,40494,1,0,0:2:0:0:
278,299,40644,1,8,0:2:0:0:
232,83,40794,1,0,0:2:0:0:
360,225,40944,5,6,0:2:0:0:
444,258,41094,1,0,0:2:0:0:
512,197,41244,1,8,0:2:0:0:
428,163,41394,1,2,0:2:0:0:
428,163,41469,1,0,0:2:0:0:
428,163,41544,2,0,P|421:119|414:61,1,86.3999973632813,0|0,0:2|0:2,0:2:0:0:
267,352,41844,2,0,P|311:345|369:338,1,86.3999973632813,8|0,0:2|0:2,0:2:0:0:
108,217,42144,5,6,0:1:0:0:
122,310,42294,1,0,0:2:0:0:
33,275,42444,1,0,0:2:0:0:
196,252,42594,5,14,0:1:0:0:
19,181,42744,1,0,0:2:0:0:
168,62,42894,1,0,0:2:0:0:
128,165,43044,5,14,0:1:0:0:
128,165,43194,1,0,0:2:0:0:
337,20,43344,6,0,P|297:24|241:28,1,86.3999973632813,6|0,0:2|0:2,0:2:0:0:
378,190,43644,1,8,0:2:0:0:
476,59,43794,1,2,0:2:0:0:
476,59,43869,1,0,0:2:0:0:
476,59,43944,1,0,0:2:0:0:
506,154,44094,5,2,0:2:0:0:
333,106,44244,1,8,0:2:0:0:
506,154,44394,1,0,0:2:0:0:
256,192,44544,5,6,0:2:0:0:
408,271,44694,1,0,0:2:0:0:
275,351,44844,1,8,0:2:0:0:
256,192,44994,1,2,0:2:0:0:
235,31,45144,1,0,0:2:0:0:
102,111,45294,1,2,0:2:0:0:
256,192,45444,1,8,0:2:0:0:
408,271,45594,1,0,0:2:0:0:
124,288,45744,5,2,0:1:0:0:
124,288,45819,1,0,0:2:0:0:
124,288,45894,1,0,0:2:0:0:
417,188,46044,5,10,0:1:0:0:
417,188,46194,1,0,0:2:0:0:
122,97,46344,5,2,0:1:0:0:
122,97,46419,1,0,0:2:0:0:
122,97,46494,1,0,0:2:0:0:
307,345,46644,5,10,0:1:0:0:
307,345,46794,1,0,0:2:0:0:
303,35,46944,5,10,0:1:0:0:
303,35,47019,1,8,0:2:0:0:
303,35,47094,1,8,0:2:0:0:
124,288,47244,1,10,0:1:0:0:
417,188,47394,1,10,0:1:0:0:
122,97,47544,1,10,0:1:0:0:
307,345,47694,1,14,0:1:0:0:
256,256,48144,6,0,B|216:145|294:172|252:49,1,211.200006445313,14|8,0:1|0:2,0:1:0:0:
356,209,48594,1,2,0:1:0:0:
356,209,48669,1,0,0:2:0:0:
356,209,48744,2,0,B|412:221|475:189,1,105.600003222656,0|0,0:2|0:2,0:1:0:0:
163,114,49044,1,10,0:1:0:0:
163,114,49194,1,0,0:2:0:0:
253,18,49344,6,2,B|369:0,1,105.600003222656,2|0,0:1|0:2,0:1:0:0:
82,195,49644,2,2,B|64:79,1,105.600003222656,10|0,0:1|0:2,0:1:0:0:
259,366,49944,2,2,B|143:384,1,105.600003222656,2|0,0:1|0:2,0:1:0:0:
430,189,50244,5,10,0:2:0:0:
447,294,50394,1,0,0:2:0:0:
374,251,50544,5,2,0:1:0:0:
502,231,50694,1,0,0:2:0:0:
374,251,50844,1,8,0:2:0:0:
421,115,50994,1,2,0:1:0:0:
421,115,51069,1,0,0:2:0:0:
421,115,51144,2,0,B|428:61|415:7,1,105.600003222656,0|0,0:2|0:2,0:2:0:0:
91,269,51444,2,0,B|84:323|97:377,1,105.600003222656,10|0,0:1|0:2,0:2:0:0:
378,255,51744,5,2,0:1:0:0:
378,255,51894,1,0,0:2:0:0:
134,129,52044,1,10,0:1:0:0:
134,129,52194,1,0,0:2:0:0:
274,355,52344,5,2,0:1:0:0:
238,29,52494,1,0,0:2:0:0:
274,355,52644,1,10,0:1:0:0:
238,29,52794,1,0,0:2:0:0:
256,192,52944,5,6,0:1:0:0:
351,237,53094,1,0,0:2:0:0:
427,164,53244,1,8,0:2:0:0:
332,119,53394,1,2,0:2:0:0:
332,119,53469,1,0,0:2:0:0:
332,119,53544,1,0,0:2:0:0:
410,53,53694,5,2,0:2:0:0:
256,288,53844,1,8,0:2:0:0:
102,53,53994,1,0,0:2:0:0:
29,148,54144,6,2,P|25:195|30:270,1,105.600003222656,2|0,0:1|0:2,0:1:0:0:
466,267,54444,2,2,P|470:220|465:145,1,105.600003222656,10|0,0:1|0:2,0:1:0:0:
195,345,54744,2,2,P|251:346|317:374,1,105.600003222656,2|0,0:1|0:2,0:1:0:0:
317,39,55044,2,2,P|261:38|195:10,1,105.600003222656,10|0,0:1|0:2,0:1:0:0:
8,224,55344,6,2,L|256:192,1,249.599988574219,6|0,0:1|0:1,0:1:0:0:
503,159,55794,2,2,L|256:192,1,249.599988574219,6|0,0:1|0:2,0:1:0:0:
0,257,56244,6,2,B|178:238|71:369|250:350,1,288.000010986329,6|0,0:1|0:2,0:1:0:0:
512,127,56694,2,2,B|333:145|440:14|261:33,1,288.000010986329,6|8,0:1|0:2,0:1:0:0:
39,149,57144,5,10,0:1:0:0:
473,235,57294,1,10,0:1:0:0:
137,86,57444,5,10,0:1:0:0:
375,298,57594,1,10,0:1:0:0:
256,128,57744,6,0,B|276:229|254:338,1,211.200006445313,14|8,0:1|0:2,0:1:0:0:
105,193,58194,1,2,0:1:0:0:
105,193,58269,1,0,0:2:0:0:
105,193,58344,2,0,L|0:203,1,105.600003222656,0|0,0:2|0:2,0:2:0:0:
215,18,58644,1,10,0:1:0:0:
215,18,58794,1,0,0:2:0:0:
189,141,58944,5,2,0:1:0:0:
294,99,59094,1,0,0:2:0:0:
109,60,59244,1,8,0:2:0:0:
282,225,59394,1,2,0:2:0:0:
282,225,59469,1,0,0:2:0:0:
282,225,59544,1,0,0:1:0:0:
215,18,59694,1,0,0:2:0:0:
71,198,59844,5,10,0:2:0:0:
189,141,59994,1,0,0:2:0:0:
264,340,60144,6,2,B|377:330|475:382,1,211.200006445313,2|8,0:1|0:2,0:1:0:0:
362,138,60594,1,2,0:1:0:0:
374,148,60669,1,0,0:2:0:0:
387,156,60744,2,0,P|449:144|495:123,1,105.600003222656,0|0,0:2|0:2,0:2:0:0:
125,228,61044,2,0,P|63:240|17:261,1,105.600003222656,10|0,0:1|0:2,0:2:0:0:
349,307,61344,5,2,0:1:0:0:
162,76,61494,1,0,0:2:0:0:
240,340,61644,1,10,0:1:0:0:
271,43,61794,1,0,0:2:0:0:
140,285,61944,1,2,0:1:0:0:
371,98,62094,1,0,0:2:0:0:
107,176,62244,1,10,0:1:0:0:
404,207,62394,1,0,0:2:0:0:
188,152,62544,5,6,0:1:0:0:
216,260,62694,1,0,0:2:0:0:
324,232,62844,1,8,0:2:0:0:
296,124,62994,1,2,0:2:0:0:
296,124,63069,1,0,0:2:0:0:
296,124,63144,1,0,0:2:0:0:
108,177,63294,5,2,0:2:0:0:
256,192,63444,1,8,0:2:0:0:
404,207,63594,1,0,0:2:0:0:
356,55,63744,5,2,0:1:0:0:
356,55,63894,1,0,0:2:0:0:
393,292,64044,1,10,0:1:0:0:
393,292,64194,1,0,0:2:0:0:
156,329,64344,1,2,0:1:0:0:
156,329,64494,1,0,0:2:0:0:
119,92,64644,1,10,0:1:0:0:
119,92,64794,1,0,0:2:0:0:
452,10,64944,6,2,B|513:37|525:135|473:181|473:181|424:188,1,249.599988574219,6|0,0:1|0:2,0:1:0:0:
60,10,65394,2,2,B|-1:37|-13:135|39:181|39:181|88:188,1,249.599988574219,6|0,0:1|0:2,0:1:0:0:
473,180,65844,6,2,B|533:219|532:336|465:366|465:366|395:345,1,288.000010986329,6|0,0:1|0:2,0:1:0:0:
39,180,66294,2,2,B|-21:219|-20:336|47:366|47:366|117:345,1,288.000010986329,6|8,0:1|0:2,0:1:0:0:
256,160,66744,1,8,0:2:0:0:
256,282,66894,5,2,3:1:0:0:
256,293,66969,1,0,3:3:0:0:
256,304,67044,1,0,3:3:0:0:
256,315,67119,1,0,3:3:0:0:
256,326,67194,1,0,3:3:0:0:
256,338,67269,1,0,3:3:0:0:
256,349,67344,2,0,B|363:380|424:287,1,192,6|8,0:1|0:2,0:2:0:0:
256,35,67794,2,0,B|149:4|88:97,1,192,2|0,0:1|0:2,0:2:0:0:
256,192,68244,5,10,0:1:0:0:
256,192,68394,1,0,0:2:0:0:
186,275,68544,6,0,B|71:302|27:196,1,192,2|8,0:1|0:2,0:2:0:0:
326,109,68994,2,0,B|441:82|485:188,1,192,2|0,0:1|0:2,0:2:0:0:
256,192,69444,5,10,0:1:0:0:
256,192,69594,1,0,0:2:0:0:
309,271,69744,5,2,0:2:0:0:
351,186,69894,1,0,0:2:0:0:
298,107,70044,1,8,0:2:0:0:
161,198,70194,1,2,0:2:0:0:
161,198,70269,1,0,0:2:0:0:
161,198,70344,1,0,0:2:0:0:
351,186,70494,1,0,0:2:0:0:
203,113,70644,1,8,0:2:0:0:
256,32,70794,5,0,0:2:0:0:
256,32,70869,1,0,0:2:0:0:
256,32,70944,2,0,B|302:79|383:69|420:6,1,192,2|8,0:1|0:1,0:1:0:0:
203,113,71394,2,0,B|157:66|76:76|39:139,1,192,2|0,0:1|0:2,0:2:0:0:
45,319,71844,2,0,B|50:283|81:230,1,96,10|0,0:1|0:2,0:2:0:0:
402,145,72144,5,6,0:1:0:0:
272,270,72294,1,0,0:2:0:0:
203,113,72444,1,8,0:2:0:0:
304,173,72594,1,2,0:1:0:0:
304,173,72669,1,0,0:2:0:0:
304,173,72744,1,0,0:2:0:0:
244,372,72894,1,2,0:1:0:0:
192,210,73044,1,8,0:2:0:0:
192,210,73194,1,8,0:2:0:0:
355,335,73344,5,2,0:1:0:0:
152,296,73494,1,0,0:2:0:0:
304,173,73644,1,8,0:2:0:0:
256,64,73794,1,2,0:1:0:0:
256,64,73869,1,0,0:2:0:0:
256,64,73944,1,0,0:2:0:0:
74,231,74094,5,6,0:1:0:0:
438,153,74244,1,6,0:1:0:0:
164,37,74544,5,6,0:1:0:0:
304,173,74694,1,0,0:2:0:0:
338,63,74844,1,8,0:2:0:0:
149,154,74994,1,2,0:1:0:0:
149,154,75069,1,0,0:2:0:0:
149,154,75144,1,0,0:2:0:0:
320,270,75294,1,2,0:1:0:0:
274,384,75444,1,8,0:2:0:0:
274,384,75594,1,8,0:2:0:0:
123,229,75744,5,2,0:1:0:0:
391,316,75894,1,0,0:2:0:0:
361,192,76044,1,8,0:2:0:0:
141,351,76194,1,2,0:1:0:0:
141,351,76269,1,0,0:2:0:0:
141,351,76344,1,0,0:2:0:0:
221,74,76494,5,6,0:1:0:0:
274,384,76644,1,6,0:1:0:0:
54,215,76944,5,8,3:2:0:0:
54,215,77019,1,0,3:2:0:0:
54,215,77094,1,0,3:2:0:0:
9,296,77244,5,8,3:2:0:0:
9,296,77319,1,0,3:2:0:0:
9,296,77394,1,0,3:2:0:0:
66,371,77544,5,8,3:2:0:0:
66,371,77619,1,0,3:2:0:0:
66,371,77694,1,0,3:2:0:0:
145,216,77844,5,6,3:1:0:0:
165,228,77919,1,0,3:2:0:0:
188,234,77994,1,0,3:2:0:0:
212,234,78069,1,0,3:2:0:0:
235,228,78144,1,6,0:1:0:0:
125,82,78294,1,0,0:1:0:0:
268,0,78444,1,8,0:2:0:0:
344,63,78594,2,0,B|338:140|427:176|478:144,1,192,2|0,0:2|0:2,0:2:0:0:
375,301,79044,2,0,P|412:290|478:288,1,96,10|0,0:2|0:2,0:2:0:0:
269,157,79344,5,2,0:1:0:0:
226,376,79494,1,0,0:1:0:0:
86,307,79644,1,8,0:2:0:0:
14,374,79794,2,0,B|-20:293|25:186,1,192,2|0,0:2|0:2,0:2:0:0:
205,284,80244,2,0,B|249:289|299:268,1,96,10|0,0:2|0:2,0:2:0:0:
255,79,80544,5,6,0:1:0:0:
423,153,80694,1,0,0:2:0:0:
298,268,80844,2,0,P|303:213|314:149,1,96,10|0,0:2|0:2,0:2:0:0:
199,12,81144,5,6,0:1:0:0:
31,86,81294,1,0,0:2:0:0:
156,201,81444,2,0,P|151:146|140:82,1,96,10|0,0:2|0:2,0:2:0:0:
2,293,81744,5,2,0:1:0:0:
164,362,81894,1,0,0:2:0:0:
357,250,82044,6,0,P|349:315|348:370,1,115.199996484375,14|0,0:1|0:2,0:2:0:0:
108,168,82344,2,0,P|117:213|124:286,1,115.199996484375,14|0,0:1|0:2,0:2:0:0:
437,73,82644,2,0,P|427:124|426:191,1,115.199996484375,14|0,0:1|0:2,0:2:0:0:
212,5,82944,5,6,0:1:0:0:
323,141,83094,1,0,0:2:0:0:
214,233,83244,1,8,0:2:0:0:
283,298,83394,2,0,P|324:291|386:286,1,96,2|0,0:2|0:2,0:2:0:0:
161,102,83694,1,0,0:2:0:0:
95,162,83844,2,0,P|54:169|-8:174,1,96,10|0,0:2|0:2,0:2:0:0:
194,12,84144,5,2,0:1:0:0:
284,176,84294,1,0,0:2:0:0:
436,90,84444,1,8,0:2:0:0:
493,153,84594,2,0,P|496:197|491:276,1,96,2|0,0:2|0:2,0:2:0:0:
207,213,84894,1,0,0:2:0:0:
160,283,85044,2,0,P|156:330|158:378,1,96,10|0,0:2|0:2,0:2:0:0:
382,260,85344,5,6,0:1:0:0:
118,178,85494,1,0,0:2:0:0:
379,109,85644,1,10,0:2:0:0:
379,109,85794,1,0,0:2:0:0:
214,26,85944,5,6,0:1:0:0:
275,317,86094,1,0,0:2:0:0:
418,188,86244,2,0,B|464:188|511:207,1,96,10|0,0:2|0:2,0:2:0:0:
226,153,86544,5,2,0:1:0:0:
358,13,86694,1,0,0:2:0:0:
418,188,86844,2,2,L|439:325,1,105.600003222656,14|0,0:1|0:2,0:1:0:0:
228,38,87144,6,2,L|365:19,1,115.199996484375,10|0,0:1|0:0,0:1:0:0:
78,228,87444,6,2,L|59:90,1,124.79999428711,10|0,0:1|0:0,0:1:0:0:
256,192,87744,5,4,0:1:0:0:
256,192,87894,1,0,0:2:0:0:
188,300,88044,2,0,B|146:301|106:313,1,82.5600012597657,8|0,0:2|0:2,0:2:0:0:
296,368,88344,1,2,0:2:0:0:
364,260,88494,2,0,B|365:219|350:173,1,82.5600012597657,0|8,0:2|0:2,0:2:0:0:
235,76,88794,5,2,0:2:0:0:
235,76,88869,1,0,0:2:0:0:
235,76,88944,1,0,0:2:0:0:
138,140,89094,1,0,0:2:0:0:
49,66,89244,1,8,0:2:0:0:
145,2,89394,1,0,0:2:0:0:
318,105,89544,5,2,0:2:0:0:
235,76,89694,1,0,0:2:0:0:
301,18,89844,1,8,0:2:0:0:
391,54,89994,1,2,0:2:0:0:
391,54,90069,1,0,0:2:0:0:
391,54,90144,1,0,0:2:0:0:
316,133,90294,5,2,0:2:0:0:
424,162,90444,1,8,0:2:0:0:
307,239,90594,1,0,0:2:0:0:
415,268,90744,1,0,0:2:0:0:
298,345,90894,1,0,0:2:0:0:
406,374,91044,1,8,0:2:0:0:
314,246,91194,5,2,0:2:0:0:
314,246,91269,1,0,0:2:0:0:
314,246,91344,1,0,0:2:0:0:
130,374,91494,1,2,0:2:0:0:
298,345,91644,1,8,0:2:0:0:
89,283,91794,1,0,0:2:0:0:
203,280,91944,5,8,0:2:0:0:
203,280,92094,2,0,B|173:214|216:206|187:137,1,144.000005493164,12|8,0:2|0:2,0:2:0:0:
112,36,92544,5,4,0:1:0:0:
52,189,92694,1,0,0:2:0:0:
188,139,92844,1,8,0:2:0:0:
52,189,92994,1,0,0:2:0:0:
203,280,93144,5,2,0:2:0:0:
55,285,93294,1,0,0:2:0:0:
181,384,93444,1,8,0:2:0:0:
313,262,93594,5,2,0:2:0:0:
313,262,93669,1,0,0:2:0:0:
313,262,93744,2,0,P|348:263|424:276,1,82.5600012597657,0|0,0:2|0:2,0:2:0:0:
199,122,94044,2,0,P|164:121|88:108,1,82.5600012597657,8|0,0:2|0:2,0:2:0:0:
326,43,94344,1,2,0:2:0:0:
432,89,94494,2,0,B|442:46|433:-10,1,82.5600012597657,0|8,0:2|0:2,0:0:0:0:
209,9,94794,5,2,0:2:0:0:
209,9,94869,1,0,0:2:0:0:
209,9,94944,1,0,0:2:0:0:
378,177,95094,1,0,0:2:0:0:
134,207,95244,1,8,0:2:0:0:
303,375,95394,1,0,0:2:0:0:
211,149,95544,5,2,0:2:0:0:
145,302,95694,1,0,0:2:0:0:
46,169,95844,1,8,0:2:0:0:
113,48,95994,5,2,0:2:0:0:
113,48,96069,1,0,0:2:0:0:
113,48,96144,1,0,0:2:0:0:
256,287,96294,1,0,0:2:0:0:
399,48,96444,1,8,0:2:0:0:
256,0,96744,5,8,2:2:0:0:
256,0,96819,1,8,2:2:0:0:
256,0,96894,1,8,2:2:0:0:
118,142,97044,5,8,2:3:0:0:
394,242,97194,1,8,2:3:0:0:
183,282,97344,6,0,L|70:307,1,86.3999973632813,4|0,0:1|0:2,0:2:0:0:
329,102,97644,2,0,L|442:77,1,86.3999973632813,8|0,0:2|0:2,0:2:0:0:
297,300,97944,2,0,L|262:410,1,86.3999973632813,0|0,0:2|0:2,0:2:0:0:
214,83,98244,2,0,L|249:-26,1,86.3999973632813,8|0,0:2|0:2,0:2:0:0:
370,210,98544,5,2,0:2:0:0:
370,210,98694,1,0,0:2:0:0:
141,173,98844,1,8,0:2:0:0:
141,173,98994,1,0,0:2:0:0:
297,299,99144,1,2,0:2:0:0:
214,82,99294,1,0,0:2:0:0:
183,281,99444,1,8,0:2:0:0:
328,102,99594,1,0,0:2:0:0:
141,173,99744,5,6,0:2:0:0:
49,148,99894,1,0,0:2:0:0:
74,241,100044,1,8,0:2:0:0:
116,80,100194,1,2,0:2:0:0:
116,80,100269,1,0,0:2:0:0:
116,80,100344,2,0,L|18:59,1,86.3999973632813,0|0,0:2|0:2,0:2:0:0:
277,122,100644,2,0,L|295:37,1,86.3999973632813,8|0,0:2|0:2,0:2:0:0:
235,283,100944,5,6,0:1:0:0:
352,227,101094,1,0,0:2:0:0:
159,177,101244,1,0,0:2:0:0:
277,122,101394,5,14,0:1:0:0:
85,270,101544,1,0,0:2:0:0:
174,54,101694,1,0,0:2:0:0:
253,204,101844,5,14,0:1:0:0:
253,204,101994,1,0,0:2:0:0:
173,294,102144,6,0,L|83:289,1,86.3999973632813,6|0,0:2|0:2,0:2:0:0:
269,384,102444,1,8,0:2:0:0:
395,238,102594,1,2,0:2:0:0:
395,238,102669,1,0,0:2:0:0:
395,238,102744,1,0,0:2:0:0:
464,312,102894,5,2,0:2:0:0:
295,259,103044,1,8,0:2:0:0:
425,139,103194,1,0,0:2:0:0:
353,55,103344,5,6,0:2:0:0:
395,238,103494,1,0,0:2:0:0:
212,280,103644,1,8,0:2:0:0:
170,97,103794,1,2,0:2:0:0:
170,97,103869,1,0,0:0:0:0:
170,97,103944,1,0,0:2:0:0:
55,8,104094,5,2,0:2:0:0:
274,121,104244,1,8,0:2:0:0:
46,192,104394,1,0,0:2:0:0:
211,302,104544,5,2,0:1:0:0:
129,354,104694,1,0,0:2:0:0:
206,190,104844,5,10,0:1:0:0:
138,273,104994,1,0,0:2:0:0:
143,80,105144,5,2,0:1:0:0:
119,188,105294,1,0,0:2:0:0:
19,0,105444,5,10,0:1:0:0:
63,120,105594,1,0,0:2:0:0:
357,44,105744,5,10,0:1:0:0:
357,44,105819,1,8,0:2:0:0:
357,44,105894,1,8,0:2:0:0:
55,273,106044,1,10,0:1:0:0:
457,273,106194,1,10,0:1:0:0:
155,44,106344,1,10,0:1:0:0:
256,373,106494,1,14,0:1:0:0:
256,373,106944,6,0,B|216:306|259:237|259:237|238:161,1,211.200006445313,14|8,0:1|0:2,0:1:0:0:
117,340,107394,1,2,0:1:0:0:
117,340,107469,1,0,0:2:0:0:
117,340,107544,2,0,B|56:346|14:321,1,105.600003222656,0|0,0:2|0:2,0:1:0:0:
245,176,107844,1,10,0:1:0:0:
245,176,107994,1,0,0:2:0:0:
106,28,108144,6,2,B|94:148,1,105.600003222656,2|0,0:1|0:2,0:1:0:0:
420,42,108444,2,2,B|300:30,1,105.600003222656,10|0,0:1|0:2,0:1:0:0:
406,356,108744,2,2,B|418:236,1,105.600003222656,2|0,0:1|0:2,0:1:0:0:
92,342,109044,5,10,0:2:0:0:
198,353,109194,1,0,0:2:0:0:
159,253,109344,5,2,0:1:0:0:
74,354,109494,1,0,0:2:0:0:
4,242,109644,1,8,0:2:0:0:
87,141,109794,1,2,0:1:0:0:
87,141,109869,1,0,0:2:0:0:
87,141,109944,2,0,B|104:94|104:33,1,105.600003222656,0|0,0:2|0:2,0:2:0:0:
425,243,110244,2,0,B|408:290|408:351,1,105.600003222656,10|0,0:1|0:2,0:2:0:0:
179,151,110544,5,2,0:1:0:0:
215,269,110694,1,0,0:2:0:0:
333,233,110844,1,10,0:1:0:0:
297,115,110994,1,0,0:2:0:0:
205,25,111144,5,2,0:1:0:0:
89,242,111294,1,0,0:2:0:0:
306,358,111444,1,10,0:1:0:0:
422,141,111594,1,0,0:2:0:0:
179,151,111744,5,6,0:1:0:0:
333,233,111894,1,0,0:2:0:0:
297,115,112044,1,8,0:2:0:0:
215,269,112194,1,2,0:2:0:0:
215,269,112269,1,0,0:2:0:0:
215,269,112344,1,0,0:2:0:0:
101,169,112494,5,2,0:2:0:0:
256,192,112644,1,8,0:2:0:0:
411,215,112794,1,0,0:2:0:0:
196,108,112944,6,2,P|151:99|67:90,1,105.600003222656,2|0,0:1|0:2,0:1:0:0:
316,276,113244,2,2,P|361:285|445:294,1,105.600003222656,10|0,0:1|0:2,0:1:0:0:
155,272,113544,2,2,P|146:317|137:401,1,105.600003222656,2|0,0:1|0:2,0:1:0:0:
357,112,113844,2,2,P|366:67|375:-17,1,105.600003222656,10|0,0:1|0:2,0:1:0:0:
71,159,114144,6,2,B|49:62|137:-2|226:37,1,249.599988574219,6|0,0:1|0:1,0:1:0:0:
441,225,114594,2,2,B|463:322|375:386|285:346,1,249.599988574219,6|0,0:1|0:2,0:1:0:0:
7,192,115044,6,2,B|183:164|46:65|224:37,1,288.000010986329,6|0,0:1|0:2,0:1:0:0:
511,310,115494,2,2,B|334:282|471:183|293:155,1,288.000010986329,6|8,0:1|0:2,0:1:0:0:
82,321,115944,5,10,0:1:0:0:
126,18,116094,1,10,0:1:0:0:
429,62,116244,1,10,0:1:0:0:
385,365,116394,1,10,0:1:0:0:
320,302,116544,6,0,B|265:357|168:323|163:239,1,211.200006445313,14|8,0:1|0:2,0:1:0:0:
385,163,116994,1,2,0:1:0:0:
385,163,117069,1,0,0:2:0:0:
385,163,117144,2,0,P|442:153|493:146,1,105.600003222656,0|0,0:2|0:2,0:2:0:0:
256,23,117444,1,10,0:1:0:0:
256,23,117594,1,0,0:2:0:0:
216,113,117744,5,2,0:1:0:0:
314,103,117894,1,0,0:2:0:0:
158,33,118044,1,8,0:2:0:0:
176,203,118194,1,2,0:2:0:0:
176,203,118269,1,0,0:2:0:0:
176,203,118344,1,0,0:1:0:0:
216,113,118494,1,0,0:2:0:0:
235,283,118644,5,10,0:2:0:0:
79,214,118794,1,0,0:2:0:0:
194,361,118944,6,2,B|273:393|336:332|318:251,1,211.200006445313,2|8,0:1|0:2,0:1:0:0:
96,109,119394,1,2,0:1:0:0:
96,109,119469,1,0,0:2:0:0:
96,109,119544,2,0,P|85:161|78:219,1,105.600003222656,0|0,0:2|0:2,0:2:0:0:
415,275,119844,2,0,P|426:223|433:171,1,105.600003222656,10|0,0:1|0:2,0:2:0:0:
160,32,120144,5,2,0:1:0:0:
352,32,120294,1,0,0:2:0:0:
160,32,120444,1,10,0:1:0:0:
352,32,120594,1,0,0:2:0:0:
64,192,120744,5,2,0:1:0:0:
448,192,120894,1,0,0:2:0:0:
64,192,121044,1,10,0:1:0:0:
448,192,121194,1,0,0:2:0:0:
160,128,121344,5,6,0:1:0:0:
256,192,121494,1,0,0:2:0:0:
352,128,121644,1,8,0:2:0:0:
256,64,121794,1,2,0:2:0:0:
256,64,121869,1,0,0:2:0:0:
256,64,121944,1,0,0:2:0:0:
64,192,122094,5,2,0:2:0:0:
256,192,122244,1,8,0:2:0:0:
448,192,122394,1,0,0:2:0:0:
160,128,122544,5,2,0:1:0:0:
192,288,122694,1,0,0:2:0:0:
352,256,122844,1,10,0:1:0:0:
320,96,122994,1,0,0:2:0:0:
199,203,123144,5,2,0:1:0:0:
267,248,123294,1,0,0:2:0:0:
312,180,123444,1,10,0:1:0:0:
244,135,123594,1,0,0:2:0:0:
382,275,123744,6,2,B|475:290|531:170|466:99,1,249.599988574219,6|0,0:1|0:2,0:1:0:0:
133,6,124194,2,2,B|40:-9|-16:111|49:182,1,249.599988574219,6|0,0:1|0:2,0:1:0:0:
387,187,124644,6,2,B|499:166|562:300|470:380,1,288.000010986329,6|0,0:1|0:2,0:1:0:0:
125,187,125094,2,2,B|13:166|-50:300|39:377,1,288.000010986329,6|8,0:1|0:2,0:1:0:0:
359,266,125544,1,8,0:2:0:0:
256,192,125694,5,2,3:1:0:0:
233,166,125769,1,0,3:3:0:0:
233,133,125844,1,0,3:3:0:0:
256,108,125919,1,0,3:3:0:0:
278,83,125994,1,0,3:3:0:0:
278,50,126069,1,0,3:3:0:0:
256,24,126144,2,0,B|157:-11|74:64,1,192,6|8,0:1|0:2,0:2:0:0:
256,360,126594,2,0,B|355:395|438:320,1,192,2|0,0:1|0:2,0:2:0:0:
256,192,127044,5,10,0:1:0:0:
256,192,127194,1,0,0:2:0:0:
344,81,127344,6,0,B|426:149|385:256,1,192,2|8,0:1|0:2,0:2:0:0:
168,303,127794,2,0,B|85:234|127:128,1,192,2|0,0:1|0:2,0:2:0:0:
256,192,128244,5,10,0:1:0:0:
256,192,128394,1,0,0:2:0:0:
261,103,128544,5,2,0:2:0:0:
251,281,128694,1,0,0:2:0:0:
335,151,128844,1,8,0:2:0:0:
176,232,128994,1,2,0:2:0:0:
176,232,129069,1,0,0:2:0:0:
176,232,129144,1,0,0:2:0:0:
330,240,129294,1,0,0:2:0:0:
181,143,129444,1,8,0:2:0:0:
258,311,129594,5,0,0:2:0:0:
258,311,129669,1,0,0:2:0:0:
258,311,129744,2,0,B|304:358|385:348|422:282,1,192,2|8,0:1|0:1,0:1:0:0:
254,73,130194,2,0,B|208:26|127:36|90:102,1,192,2|0,0:1|0:2,0:2:0:0:
351,212,130644,2,0,B|391:190|442:184,1,96,10|0,0:1|0:2,0:2:0:0:
254,73,130944,5,6,0:1:0:0:
158,194,131094,1,0,0:2:0:0:
351,212,131244,1,8,0:2:0:0:
260,168,131394,1,2,0:1:0:0:
260,168,131469,1,0,0:2:0:0:
260,168,131544,1,0,0:2:0:0:
314,303,131694,1,2,0:1:0:0:
348,109,131844,1,8,0:2:0:0:
348,109,131994,1,8,0:2:0:0:
215,262,132144,5,2,0:1:0:0:
351,212,132294,1,0,0:2:0:0:
209,80,132444,1,8,0:2:0:0:
295,20,132594,1,2,0:1:0:0:
295,20,132669,1,0,0:2:0:0:
295,20,132744,1,0,0:2:0:0:
446,223,132894,5,6,0:1:0:0:
93,143,133044,1,6,0:1:0:0:
256,384,133344,5,6,0:1:0:0:
286,221,133494,1,0,0:2:0:0:
389,324,133644,1,8,0:2:0:0:
152,280,133794,1,2,0:1:0:0:
152,280,133869,1,0,0:2:0:0:
152,280,133944,1,0,0:2:0:0:
387,235,134094,1,2,0:1:0:0:
149,132,134244,1,8,0:2:0:0:
360,88,134394,1,8,0:2:0:0:
170,38,134544,5,2,0:1:0:0:
286,221,134694,1,0,0:2:0:0:
284,1,134844,1,8,0:2:0:0:
198,262,134994,1,2,0:1:0:0:
198,262,135069,1,0,0:2:0:0:
198,262,135144,1,0,0:2:0:0:
456,151,135294,5,6,0:1:0:0:
71,80,135444,1,6,0:1:0:0:
171,289,138144,6,0,L|46:304,1,96,6|0,0:1|0:2,0:2:0:0:
353,276,138444,2,0,L|368:401,1,96,10|0,0:2|0:2,0:2:0:0:
340,94,138744,2,0,L|465:79,1,96,2|0,0:2|0:2,0:2:0:0:
158,107,139044,2,0,L|143:-17,1,96,10|0,0:2|0:2,0:2:0:0:
256,192,139344,5,2,0:1:0:0:
256,192,139494,1,0,0:2:0:0:
171,289,139644,1,8,0:2:0:0:
165,115,139794,1,2,0:2:0:0:
165,115,139869,1,0,0:2:0:0:
165,115,139944,1,0,0:2:0:0:
353,276,140094,1,0,0:2:0:0:
340,94,140244,1,2,0:2:0:0:
171,289,140394,1,0,0:2:0:0:
330,366,140544,6,2,P|374:356|436:353,1,96,2|0,0:2|0:2,0:1:0:0:
82,265,140844,2,2,P|92:310|95:372,1,96,10|0,0:2|0:2,0:1:0:0:
182,18,141144,2,2,P|138:28|76:31,1,96,2|0,0:2|0:2,0:1:0:0:
430,119,141444,5,10,0:2:0:0:
417,24,141594,1,0,0:2:0:0:
341,82,141744,5,2,0:1:0:0:
341,82,141894,1,0,0:2:0:0:
506,61,142044,1,8,0:2:0:0:
506,61,142194,1,0,0:2:0:0:
443,214,142344,5,2,0:1:0:0:
282,168,142494,1,0,0:2:0:0:
384,300,142644,1,8,0:2:0:0:
341,82,142794,1,0,0:2:0:0:
161,219,142944,6,2,B|109:271|17:244|11:168,2,192,4|8|0,0:1|0:2|0:2,0:1:0:0:
204,121,143694,1,0,0:2:0:0:
258,287,143844,5,10,3:1:0:0:
271,317,143919,1,0,3:2:0:0:
297,337,143994,1,0,3:2:0:0:
328,347,144069,1,0,3:2:0:0:
360,339,144144,1,2,0:1:0:0:
287,204,144294,1,0,0:2:0:0:
411,114,144444,1,8,0:2:0:0:
484,249,144594,1,0,0:2:0:0:
256,192,144744,5,2,0:1:0:0:
411,114,144894,1,0,0:2:0:0:
256,32,145044,1,8,0:2:0:0:
101,114,145194,1,0,0:2:0:0:
374,208,145344,6,2,B|423:195|423:195|503:231|505:322|448:375,1,268.799991796875,6|0,0:1|0:2,0:1:0:0:
138,208,145794,2,2,B|89:195|89:195|9:231|7:322|64:375,1,268.799991796875,6|0,0:1|0:2,0:1:0:0:
409,287,146244,6,2,B|508:159|417:20,1,288.000010986329,6|0,0:1|0:2,0:1:0:0:
95,20,146694,2,2,B|4:159|103:287,1,288.000010986329,6|0,0:1|0:2,0:1:0:0:
283,105,147144,5,2,0:1:0:0:
283,105,147294,1,0,0:2:0:0:
227,277,147444,1,2,0:1:0:0:
227,277,147594,1,0,0:2:0:0:
170,164,147744,5,6,0:1:0:0:
341,219,147894,1,0,0:2:0:0:
171,30,148044,1,10,0:1:0:0:
337,350,148194,1,0,0:2:0:0:
283,105,148344,1,2,0:1:0:0:
227,277,148494,1,0,0:2:0:0:
415,107,148644,1,10,0:1:0:0:
94,273,148794,1,0,0:2:0:0:
392,243,148944,6,2,B|481:228|527:324|474:381,1,211.200006445313,2|8,0:1|0:2,0:1:0:0:
234,284,149394,1,2,0:1:0:0:
234,284,149469,1,0,0:2:0:0:
234,284,149544,2,0,L|256:180,1,105.600003222656,0|0,0:2|0:2,0:2:0:0:
279,79,149844,1,10,0:1:0:0:
279,79,149994,1,0,0:2:0:0:
94,10,150144,6,2,B|8:-2|-38:94|4:155,1,211.200006445313,2|8,0:1|0:2,0:1:0:0:
129,305,150594,1,0,0:2:0:0:
129,305,150669,1,0,0:2:0:0:
129,305,150744,2,0,L|151:201,1,105.600003222656,0|0,0:2|0:2,0:2:0:0:
289,46,151044,5,10,0:1:0:0:
462,179,151194,1,0,0:2:0:0:
403,5,151344,5,2,0:1:0:0:
345,217,151494,1,0,0:2:0:0:
403,5,151644,1,8,0:2:0:0:
345,217,151794,2,2,B|316:281|233:304|158:236,1,211.200006445313,2|0,0:1|0:2,0:1:0:0:
317,105,152244,2,0,P|373:96|449:86,1,105.600003222656,8|0,0:2|0:2,0:2:0:0:
130,8,152544,6,2,B|44:21|15:128|63:191,1,230.39999296875,6|8,0:1|0:2,0:1:0:0:
382,8,152994,2,2,B|467:21|496:128|448:191,1,230.39999296875,2|0,0:1|0:2,0:1:0:0:
256,96,153444,5,10,0:1:0:0:
256,96,153594,1,0,0:2:0:0:
137,295,153744,6,2,B|255:358|374:295,1,249.599988574219,2|8,0:1|0:2,0:1:0:0:
128,164,154194,1,2,0:1:0:0:
128,164,154269,1,0,0:2:0:0:
128,164,154344,2,0,B|102:103|124:42,1,124.79999428711,0|0,0:2|0:2,0:2:0:0:
387,42,154644,2,0,B|410:103|384:164,1,124.79999428711,10|0,0:1|0:2,0:2:0:0:
256,352,154944,5,6,0:1:0:0:
256,352,155094,1,0,0:2:0:0:
359,272,155244,1,8,0:2:0:0:
152,272,155394,1,0,0:2:0:0:
152,272,155469,1,0,0:2:0:0:
152,272,155544,1,0,0:2:0:0:
384,163,155694,1,2,0:1:0:0:
128,164,155844,1,8,0:2:0:0:
256,352,155994,1,0,0:2:0:0:
352,64,156144,5,10,0:1:0:0:
62,234,156294,1,8,0:2:0:0:
160,64,156444,5,10,0:1:0:0:
450,234,156594,1,8,0:2:0:0:
256,0,156744,5,10,0:1:0:0:
256,384,156894,1,8,0:2:0:0:
256,384,157344,6,0,B|213:336|210:224|251:179|281:224|392:117|402:-93|74:-114|63:133|183:169,1,672,6|0,1:2|0:2,0:2:0:0:
181,168,159744,6,0,B|302:22|525:1|674:208|472:380|361:265|346:180,1,672,6|0,1:2|0:2,0:2:0:0:
347,186,162144,6,0,B|412:16|219:-43|129:61|144:273|279:196|301:168|448:353|299:411|201:379|226:283,1,672,6|0,1:2|0:2,0:2:0:0:
265,149,164544,5,6,1:2:0:0:
111,384,164994,5,6,1:2:0:0:
59,8,165444,5,6,1:2:0:0:
0,276,165894,6,0,B|86:249|60:305|154:275,1,144.000005493164,4|8,1:2|0:2,0:2:0:0:
183,143,166344,6,2,P|168:121|158:79,1,44.7999986328125,8|0,0:3|0:2,0:1:0:0:
251,73,166544,6,2,P|255:47|279:11,1,51.2,4|0,0:3|0:2,0:1:0:0:
364,61,166744,6,2,P|385:46|429:34,1,57.5999982421876,8|0,0:2|0:2,0:1:0:0:
512,71,166944,5,6,1:2:0:0:
97,203,167394,5,6,1:2:0:0:
512,363,167844,5,6,1:2:0:0:
256,384,169344,6,0,B|210:272|299:273|258:156,1,230.39999296875,14|8,0:1|0:2,0:1:0:0:
336,331,169794,1,2,0:1:0:0:
336,331,169869,1,0,0:2:0:0:
336,331,169944,1,0,0:2:0:0:
182,216,170094,1,0,0:2:0:0:
256,22,170244,1,10,0:1:0:0:
256,22,170394,1,0,0:2:0:0:
376,102,170544,6,2,L|499:83,1,115.199996484375,2|0,0:1|0:2,0:1:0:0:
136,102,170844,2,2,L|13:83,1,115.199996484375,10|0,0:1|0:2,0:1:0:0:
376,282,171144,2,2,L|499:301,1,115.199996484375,2|0,0:1|0:2,0:1:0:0:
136,282,171444,5,10,0:2:0:0:
23,299,171594,1,0,0:2:0:0:
91,370,171744,5,2,0:1:0:0:
67,210,171894,1,0,0:2:0:0:
43,50,172044,1,8,0:2:0:0:
198,15,172194,5,2,0:1:0:0:
207,29,172269,1,0,0:2:0:0:
215,43,172344,2,0,B|278:42|334:21,1,115.199996484375,0|0,0:2|0:2,0:2:0:0:
297,341,172644,2,0,B|234:342|178:363,1,115.199996484375,10|0,0:1|0:2,0:2:0:0:
118,132,172944,5,2,0:1:0:0:
118,132,173094,1,0,0:2:0:0:
393,251,173244,1,10,0:1:0:0:
393,251,173394,1,0,0:2:0:0:
77,265,173544,5,2,0:1:0:0:
435,119,173694,1,0,0:2:0:0:
77,265,173844,1,10,0:1:0:0:
435,119,173994,1,0,0:2:0:0:
118,132,174144,5,6,0:1:0:0:
393,251,174294,1,0,0:2:0:0:
227,121,174444,1,8,0:2:0:0:
283,261,174594,1,2,0:2:0:0:
283,261,174669,1,0,0:2:0:0:
283,261,174744,1,0,0:2:0:0:
315,54,174894,1,2,0:2:0:0:
196,329,175044,1,8,0:2:0:0:
325,163,175194,1,0,0:2:0:0:
185,219,175344,5,2,0:1:0:0:
106,243,175494,1,0,0:2:0:0:
227,121,175644,1,10,0:1:0:0:
202,42,175794,1,0,0:2:0:0:
326,164,175944,1,2,0:1:0:0:
405,140,176094,1,0,0:2:0:0:
283,261,176244,1,10,0:1:0:0:
307,340,176394,1,0,0:2:0:0:
88,238,176544,6,2,B|22:198|67:118|73:122|79:126|141:62|77:0,1,268.799991796875,6|0,0:1|0:1,0:1:0:0:
424,146,176994,2,2,B|490:186|445:266|439:262|433:258|371:322|435:384,1,268.799991796875,6|0,0:1|0:2,0:1:0:0:
0,296,177444,6,2,B|191:228|112:366|294:302,1,307.2,6|0,0:1|0:2,0:1:0:0:
505,72,177894,2,2,B|314:4|393:142|211:78,1,307.2,6|8,0:1|0:2,0:1:0:0:
65,6,178344,5,10,0:1:0:0:
107,367,178494,1,10,0:1:0:0:
447,6,178644,1,10,0:1:0:0:
405,367,178794,1,10,0:1:0:0:
256,192,178944,6,0,B|247:276|346:332|420:269,1,230.39999296875,14|8,0:1|0:2,0:1:0:0:
394,62,179394,1,2,0:1:0:0:
394,62,179469,1,0,0:2:0:0:
394,62,179544,2,0,B|448:30|516:50,1,115.199996484375,0|0,0:2|0:2,0:2:0:0:
256,192,179844,5,10,0:1:0:0:
256,192,179994,1,0,0:2:0:0:
377,233,180144,5,2,0:1:0:0:
297,71,180294,1,0,0:2:0:0:
135,151,180444,1,8,0:2:0:0:
215,313,180594,1,2,0:2:0:0:
215,313,180669,1,0,0:2:0:0:
215,313,180744,1,0,0:1:0:0:
377,233,180894,1,0,0:2:0:0:
297,71,181044,5,10,0:2:0:0:
215,313,181194,1,0,0:2:0:0:
127,124,181344,6,2,B|49:84|-34:168|12:249,1,230.39999296875,2|8,0:1|0:2,0:1:0:0:
222,320,181794,1,2,0:1:0:0:
222,320,181869,1,0,0:2:0:0:
222,320,181944,2,0,B|159:328|113:354,1,115.199996484375,0|0,0:2|0:2,0:2:0:0:
290,64,182244,2,0,B|353:56|399:30,1,115.199996484375,10|0,0:1|0:2,0:2:0:0:
129,124,182544,5,2,0:1:0:0:
381,258,182694,1,0,0:2:0:0:
185,49,182844,5,10,0:1:0:0:
325,333,182994,1,0,0:2:0:0:
285,19,183144,5,2,0:1:0:0:
225,363,183294,1,0,0:2:0:0:
391,58,183444,5,10,0:1:0:0:
119,324,183594,1,0,0:2:0:0:
427,166,183744,5,6,0:1:0:0:
83,215,183894,1,0,0:2:0:0:
381,258,184044,1,8,0:2:0:0:
129,124,184194,1,2,0:2:0:0:
129,124,184269,1,0,0:2:0:0:
129,124,184344,1,0,0:2:0:0:
342,183,184494,5,2,0:2:0:0:
255,192,184644,1,8,0:2:0:0:
170,201,184794,1,0,0:2:0:0:
385,262,184944,5,2,0:1:0:0:
385,262,185094,1,0,0:2:0:0:
129,124,185244,5,10,0:1:0:0:
129,124,185394,1,0,0:2:0:0:
228,359,185544,5,2,0:1:0:0:
228,359,185694,1,0,0:2:0:0:
284,25,185844,5,10,0:1:0:0:
284,25,185994,1,0,0:2:0:0:
459,299,186144,6,2,B|516:166|440:41,1,268.799991796875,6|0,0:1|0:2,0:1:0:0:
53,85,186594,2,2,B|-4:218|72:343,1,268.799991796875,6|0,0:1|0:2,0:1:0:0:
482,314,187044,6,2,B|546:162|460:20,1,307.2,6|0,0:1|0:2,0:1:0:0:
30,70,187494,2,2,B|-34:221|51:363,1,307.2,6|8,0:1|0:2,0:1:0:0:
366,283,187944,1,8,0:2:0:0:
256,192,188094,5,2,3:1:0:0:
223,159,188169,1,0,3:3:0:0:
176,159,188244,1,0,3:3:0:0:
143,191,188319,1,0,3:3:0:0:
110,223,188394,1,0,3:3:0:0:
63,223,188469,1,0,3:3:0:0:
30,190,188544,2,0,B|3:84|104:31,1,192,6|8,0:1|0:2,0:2:0:0:
482,194,188994,2,0,B|509:300|408:353,1,192,2|0,0:1|0:2,0:2:0:0:
256,192,189444,5,10,0:1:0:0:
256,192,189594,1,0,0:2:0:0:
387,252,189744,6,0,B|416:142|346:74,1,192,2|8,0:1|0:2,0:2:0:0:
125,132,190194,2,0,B|96:242|166:310,1,192,2|0,0:1|0:2,0:2:0:0:
256,192,190644,5,10,0:1:0:0:
256,192,190794,1,0,0:2:0:0:
387,252,190944,5,2,0:2:0:0:
125,132,191094,1,0,0:2:0:0:
303,280,191244,1,8,0:2:0:0:
209,104,191394,1,2,0:2:0:0:
209,104,191469,1,0,0:2:0:0:
209,104,191544,1,0,0:2:0:0:
218,260,191694,1,0,0:2:0:0:
293,123,191844,1,8,0:2:0:0:
310,287,191994,5,0,0:2:0:0:
310,287,192069,1,0,0:2:0:0:
310,287,192144,2,0,B|403:344|489:250,1,192,2|8,0:1|0:1,0:1:0:0:
202,97,192594,2,0,B|109:40|23:134,1,192,2|0,0:1|0:2,0:2:0:0:
256,192,193044,5,10,0:1:0:0:
256,192,193194,1,0,0:2:0:0:
167,374,193344,6,0,B|84:295|126:200,1,192,6|8,0:1|0:2,0:2:0:0:
345,10,193794,2,0,B|427:88|385:183,1,192,2|0,0:1|0:2,0:2:0:0:
256,192,194244,5,10,0:2:0:0:
256,192,194394,1,0,0:2:0:0:
355,253,194544,5,2,0:1:0:0:
153,304,194694,1,0,0:2:0:0:
355,253,194844,1,8,0:2:0:0:
162,162,194994,1,2,0:1:0:0:
162,162,195069,1,0,0:2:0:0:
162,162,195144,1,0,0:2:0:0:
322,49,195294,5,6,0:1:0:0:
287,384,195444,1,6,0:1:0:0:
162,162,195744,5,6,0:1:0:0:
60,355,195894,1,0,0:2:0:0:
28,125,196044,1,8,0:2:0:0:
155,306,196194,1,2,0:1:0:0:
155,306,196269,1,0,0:2:0:0:
155,306,196344,1,0,0:2:0:0:
116,66,196494,1,2,0:1:0:0:
22,236,196644,1,8,0:2:0:0:
22,236,196794,1,8,0:2:0:0:
13,51,196944,5,2,0:1:0:0:
270,187,197094,1,0,0:2:0:0:
227,17,197244,5,8,0:2:0:0:
29,243,197394,1,2,0:1:0:0:
29,243,197469,1,0,0:2:0:0:
29,243,197544,1,0,0:2:0:0:
124,1,197694,5,6,0:1:0:0:
256,384,197844,1,6,0:1:0:0:
209,260,198144,6,0,B|113:307|28:242,1,192,4|8,0:1|0:2,0:2:0:0:
208,55,198594,1,2,0:2:0:0:
208,55,198669,1,0,0:2:0:0:
208,55,198744,2,0,B|245:90|249:161,1,96,0|0,0:2|0:2,0:2:0:0:
12,106,199044,2,0,B|24:57|67:30,1,96,10|0,0:2|0:2,0:2:0:0:
247,140,199344,5,2,0:2:0:0:
126,182,199494,1,0,0:2:0:0:
305,228,199644,1,8,0:2:0:0:
184,270,199794,1,2,0:2:0:0:
184,270,199869,1,0,0:2:0:0:
184,270,199944,2,0,P|139:276|75:290,1,96,0|0,0:2|0:2,0:2:0:0:
339,373,200244,2,0,P|292:363|244:356,1,96,8|0,0:2|0:2,0:2:0:0:
384,220,200544,6,0,B|446:250|516:208|512:127,1,192,2|8,0:2|0:2,0:2:0:0:
301,0,200994,1,2,0:2:0:0:
301,0,201069,1,0,0:2:0:0:
301,0,201144,1,0,0:2:0:0:
211,171,201294,1,0,0:2:0:0:
172,22,201444,1,10,0:2:0:0:
338,137,201594,1,0,0:2:0:0:
111,241,201744,5,2,0:2:0:0:
321,297,201894,1,0,0:2:0:0:
211,171,202044,1,8,0:2:0:0:
204,376,202194,1,2,0:2:0:0:
204,376,202269,1,0,0:2:0:0:
204,376,202344,2,0,L|220:264,1,96,0|0,0:2|0:2,0:2:0:0:
256,32,202644,5,10,0:2:0:0:
256,32,202794,1,0,0:2:0:0:
116,223,202944,6,0,B|48:245|-12:194|6:116,1,192,6|8,0:2|0:2,0:2:0:0:
146,14,203394,1,2,0:2:0:0:
146,14,203469,1,0,0:2:0:0:
146,14,203544,2,0,B|98:1|36:-1,1,96,0|0,0:2|0:2,0:2:0:0:
218,171,203844,2,0,B|264:169|312:156,1,96,10|0,0:2|0:2,0:2:0:0:
510,79,204144,5,2,0:2:0:0:
386,27,204294,1,0,0:2:0:0:
377,238,204444,1,8,0:2:0:0:
428,124,204594,1,2,0:2:0:0:
428,124,204669,1,0,0:2:0:0:
428,124,204744,1,0,0:2:0:0:
276,248,204894,1,0,0:2:0:0:
451,313,205044,1,8,0:2:0:0:
451,313,205194,1,0,0:2:0:0:
237,368,205344,6,0,B|309:402|373:349|367:279,1,192,2|8,0:2|0:2,0:2:0:0:
99,192,205794,1,2,0:2:0:0:
99,192,205869,1,0,0:2:0:0:
99,192,205944,2,0,B|47:200|-4:218,1,96,0|0,0:2|0:2,0:2:0:0:
413,192,206244,2,0,B|465:184|516:166,1,96,10|0,0:2|0:2,0:2:0:0:
183,15,206544,5,2,0:2:0:0:
329,369,206694,1,0,0:2:0:0:
318,47,206844,5,8,0:1:0:0:
194,337,206994,1,0,0:2:0:0:
353,133,207144,5,2,0:2:0:0:
304,141,207219,1,0,0:2:0:0:
270,177,207294,1,0,0:2:0:0:
265,227,207369,1,0,0:2:0:0:
291,267,207444,1,8,0:2:0:0:
496,165,207594,1,8,0:2:0:0:
77,19,207744,1,14,2:2:0:0:
