osu file format v14

[General]
AudioFilename: audio.mp3
AudioLeadIn: 0
PreviewTime: 54677
Countdown: 1
SampleSet: Normal
StackLeniency: 0.7
Mode: 0
LetterboxInBreaks: 0
WidescreenStoryboard: 1

[Editor]
Bookmarks: 31185,167693,167851,226185
DistanceSpacing: 2
BeatDivisor: 4
GridSize: 8
TimelineZoom: 2.1

[Metadata]
Title:"D" Chronicle
TitleUnicode:"D" Chronicle
Artist:Yousei Teikoku
ArtistUnicode:妖精帝國
Creator:IsomirDiYandere
Version:Fruity's Hard
Source:SHADOW CORPS[e]
Tags:yousei teikoku shadow corps corps[e] d "d" chronicle metal gothic dragon
BeatmapID:1274544
BeatmapSetID:588120

[Difficulty]
HPDrainRate:3
CircleSize:3.6
OverallDifficulty:6
ApproachRate:8.3
SliderMultiplier:0.8
SliderTickRate:2

[Events]
//Background and Video events
0,0,"8JFUpLg-dragon-wallpaper-1920x1080.jpg",0,0
//Break Periods
2,2654,4449
2,80908,85877
2,146940,151704
2,157733,167147
2,172971,177306
//Storyboard Layer 0 (Background)
//Storyboard Layer 1 (Fail)
//Storyboard Layer 2 (Pass)
//Storyboard Layer 3 (Foreground)
//Storyboard Sound Samples

[TimingPoints]
74,317.460317460317,4,1,0,70,1,0
61026,-100,4,1,0,70,0,1
81264,-76.9230769230769,4,1,0,70,0,0
101185,-55.5555555555556,4,1,0,70,0,0
101581,-76.9230769230769,4,1,0,70,0,0
127058,-66.6666666666667,4,1,0,70,0,1
147137,-100,4,1,0,70,0,0
187454,-200,4,1,0,70,0,0
188089,-83.3333333333333,4,1,0,70,0,1
206026,-66.6666666666667,4,1,0,70,0,0
245153,-66.6666666666667,4,1,0,70,0,1
265470,-80,4,1,0,70,0,0
283248,-60.2409638554217,4,1,0,70,0,0
285946,-100,4,1,0,70,0,0

[Colours]
Combo1 : 224,197,5
Combo2 : 70,70,70
Combo3 : 28,147,147
Combo4 : 0,98,145
Combo5 : 210,0,0
Combo6 : 255,98,21

[HitObjects]
120,88,74,6,0,P|176:80|200:88,1,80
120,208,708,1,0,0:0:0:0:
152,272,867,2,0,P|184:304|232:304,1,80
280,280,1343,2,0,L|296:240,2,40
424,280,1978,1,0,0:0:0:0:
432,208,2137,2,0,L|480:208,2,40
104,64,5153,5,0,0:0:0:0:
104,64,5312,1,0,0:0:0:0:
104,64,5470,2,0,P|128:104|160:128,1,80
232,96,5947,2,0,L|248:56,1,40
296,120,6264,2,0,L|328:80,1,40
400,112,6581,1,0,0:0:0:0:
400,112,6740,2,0,P|432:144|464:152,1,80
448,232,7216,2,0,L|400:232,1,40
456,296,7534,2,0,L|472:352,1,40
208,240,8962,5,0,0:0:0:0:
136,200,9121,2,0,L|112:192,4,20
80,144,9597,2,0,L|72:112,6,20
248,128,10232,5,0,0:0:0:0:
408,112,10550,2,0,P|376:152|336:176,1,80
200,216,11185,2,0,P|184:256|200:296,1,80
328,242,11820,2,0,P|346:206|352:167,1,80
264,88,12454,2,0,P|240:136|208:160,1,80
168,296,13089,5,0,0:0:0:0:
328,248,13407,2,0,P|376:232|376:208,1,80
220,152,14042,1,0,0:0:0:0:
192,296,14359,1,0,0:0:0:0:
352,320,14677,1,0,0:0:0:0:
408,168,14994,2,0,B|432:128|432:128|416:96,1,80
288,192,15629,6,0,P|264:184|240:136,1,80
112,256,16264,2,0,P|62:212|56:192,1,80
120,56,16899,2,0,P|136:112|160:144,1,80
256,248,17534,2,0,P|304:280|328:272,1,80
160,288,18169,1,0,0:0:0:0:
272,176,18486,1,0,0:0:0:0:
232,24,18804,1,0,0:0:0:0:
96,112,19121,1,0,0:0:0:0:
112,192,19280,2,0,L|96:224,4,20
184,216,19756,1,0,0:0:0:0:
232,304,19915,6,0,L|264:304,2,20
304,272,20232,2,0,L|320:248,2,20
240,224,20550,5,0,0:0:0:0:
120,120,20867,2,0,P|104:104|80:80,2,40
200,104,21502,1,0,0:0:0:0:
360,96,21820,2,0,P|368:64|384:48,2,40
344,176,22296,2,0,P|376:200|376:208,1,40
256,304,22772,2,0,P|272:312|304:328,1,40
456,56,23724,6,0,P|432:48|400:48,1,40
336,32,24042,1,0,0:0:0:0:
256,40,24200,2,0,P|236:42|217:49,1,40
96,144,24677,2,0,P|64:200|88:248,1,120
320,296,25629,6,0,P|312:272|312:240,1,40
240,224,25947,1,0,0:0:0:0:
304,176,26105,2,0,P|304:144|288:128,1,40
200,128,26581,2,0,L|144:128,2,40
176,208,27058,2,0,P|144:224|128:224,1,40
64,256,27375,2,0,P|40:272|32:288,1,40
192,320,27851,1,0,0:0:0:0:
272,312,28010,2,0,P|288:240|368:200,2,160
456,48,29915,1,0,0:0:0:0:
136,56,30708,6,0,P|104:64|88:80,1,40
56,136,31026,1,0,0:0:0:0:
136,144,31185,2,0,P|168:136|184:120,1,40
320,64,31661,2,0,P|344:40|360:32,1,40
424,56,31978,1,0,0:0:0:0:
408,136,32137,2,0,P|384:144|360:136,1,40
296,168,32454,1,0,0:0:0:0:
352,224,32613,1,0,0:0:0:0:
224,320,32931,2,0,P|205:325|187:317,1,40
80,80,33883,6,0,P|112:56|128:48,1,40
192,72,34200,1,0,0:0:0:0:
144,136,34359,2,0,P|136:176|144:184,1,40
128,248,34835,1,0,0:0:0:0:
256,160,35153,2,0,P|296:175|303:184,1,40
472,336,35788,6,0,P|448:296|456:264,1,80
392,216,36264,2,0,P|392:176|400:168,1,40
304,40,36740,2,0,P|280:72|280:120,1,80
344,160,37216,2,0,P|384:152|392:160,1,40
448,104,37534,1,0,0:0:0:0:
480,176,37693,2,0,P|464:184|408:224,1,80
336,248,38169,6,0,B|277:220|278:293|278:293|218:346,1,160
80,280,39121,1,0,0:0:0:0:
144,136,39439,2,0,B|192:72|240:96|240:96|296:88,1,160
416,184,40391,5,0,0:0:0:0:
280,192,40708,1,0,0:0:0:0:
280,192,40867,2,0,P|224:184|224:176,1,80
120,168,41343,2,0,L|72:184,2,40
80,96,41820,5,0,0:0:0:0:
152,56,41978,1,0,0:0:0:0:
152,56,42137,2,0,P|208:64|224:80,1,80
296,120,42613,6,0,L|336:152,1,40
256,184,42931,2,0,L|240:224,1,40
160,240,43248,2,0,L|112:256,1,40
144,328,43566,1,0,0:0:0:0:
144,328,43724,2,0,P|192:336|224:304,1,80
272,256,44200,5,0,0:0:0:0:
272,256,44359,1,0,0:0:0:0:
312,184,44518,2,0,P|288:176|256:176,1,40
328,112,44835,6,0,P|360:104|376:104,1,40
320,40,45153,2,0,L|272:48,1,40
200,64,45470,2,0,L|160:96,1,40
120,152,45788,5,0,0:0:0:0:
88,224,45947,1,0,0:0:0:0:
104,304,46105,2,0,L|160:320,1,40
224,304,46423,2,0,L|240:248,1,40
296,320,46740,2,0,L|320:272,1,40
392,280,47058,2,0,L|408:240,1,40
336,200,47375,6,0,P|304:160|320:144,1,80
232,152,47851,2,0,P|224:104|224:96,1,40
144,104,48169,1,0,0:0:0:0:
80,152,48327,6,0,P|64:176|56:200,1,40
88,264,48645,2,0,L|112:296,1,40
192,320,48962,2,0,L|240:296,1,40
208,224,49280,2,0,L|184:184,2,40
224,64,49915,6,0,L|264:32,1,40
296,112,50232,2,0,L|328:144,1,40
376,80,50550,2,0,L|424:64,1,40
448,136,50867,2,0,L|456:176,2,40
456,296,51502,6,0,L|448:256,1,40
368,272,51820,2,0,L|352:224,1,40
280,208,52137,2,0,L|240:168,1,40
192,128,52454,2,0,L|144:136,2,40
56,88,53089,6,0,L|64:128,1,40
144,112,53407,2,0,L|160:160,1,40
232,176,53724,2,0,L|272:216,1,40
320,256,54041,6,0,L|368:248,2,40
371,163,54677,6,0,P|360:91|288:96,1,160
140,163,55947,6,0,P|151:91|224:96,1,160
432,136,57216,6,0,L|368:160,2,60
456,216,57851,1,0,0:0:0:0:
144,272,58486,6,0,P|104:280|80:304,2,60
224,264,59121,1,0,0:0:0:0:
464,56,59756,6,0,L|446:26,1,20
384,80,59994,2,0,L|360:64,1,20
336,144,60232,2,0,L|303:143,1,20
320,224,60470,2,0,L|288:232,1,20
376,264,60708,2,0,L|400:280,1,20
296,304,61026,6,0,L|240:304,1,40
208,240,61343,2,0,L|200:184,1,40
136,248,61661,1,0,0:0:0:0:
88,184,61820,2,0,L|64:144,1,40
144,136,62137,2,0,L|176:104,1,40
240,152,62454,1,0,0:0:0:0:
232,72,62613,2,0,L|288:56,1,40
328,112,62931,5,0,0:0:0:0:
360,184,63089,1,0,0:0:0:0:
288,224,63248,2,0,L|240:256,1,40
184,208,63566,2,0,L|160:240,1,40
112,176,63883,1,0,0:0:0:0:
88,96,64042,1,0,0:0:0:0:
168,80,64200,1,0,0:0:0:0:
248,64,64359,1,0,0:0:0:0:
312,112,64518,2,0,L|352:152,1,40
288,200,64835,2,0,L|264:240,1,40
184,232,65153,1,0,0:0:0:0:
201,309,65312,2,0,L|257:325,1,40
320,320,65629,6,0,L|368:296,2,40
240,328,66105,2,0,B|112:352|152:232,2,160
368,224,67693,1,0,0:0:0:0:
440,72,68010,1,0,0:0:0:0:
256,128,68327,1,0,0:0:0:0:
72,72,68645,1,0,0:0:0:0:
144,224,68962,1,0,0:0:0:0:
296,264,69280,6,0,B|368:272|312:168|400:160,2,160
256,128,70867,1,0,0:0:0:0:
104,96,71185,6,0,L|80:136,1,40
160,160,71502,2,0,L|192:200,1,40
104,208,71820,2,0,L|72:240,1,40
136,288,72137,1,0,0:0:0:0:
216,296,72295,1,0,0:0:0:0:
297,299,72454,2,0,B|328:280|304:256,1,40
304,184,72772,2,0,P|304:152|320:136,1,40
408,96,73407,6,0,L|432:136,1,40
352,160,73724,2,0,L|320:200,1,40
408,208,74042,2,0,L|440:240,1,40
376,288,74359,1,0,0:0:0:0:
280,296,74517,1,0,0:0:0:0:
192,296,74677,2,0,P|160:296|136:288,1,40
72,232,74994,2,0,B|41:189|65:149,1,80
208,88,75788,5,0,0:0:0:0:
416,208,76105,1,0,0:0:0:0:
416,208,76264,2,0,P|368:272|280:296,1,160
136,328,77216,1,0,0:0:0:0:
96,176,77534,2,0,P|144:112|232:88,1,160
376,96,78486,5,0,0:0:0:0:
280,224,78804,2,0,P|224:264|128:288,2,160
280,224,80708,1,0,0:0:0:0:
440,64,86581,6,0,P|416:48|384:40,1,51.999997619629
296,72,86899,1,0,0:0:0:0:
368,144,87058,2,0,P|389:158|413:166,1,51.999997619629
408,272,87534,2,0,P|344:296|296:296,1,103.999995239258
216,248,88010,2,0,P|176:240|160:216,1,51.999997619629
88,176,88327,1,0,0:0:0:0:
112,72,88486,2,0,P|144:48|208:48,1,103.999995239258
264,136,88962,1,0,0:0:0:0:
456,48,89756,6,0,P|424:48|400:72,1,51.999997619629
376,160,90073,1,0,0:0:0:0:
280,120,90232,2,0,P|248:88|256:64,1,51.999997619629
144,64,90708,2,0,L|96:88,2,51.999997619629
248,40,91185,1,0,0:0:0:0:
72,296,91661,6,0,P|64:240|72:224,1,51.999997619629
56,144,91978,1,0,0:0:0:0:
136,216,92137,2,0,P|144:272|144:288,1,51.999997619629
216,336,92613,2,0,P|264:312|304:264,1,103.999995239258
336,176,93089,2,0,L|400:208,2,51.999997619629
296,80,93566,1,0,0:0:0:0:
192,64,93724,2,0,P|184:104|168:120,1,51.999997619629
184,216,94042,6,0,B|172:253|172:253|256:256|296:296|296:296|312:336,3,207.999990478516
456,184,96264,1,0,0:0:0:0:
160,88,96740,6,0,P|192:48|208:40,1,51.999997619629
296,64,97058,1,0,0:0:0:0:
240,152,97216,2,0,P|200:168|168:176,1,51.999997619629
56,152,97693,2,0,P|56:216|80:264,1,103.999995239258
168,280,98169,2,0,P|208:264|232:248,1,51.999997619629
304,320,98486,2,0,P|344:304|368:288,1,51.999997619629
296,208,98804,2,0,P|323:175|337:149,1,51.999997619629
232,128,99121,1,0,0:0:0:0:
64,56,99915,6,0,P|128:40|136:40,1,51.999997619629
216,72,100232,1,0,0:0:0:0:
136,144,100391,2,0,P|88:160|72:168,1,51.999997619629
72,264,100867,1,0,0:0:0:0:
184,288,101185,2,0,L|240:232,1,71.9999978027344
464,32,101820,6,0,P|416:40|400:48,1,51.999997619629
312,72,102137,1,0,0:0:0:0:
208,88,102296,2,0,P|184:64|152:48,1,51.999997619629
88,248,102772,2,0,P|136:240|152:232,1,51.999997619629
240,208,103089,1,0,0:0:0:0:
344,192,103248,2,0,P|368:216|400:232,1,51.999997619629
440,136,103566,2,0,P|456:88|456:64,1,51.999997619629
368,272,104042,1,0,0:0:0:0:
280,192,104200,6,0,P|240:120|216:120,2,103.999995239258
336,112,105153,1,0,0:0:0:0:
392,160,105470,2,0,B|416:224|408:288|408:288|352:296|320:312,2,207.999990478516
296,56,106899,5,0,0:0:0:0:
168,88,107058,2,0,L|136:144,1,51.999997619629
264,176,107375,2,0,L|280:240,1,51.999997619629
152,192,107693,2,0,L|128:256,1,51.999997619629
248,304,108010,5,0,0:0:0:0:
248,304,108169,1,0,0:0:0:0:
376,280,108327,2,0,L|432:320,1,51.999997619629
384,184,108645,2,0,L|432:144,1,51.999997619629
296,160,108962,5,0,0:0:0:0:
216,88,109121,2,0,L|256:40,1,51.999997619629
152,88,109439,2,0,L|118:48,1,51.999997619629
72,160,109756,5,0,0:0:0:0:
312,272,110073,6,0,L|272:328,1,51.999997619629
408,280,110391,2,0,L|448:328,1,51.999997619629
424,192,110708,1,0,0:0:0:0:
296,152,110867,2,0,L|344:112,1,51.999997619629
208,128,111185,2,0,L|200:64,1,51.999997619629
104,160,111502,2,0,L|56:128,1,51.999997619629
264,296,111978,6,0,L|232:232,1,51.999997619629
368,280,112296,2,0,L|336:224,1,51.999997619629
456,296,112613,2,0,L|480:248,1,51.999997619629
464,120,112931,1,0,0:0:0:0:
360,48,113089,1,0,0:0:0:0:
312,168,113248,1,0,0:0:0:0:
184,176,113407,2,0,P|144:200|120:200,1,51.999997619629
56,128,113883,6,0,P|48:168|48:184,1,51.999997619629
208,176,114200,2,0,P|227:192|252:200,1,51.999997619629
384,208,114518,6,0,L|400:232,1,25.9999988098145
368,128,114756,2,0,L|400:104,1,25.9999988098145
288,112,114994,2,0,L|264:72,1,25.9999988098145
208,168,115232,2,0,L|168:152,1,25.9999988098145
392,256,115947,6,0,L|384:208,1,25.9999988098145
464,160,116185,2,0,L|432:160,1,25.9999988098145
400,64,116423,2,0,L|376:104,1,25.9999988098145
288,56,116661,2,0,L|304:88,1,25.9999988098145
192,88,116899,1,0,0:0:0:0:
192,88,117058,1,0,0:0:0:0:
192,88,117216,1,0,0:0:0:0:
368,280,117534,6,0,L|344:304,1,25.9999988098145
248,280,117772,2,0,L|224:296,1,25.9999988098145
128,256,118010,2,0,L|96:288,1,25.9999988098145
80,176,118248,2,0,L|48:184,1,25.9999988098145
104,88,118486,2,0,L|64:40,2,51.999997619629
312,96,119121,6,0,L|328:56,1,25.9999988098145
376,160,119359,2,0,L|424:144,1,25.9999988098145
376,256,119597,2,0,L|408:280,1,25.9999988098145
296,280,119835,2,0,L|296:312,1,25.9999988098145
200,272,120073,2,0,L|144:280,2,51.999997619629
128,80,120708,6,0,P|216:64|320:136,1,207.999990478516
128,80,121661,1,0,0:0:0:0:
199,260,121978,2,0,P|283:317|384:304,1,207.999990478516
199,260,122931,1,0,0:0:0:0:
312,152,123248,6,0,L|384:120,2,77.9999964294435
312,152,123883,1,0,0:0:0:0:
384,288,124200,1,0,0:0:0:0:
200,232,124518,6,0,L|128:264,2,77.9999964294435
200,232,125153,1,0,0:0:0:0:
144,88,125470,1,0,0:0:0:0:
336,88,125788,6,0,L|296:104,1,25.9999988098145
208,120,126026,2,0,L|248:136,1,25.9999988098145
328,176,126264,2,0,L|296:192,1,25.9999988098145
208,216,126502,2,0,L|248:232,1,25.9999988098145
328,264,126740,2,0,L|288:280,1,25.9999988098145
432,312,127058,6,0,P|440:272|440:248,1,60.0000022888184
408,136,127375,2,0,P|376:96|368:88,1,60.0000022888184
288,56,127693,1,0,0:0:0:0:
200,72,127851,1,0,0:0:0:0:
136,136,128010,1,0,0:0:0:0:
96,208,128169,2,0,P|104:256|128:280,1,60.0000022888184
184,320,128486,2,0,P|248:328|272:328,1,60.0000022888184
328,304,128804,5,0,0:0:0:0:
408,256,128962,1,0,0:0:0:0:
424,168,129121,1,0,0:0:0:0:
344,128,129280,6,0,P|312:152|304:184,1,60.0000022888184
232,112,129597,2,0,P|257:96|271:70,1,60.0000022888184
184,40,129915,2,0,P|152:56|144:88,1,60.0000022888184
88,152,130232,2,0,P|104:200|128:208,1,60.0000022888184
152,280,130550,1,0,0:0:0:0:
240,296,130708,1,0,0:0:0:0:
328,280,130867,2,0,P|376:240|368:176,1,120.000004577637
256,152,131343,2,0,P|240:112|240:88,1,60.0000022888184
144,40,131661,5,0,0:0:0:0:
112,112,131978,1,0,0:0:0:0:
112,112,132137,2,0,B|104:216|216:200|216:200|256:288,2,240.000009155274
296,120,133724,1,0,0:0:0:0:
432,240,134042,6,0,P|448:280|384:336,2,120.000004577637
312,208,134835,1,0,0:0:0:0:
312,112,134994,1,0,0:0:0:0:
208,48,135153,2,0,P|168:48|128:56,1,60.0000022888184
104,160,135470,1,0,0:0:0:0:
168,264,135629,1,0,0:0:0:0:
264,336,135788,1,0,0:0:0:0:
368,272,135947,2,0,P|408:232|432:160,2,120.000004577637
200,216,136899,6,0,P|176:184|136:168,1,60.0000022888184
72,152,137216,1,0,0:0:0:0:
120,80,137375,1,0,0:0:0:0:
208,88,137534,2,0,P|264:64|336:72,1,120.000004577637
392,128,138010,2,0,P|440:128|456:120,1,60.0000022888184
416,208,138327,2,0,P|456:232|464:264,1,60.0000022888184
368,320,138645,5,0,0:0:0:0:
248,296,138804,1,0,0:0:0:0:
328,232,138962,2,0,P|320:176|304:152,1,60.0000022888184
248,72,139280,1,0,0:0:0:0:
200,168,139439,6,0,P|176:200|136:216,1,60.0000022888184
72,232,139756,1,0,0:0:0:0:
120,304,139915,1,0,0:0:0:0:
208,296,140074,2,0,P|264:320|336:312,1,120.000004577637
392,256,140550,2,0,P|440:256|456:264,1,60.0000022888184
416,176,140867,2,0,P|456:152|464:120,1,60.0000022888184
384,48,141185,1,0,0:0:0:0:
272,88,141344,1,0,0:0:0:0:
216,192,141502,2,0,P|168:160|168:144,1,60.0000022888184
128,64,141820,5,0,0:0:0:0:
80,152,142137,1,0,0:0:0:0:
80,152,142296,2,0,B|104:200|104:200|168:160|176:240|176:240|248:216,2,240.000009155274
248,88,143883,1,0,0:0:0:0:
424,88,144200,2,0,P|440:128|480:152,2,90.0000034332277
304,80,144835,1,0,0:0:0:0:
424,328,145153,1,0,0:0:0:0:
192,280,145470,1,0,0:0:0:0:
312,72,145788,1,0,0:0:0:0:
80,72,146105,1,0,0:0:0:0:
256,240,146423,1,0,0:0:0:0:
440,96,146740,1,0,0:0:0:0:
120,88,152454,6,0,P|176:80|200:88,1,80
120,208,153088,1,0,0:0:0:0:
159,288,153248,2,0,P|191:320|227:326,1,80
270,271,153724,2,0,L|285:326,2,40
424,280,154358,1,0,0:0:0:0:
432,208,154517,2,0,L|480:208,2,40
368,136,154994,5,0,0:0:0:0:
368,136,155153,1,0,0:0:0:0:
368,136,155311,2,0,P|344:96|312:72,1,80
264,160,155788,2,0,L|248:200,1,40
168,136,156105,2,0,L|136:176,1,40
112,272,156422,1,0,0:0:0:0:
112,272,156581,2,0,P|80:240|48:232,1,80
64,152,157057,2,0,L|88:112,1,40
104,80,157375,2,0,L|88:24,1,40
408,72,167851,6,0,L|384:120,2,40
456,224,168486,1,0,0:0:0:0:
456,224,168645,1,0,0:0:0:0:
456,224,168804,1,0,0:0:0:0:
328,312,169121,6,0,L|352:352,2,40
224,192,169756,1,0,0:0:0:0:
224,192,169915,1,0,0:0:0:0:
224,192,170073,1,0,0:0:0:0:
104,80,170391,6,0,L|64:104,2,40
56,232,171026,2,0,L|72:280,1,40
120,328,171343,1,0,0:0:0:0:
200,328,171502,2,0,B|232:328|240:312|240:280|240:280|256:264,4,80
448,64,178010,6,0,L|432:112,1,40
360,136,178327,2,0,L|352:176,1,40
424,216,178645,2,0,L|424:272,1,40
344,264,178962,2,0,L|328:320,1,40
256,296,179280,5,0,0:0:0:0:
176,272,179439,2,0,L|176:224,1,40
96,240,179756,2,0,L|104:192,1,40
176,168,180073,2,0,L|208:120,1,40
344,72,180550,6,0,L|320:32,1,40
400,32,180867,2,0,L|448:56,1,40
456,128,181185,2,0,L|400:120,1,40
336,136,181502,1,0,0:0:0:0:
376,208,181661,2,0,B|336:240|336:240|304:232,2,80
416,328,182613,5,0,0:0:0:0:
416,328,182931,1,0,0:0:0:0:
344,296,183089,6,0,L|312:312,2,20
296,232,183407,2,0,L|272:240,2,20
264,160,183724,2,0,L|296:144,2,20
240,80,184042,2,0,L|256:56,2,20
160,56,184359,2,0,L|144:32,2,20
88,88,184677,2,0,L|56:88,2,20
72,168,184994,2,0,L|40:176,2,20
88,248,185312,5,0,0:0:0:0:
152,296,185470,2,0,L|128:328,1,40
208,352,185788,1,0,0:0:0:0:
288,344,185947,1,0,0:0:0:0:
368,320,186105,1,0,0:0:0:0:
432,272,186264,2,0,L|480:296,1,40
480,208,186581,1,0,0:0:0:0:
448,136,186740,2,0,L|384:112,3,60
384,80,188010,5,0,0:0:0:0:
256,80,188486,1,0,0:0:0:0:
256,80,188724,1,0,0:0:0:0:
256,80,188962,2,0,L|168:112,1,71.9999978027344
88,248,189439,5,0,0:0:0:0:
88,248,189677,1,0,0:0:0:0:
88,248,189915,2,0,L|120:248,4,23.9999992675781
368,192,190708,5,0,0:0:0:0:
368,192,190947,1,0,0:0:0:0:
360,112,191185,6,0,L|320:112,2,23.9999992675781
288,120,191502,2,0,L|256:120,2,23.9999992675781
224,144,191820,2,0,L|184:144,2,23.9999992675781
96,176,192137,6,0,L|56:184,3,23.9999992675781
72,312,192613,1,0,0:0:0:0:
72,312,192851,1,0,0:0:0:0:
72,312,193089,2,0,L|112:312,3,23.9999992675781
240,288,193566,5,0,0:0:0:0:
240,288,193804,1,0,0:0:0:0:
240,288,194042,2,0,L|222:323,3,23.9999992675781
272,336,194359,2,0,L|296:352,3,23.9999992675781
248,224,194835,5,0,0:0:0:0:
248,224,195073,1,0,0:0:0:0:
248,224,195311,2,0,L|273:193,2,23.9999992675781
264,160,195629,2,0,L|264:128,2,23.9999992675781
256,88,195947,2,0,L|288:88,2,23.9999992675781
416,64,196264,6,0,L|432:40,4,23.9999992675781
288,72,196740,1,0,0:0:0:0:
144,88,196978,1,0,0:0:0:0:
40,192,197216,2,0,L|32:232,4,23.9999992675781
184,296,197693,5,0,0:0:0:0:
328,312,197931,1,0,0:0:0:0:
416,200,198169,2,0,L|456:216,3,23.9999992675781
464,168,198486,2,0,L|464:144,4,23.9999992675781
368,40,198962,5,0,0:0:0:0:
224,32,199200,1,0,0:0:0:0:
128,136,199439,2,0,L|104:160,2,23.9999992675781
152,176,199756,2,0,L|168:208,2,23.9999992675781
120,216,200073,2,0,L|96:240,2,23.9999992675781
176,312,200391,6,0,L|192:344,4,23.9999992675781
328,304,200867,1,0,0:0:0:0:
464,264,201105,1,0,0:0:0:0:
440,120,201343,2,0,L|472:112,4,23.9999992675781
256,88,201820,5,0,0:0:0:0:
256,232,202058,1,0,0:0:0:0:
136,312,202296,2,0,L|112:312,3,23.9999992675781
88,272,202613,2,0,L|56:256,4,23.9999992675781
80,120,203089,5,0,0:0:0:0:
216,72,203327,1,0,0:0:0:0:
144,192,203566,2,0,L|136:224,2,23.9999992675781
152,264,203883,2,0,L|168:304,2,23.9999992675781
192,320,204200,2,0,L|208:344,2,23.9999992675781
256,344,204518,2,0,L|288:336,16,23.9999992675781
136,304,205947,5,0,0:0:0:0:
64,208,206105,1,0,0:0:0:0:
72,88,206264,2,0,P|80:64|112:48,1,60.0000022888184
224,80,206581,2,0,P|280:72|304:80,1,60.0000022888184
384,136,206899,2,0,P|368:168|376:192,1,60.0000022888184
280,264,207216,2,0,P|256:288|216:304,3,60.0000022888184
120,264,207851,1,0,0:0:0:0:
112,144,208010,2,0,P|84:133|63:111,2,60.0000022888184
344,88,208645,5,0,0:0:0:0:
432,312,208962,1,0,0:0:0:0:
312,312,209121,2,0,P|248:320|240:312,1,60.0000022888184
144,296,209439,2,0,P|96:304|64:320,3,60.0000022888184
88,192,210073,1,0,0:0:0:0:
112,72,210232,1,0,0:0:0:0:
232,80,210391,2,0,P|272:72|312:72,2,60.0000022888184
168,184,210867,5,0,0:0:0:0:
224,288,211026,2,0,P|256:312|296:312,1,60.0000022888184
392,280,211343,2,0,P|432:248|440:232,1,60.0000022888184
416,120,211661,1,0,0:0:0:0:
320,40,211820,1,0,0:0:0:0:
208,80,211978,2,0,P|208:128|216:144,1,60.0000022888184
96,96,212296,1,0,0:0:0:0:
40,200,212454,1,0,0:0:0:0:
104,304,212613,6,0,P|144:328|152:352,1,60.0000022888184
200,232,212931,1,0,0:0:0:0:
304,288,213089,6,0,P|344:312|352:344,1,60.0000022888184
312,208,213407,2,0,P|352:224|376:248,1,60.0000022888184
304,136,213724,2,0,P|352:144|384:160,1,60.0000022888184
280,64,214042,2,0,P|320:64|360:80,1,60.0000022888184
224,112,214359,2,0,P|192:120|168:104,1,60.0000022888184
248,200,214677,2,0,P|208:208|168:192,1,60.0000022888184
248,312,214994,2,0,P|176:296|168:288,1,60.0000022888184
72,288,215312,2,0,P|48:248|48:224,1,60.0000022888184
64,120,215629,2,0,P|88:80|112:72,1,60.0000022888184
216,56,215947,1,0,0:0:0:0:
392,80,216185,6,0,L|432:104,5,30.0000011444092
400,216,216740,1,0,0:0:0:0:
312,296,216899,2,0,L|272:304,4,30.0000011444092
192,280,217375,2,0,L|136:272,4,30.0000011444092
80,248,217851,2,0,P|64:232|48:208,3,30.0000011444092
64,168,218169,2,0,L|80:128,3,30.0000011444092
152,80,218645,6,0,L|208:72,6,30.0000011444092
272,104,219280,2,0,L|328:96,6,30.0000011444092
368,176,219915,2,0,L|424:168,6,30.0000011444092
280,256,220550,2,0,L|336:248,6,30.0000011444092
192,336,221185,6,0,L|248:328,2,30.0000011444092
128,240,221502,2,0,L|104:200,2,30.0000011444092
64,136,221820,2,0,L|7:144,2,30.0000011444092
168,72,222137,2,0,L|216:48,2,30.0000011444092
272,136,222454,2,0,L|328:144,2,30.0000011444092
200,232,222772,2,0,L|248:248,2,30.0000011444092
80,264,223089,2,0,L|80:304,2,30.0000011444092
184,328,223407,2,0,L|152:336,2,30.0000011444092
304,320,223724,6,0,L|272:336,2,30.0000011444092
424,296,224042,2,0,L|400:320,2,30.0000011444092
424,176,224359,2,0,L|464:176,2,30.0000011444092
344,88,224677,2,0,L|384:64,2,30.0000011444092
224,104,224994,2,0,L|224:56,2,30.0000011444092
104,136,225312,2,0,L|88:96,2,30.0000011444092
72,248,225629,2,0,L|32:224,2,30.0000011444092
176,312,225947,1,0,0:0:0:0:
262,273,226105,6,0,P|222:257|214:193,1,90.0000034332277
185,64,226581,1,0,0:0:0:0:
104,136,226740,1,0,0:0:0:0:
208,216,227058,2,0,L|152:248,2,60.0000022888184
368,304,227693,6,0,P|408:320|464:312,1,90.0000034332277
448,174,228169,1,0,0:0:0:0:
416,88,228328,1,0,0:0:0:0:
328,88,228486,1,0,0:0:0:0:
240,80,228645,2,0,L|184:48,2,60.0000022888184
96,272,229280,6,0,P|140:267|181:284,1,90.0000034332277
320,288,229756,1,0,0:0:0:0:
264,216,229915,1,0,0:0:0:0:
96,272,230232,2,0,L|40:224,2,60.0000022888184
424,72,230868,6,0,P|384:56|328:64,1,90.0000034332277
200,64,231343,1,0,0:0:0:0:
120,112,231502,1,0,0:0:0:0:
128,296,231820,2,0,L|72:328,2,60.0000022888184
400,136,232454,6,0,P|368:112|344:40,1,90.0000034332277
208,72,232931,2,0,L|136:104,2,60.0000022888184
216,160,233407,1,0,0:0:0:0:
152,224,233566,1,0,0:0:0:0:
208,296,233724,1,0,0:0:0:0:
384,320,234042,6,0,P|400:280|384:232,1,90.0000034332277
328,112,234518,1,0,0:0:0:0:
240,96,234677,1,0,0:0:0:0:
152,112,234835,1,0,0:0:0:0:
80,168,234994,2,0,L|48:224,2,60.0000022888184
432,72,235629,6,0,P|384:56|320:72,1,90.0000034332277
216,80,236105,1,0,0:0:0:0:
128,112,236264,2,0,L|80:144,2,30.0000011444092
160,200,236581,1,0,0:0:0:0:
240,240,236740,1,0,0:0:0:0:
320,200,236899,1,0,0:0:0:0:
72,336,237216,6,0,P|56:288|56:240,1,90.0000034332277
72,112,237693,1,0,0:0:0:0:
152,72,237851,2,0,P|192:56|224:56,1,60.0000022888184
296,64,238169,2,0,L|368:56,2,60.0000022888184
312,152,238804,6,0,L|394:110,2,90.0000034332277
312,152,239439,1,0,0:0:0:0:
200,232,240073,6,0,L|118:284,2,90.0000034332277
200,232,240709,1,0,0:0:0:0:
312,152,241343,6,0,B|318:95|318:95|339:75|375:83,2,90.0000034332277
259,225,241978,1,0,0:0:0:0:
200,152,242613,6,0,B|194:95|194:95|173:75|137:83,2,90.0000034332277
259,225,243248,1,0,0:0:0:0:
448,56,243883,6,0,L|448:96,1,30.0000011444092
360,120,244121,2,0,L|360:160,1,30.0000011444092
280,184,244359,2,0,L|279:225,1,30.0000011444092
192,240,244597,2,0,L|192:272,1,30.0000011444092
104,280,244835,2,0,L|104:312,1,30.0000011444092
328,328,245153,6,0,P|368:304|384:288,1,60.0000022888184
464,176,245470,1,0,0:0:0:0:
368,64,245629,1,0,0:0:0:0:
216,72,245788,2,0,P|160:64|136:72,1,60.0000022888184
64,176,246105,1,0,0:0:0:0:
136,304,246264,1,0,0:0:0:0:
280,256,246423,2,0,P|224:216|224:168,1,120.000004577637
344,152,246899,1,0,0:0:0:0:
280,256,247058,2,0,P|288:296|320:312,1,60.0000022888184
424,328,247375,6,0,P|440:280|440:248,1,60.0000022888184
400,120,247693,1,0,0:0:0:0:
264,48,247851,1,0,0:0:0:0:
120,96,248010,1,0,0:0:0:0:
72,240,248169,2,0,P|112:288|128:296,1,60.0000022888184
256,312,248486,1,0,0:0:0:0:
400,272,248645,1,0,0:0:0:0:
280,176,248804,1,0,0:0:0:0:
384,72,248962,2,0,P|408:112|384:192,1,120.000004577637
272,192,249439,2,0,P|240:192|216:160,1,60.0000022888184
160,80,249756,6,0,P|112:72|48:112,1,120.000004577637
56,256,250232,2,0,B|88:288|144:304|144:304|208:256|232:312|232:312|232:312,1,180.000006866455
360,320,250867,2,0,B|432:304|392:240|392:240|360:184|416:168,1,180.000006866455
264,104,251502,1,0,0:0:0:0:
24,136,251820,1,0,0:0:0:0:
208,272,252137,6,0,B|136:296|136:296|136:328|96:352,2,120.000004577637
224,32,253089,1,0,0:0:0:0:
448,112,253407,6,0,P|416:88|400:64,2,60.0000022888184
112,144,254042,2,0,P|80:160|64:192,2,60.0000022888184
256,304,254677,2,0,P|280:344|296:352,2,60.0000022888184
440,80,255312,6,0,P|408:48|376:40,1,60.0000022888184
248,64,255629,1,0,0:0:0:0:
104,104,255788,1,0,0:0:0:0:
96,256,255947,2,0,P|120:312|136:320,1,60.0000022888184
264,328,256264,2,0,P|256:288|264:256,1,60.0000022888184
400,328,256581,2,0,P|376:288|384:264,1,60.0000022888184
440,136,256899,1,0,0:0:0:0:
336,80,257058,2,0,P|304:56|264:64,1,60.0000022888184
168,32,257375,1,0,0:0:0:0:
56,64,257534,6,0,P|56:112|88:128,1,60.0000022888184
208,144,257851,2,0,P|248:168|248:200,1,60.0000022888184
112,248,258169,1,0,0:0:0:0:
256,288,258327,1,0,0:0:0:0:
208,144,258486,1,0,0:0:0:0:
64,96,258645,2,0,P|104:64|120:64,1,60.0000022888184
256,88,258962,2,0,P|280:56|304:48,1,60.0000022888184
448,312,259439,1,0,0:0:0:0:
64,80,259915,5,0,0:0:0:0:
160,80,260232,1,0,0:0:0:0:
160,80,260391,2,0,B|200:136|256:72|256:72|288:120|320:96|320:96|352:48,2,240.000009155274
120,320,261978,1,0,0:0:0:0:
368,328,262296,6,0,B|400:320|400:320|400:272|440:256,2,90.0000034332277
328,216,262931,1,0,0:0:0:0:
240,264,263248,1,0,0:0:0:0:
96,64,263566,1,0,0:0:0:0:
240,264,263883,1,0,0:0:0:0:
392,64,264200,1,0,0:0:0:0:
240,272,264518,1,0,0:0:0:0:
472,320,264835,1,0,0:0:0:0:
80,120,265470,6,0,P|136:96|192:96,1,100
424,136,266105,1,0,0:0:0:0:
176,184,266423,1,0,0:0:0:0:
416,256,266740,1,0,0:0:0:0:
168,288,267058,1,0,0:0:0:0:
64,64,267375,2,0,P|72:112|104:160,1,100
200,160,268010,2,0,B|216:104|240:72|280:64|280:64|256:32,3,150
432,296,269915,5,0,0:0:0:0:
456,96,270232,1,0,0:0:0:0:
304,224,270550,2,0,B|256:240|200:280|200:280|168:240,1,150
104,144,271820,6,0,B|120:88|168:72|168:72|232:104|280:72,2,200
424,320,274042,2,0,P|432:256|424:208,1,100
248,312,274677,1,0,0:0:0:0:
80,200,274994,1,0,0:0:0:0:
280,200,275312,1,0,0:0:0:0:
128,328,275629,1,0,0:0:0:0:
168,136,275947,1,0,0:0:0:0:
360,80,276264,6,0,P|416:72|456:96,1,100
288,216,276899,2,0,P|256:160|248:120,1,100
328,312,277534,2,0,P|392:288|424:256,1,100
224,320,278169,5,0,0:0:0:0:
88,176,278486,1,0,0:0:0:0:
264,80,278804,1,0,0:0:0:0:
440,176,279121,2,0,B|384:224|352:296|352:296|288:304,2,200
240,192,280708,2,0,B|160:144|160:112|160:112|216:72|288:72|288:72|344:72|344:72|336:152|304:160,1,400
88,304,282613,2,0,P|72:248|128:120,2,200
352,320,284200,2,0,P|400:288|384:208,1,132.800001925049
