osu file format v14

[General]
AudioFilename: audio.mp3
AudioLeadIn: 0
PreviewTime: 57214
Countdown: 0
SampleSet: Normal
StackLeniency: 0.7
Mode: 0
LetterboxInBreaks: 0
WidescreenStoryboard: 1

[Editor]
DistanceSpacing: 1.2
BeatDivisor: 4
GridSize: 4
TimelineZoom: 2.999999

[Metadata]
Title:Baptize (TV Size)
TitleUnicode:Baptize (TV Size)
Artist:Yousei Teikoku
ArtistUnicode:妖精帝国
Creator:ShiraKai
Version:Stigmata
Source:聖痕のクェイサー
Tags:kacha seikon no qwaser
BeatmapID:911106
BeatmapSetID:421213

[Difficulty]
HPDrainRate:6.8
CircleSize:4.2
OverallDifficulty:6.7
ApproachRate:9.3
SliderMultiplier:1.7
SliderTickRate:2

[Events]
//Background and Video events
0,0,"BG.jpg",0,0
//Break Periods
//Storyboard Layer 0 (Background)
//Storyboard Layer 1 (Fail)
//Storyboard Layer 2 (Pass)
//Storyboard Layer 3 (Foreground)
//Storyboard Sound Samples

[TimingPoints]
2714,285.714285714286,4,2,1,50,1,0
9571,-83.3333333333333,4,2,1,60,0,0
9589,-83.3333333333333,4,2,0,60,0,0
9856,-100,4,2,1,50,0,0
11856,-100,4,1,1,60,0,0
20999,-111.111111111111,4,2,1,40,0,0
21142,-111.111111111111,4,2,2,40,0,0
22410,-111.111111111111,4,2,7,30,0,0
22446,-111.111111111111,4,2,2,40,0,0
24696,-111.111111111111,4,2,7,30,0,0
24731,-111.111111111111,4,2,2,40,0,0
25428,-111.111111111111,4,2,3,45,0,0
28124,-111.111111111111,4,2,8,35,0,0
28160,-111.111111111111,4,2,3,45,0,0
28999,-125,4,2,1,50,0,0
29285,-117.647058823529,4,2,3,60,0,0
29571,-111.111111111111,4,2,1,70,0,0
29856,-111.111111111111,4,1,1,50,0,0
30142,-100,4,1,1,60,0,0
39285,-100,4,2,4,55,0,0
39928,-100,4,2,1,10,0,0
39999,-100,4,2,4,55,0,0
40696,-100,4,2,8,45,0,0
40731,-100,4,2,4,55,0,0
42981,-100,4,2,8,45,0,0
43017,-100,4,2,4,55,0,0
45267,-100,4,2,8,45,0,0
45303,-100,4,2,4,55,0,0
46410,-100,4,2,8,45,0,0
46446,-100,4,2,4,55,0,0
47285,-100,4,1,1,55,0,0
47571,-100,4,1,2,45,0,0
47856,-100,4,1,1,60,0,0
48142,-100,4,1,1,40,0,0
48428,-125,4,2,4,50,0,0
56428,-100,4,1,1,60,0,0
56856,-83.3333333333333,4,1,1,75,0,0
57214,-83.3333333333333,4,2,1,10,0,0
57285,-166.666666666667,4,2,1,60,0,0
57571,-100,4,1,1,80,0,1
64696,-100,4,1,8,70,0,1
64731,-100,4,1,1,80,0,1
66428,-166.666666666667,4,2,1,60,0,0
66714,-100,4,1,1,80,0,1
73839,-100,4,1,8,70,0,1
73874,-100,4,1,1,80,0,1
75856,-100,4,1,1,70,0,0
84999,-100,4,1,1,60,0,0
87285,-100,4,1,1,70,0,0
88142,-100,4,1,1,80,0,0

[HitObjects]
59,222,2713,6,0,B|90:217|116:203|116:203|154:206|191:203,1,127.5,6|0,0:0|0:0,0:0:0:0:
224,130,2999,2,0,P|206:172|178:208,1,85,8|0,0:0|0:0,0:0:0:0:
68,124,3285,1,2,0:0:0:0:
113,51,3428,1,2,0:0:0:0:
224,130,3571,2,0,P|266:125|306:112,1,85,8|0,0:0|0:0,0:0:0:0:
412,33,3856,6,0,L|399:167,1,127.5,2|0,0:0|0:0,0:0:0:0:
482,176,4142,2,0,P|434:170|390:155,1,85,8|0,0:0|0:0,0:0:0:0:
306,112,4428,1,2,0:0:0:0:
289,219,4571,1,2,0:0:0:0:
399,158,4714,2,0,L|408:251,1,85,8|0,0:0|0:0,0:0:0:0:
474,335,4999,6,0,B|421:334|421:334|396:326|396:326|343:325,1,127.5,2|0,0:0|0:0,0:0:0:0:
285,379,5285,2,0,P|330:351|349:322,1,85,8|0,0:0|0:0,0:0:0:0:
407,242,5571,1,2,0:0:0:0:
289,219,5714,1,2,0:0:0:0:
399,158,5856,2,0,L|408:251,1,85,8|0,0:0|0:0,0:0:0:0:
302,92,6142,6,0,L|288:228,1,127.5,2|0,0:0|0:0,0:0:0:0:
289,219,6428,1,8,0:0:0:0:
145,254,6571,1,2,0:0:0:0:
220,85,6714,2,0,B|249:77|249:77|303:92,1,85,2|0,0:0|0:0,0:0:0:0:
145,254,6999,2,0,B|153:225|153:225|138:171,1,85,8|2,0:0|0:0,0:0:0:0:
16,74,7285,6,0,B|62:90|62:90|145:56,1,127.5,6|0,0:0|0:0,0:0:0:0:
192,3,7571,2,0,P|149:30|133:69,1,85,8|0,0:0|0:0,0:0:0:0:
145,254,7856,1,2,0:0:0:0:
68,163,7999,1,2,0:0:0:0:
220,85,8142,2,0,P|260:79|312:100,1,85,8|0,0:0|0:0,0:0:0:0:
433,169,8428,6,0,L|293:178,1,127.5,2|0,0:0|0:0,0:0:0:0:
224,184,8714,2,0,P|264:190|316:169,1,85,8|0,0:0|0:0,0:0:0:0:
398,63,8999,1,2,0:0:0:0:
433,169,9142,1,2,0:0:0:0:
474,271,9285,2,0,B|444:277|444:277|382:256,1,85,8|0,0:0|0:0,0:0:0:0:
305,176,9571,6,2,B|304:182|305:191|305:191|297:193|297:193|303:199|303:199|310:197|310:197|303:228|303:228|308:258|308:258|299:285|309:336,1,152.999995330811,4|0,0:0|0:0,0:1:0:0:
223,297,9856,2,0,B|253:291|253:291|315:312,1,85,8|0,0:0|0:0,0:0:0:0:
389,374,10142,1,2,0:0:0:0:
474,271,10285,1,2,0:0:0:0:
305,176,10428,2,0,B|275:170|275:170|213:191,1,85,8|0,0:0|0:0,0:0:0:0:
126,264,10714,6,0,B|71:273|1:257|1:257|36:254|58:243,1,170,2|8,0:0|0:0,0:0:0:0:
198,193,11142,2,0,B|217:239|217:239|197:361,1,170,2|2,0:0|0:0,0:0:0:0:
44,248,11571,1,0,1:0:0:0:
36,210,11642,1,0,1:0:0:0:
51,174,11714,1,0,1:0:0:0:
79,148,11785,1,0,1:0:0:0:
116,143,11856,6,0,P|165:144|220:126,1,85,6|0,0:0|0:0,0:0:0:0:
433,67,12142,2,0,P|391:57|349:59,1,85,10|0,0:0|0:0,0:0:0:0:
215,170,12428,1,0,0:0:0:0:
260,34,12571,1,2,0:0:0:0:
260,34,12642,1,0,0:0:0:0:
260,34,12714,1,10,0:0:0:0:
366,133,12856,1,0,0:0:0:0:
289,224,12999,6,0,L|194:218,1,85,6|0,0:0|0:0,0:0:0:0:
376,334,13285,2,0,P|418:317|446:285,1,85,10|0,0:0|0:0,0:0:0:0:
485,199,13571,1,0,0:0:0:0:
371,251,13714,1,2,0:0:0:0:
371,251,13785,1,0,0:0:0:0:
371,251,13856,1,10,0:0:0:0:
452,384,13999,1,0,0:0:0:0:
278,320,14142,6,0,P|232:316|183:314,1,85,6|0,0:0|0:0,0:0:0:0:
49,255,14428,2,0,P|20:285|4:325,1,85,10|0,0:0|0:0,0:0:0:0:
168,344,14714,1,0,0:0:0:0:
106,164,14856,1,2,0:0:0:0:
106,164,14928,1,0,0:0:0:0:
106,164,14999,1,10,0:0:0:0:
49,255,15142,1,0,0:0:0:0:
176,232,15285,6,0,P|186:188|191:80,1,127.5,2|0,0:0|0:0,0:0:0:0:
192,106,15571,1,8,0:0:0:0:
15,62,15714,2,0,P|19:104|29:146,1,85,2|0,0:0|0:0,0:0:0:0:
172,250,15999,1,2,0:2:0:0:
208,238,16071,1,2,0:2:0:0:
245,242,16142,1,8,0:0:0:0:
282,231,16214,1,0,0:0:0:0:
318,221,16285,1,0,0:0:0:0:
354,232,16356,1,0,0:0:0:0:
392,225,16428,6,0,P|423:187|436:132,1,85,6|0,0:0|0:0,0:0:0:0:
288,333,16714,2,0,P|242:319|203:317,1,85,10|0,0:0|0:0,0:0:0:0:
70,268,16999,1,0,0:0:0:0:
141,201,17142,1,2,0:0:0:0:
141,201,17214,1,0,0:0:0:0:
141,201,17285,1,10,0:0:0:0:
136,339,17428,1,0,0:0:0:0:
3,316,17571,6,0,B|-4:279|-4:279|0:222,1,85,6|0,0:0|0:0,0:0:0:0:
95,107,17856,2,0,B|102:70|102:70|98:13,1,85,10|0,0:0|0:0,0:0:0:0:
141,201,18142,1,0,0:0:0:0:
8,141,18285,1,2,0:0:0:0:
8,141,18356,1,0,0:0:0:0:
8,141,18428,1,10,0:0:0:0:
70,268,18571,1,0,0:0:0:0:
237,237,18714,6,0,B|261:208|261:208|286:157,1,85,6|0,0:0|0:0,0:0:0:0:
358,26,18999,2,0,B|378:68|378:68|403:97,1,85,10|0,0:0|0:0,0:0:0:0:
498,175,19285,1,0,0:0:0:0:
355,156,19428,1,2,0:0:0:0:
355,156,19499,1,0,0:0:0:0:
355,156,19571,1,10,0:0:0:0:
343,283,19714,1,0,0:0:0:0:
487,301,19856,6,0,B|497:265|497:265|498:154,1,127.5,2|0,0:0|0:0,0:0:0:0:
498,175,20142,1,8,0:0:0:0:
356,366,20285,2,0,L|343:283,1,85,2|8,0:0|0:0,0:0:0:0:
309,263,20499,5,0,0:0:0:0:
271,273,20571,1,10,0:0:0:0:
233,275,20642,1,0,0:0:0:0:
196,264,20714,1,10,0:0:0:0:
169,226,20785,1,0,0:0:0:0:
131,216,20856,1,8,0:0:0:0:
93,214,20928,1,0,0:0:0:0:
56,225,21000,5,2,0:0:0:0:
136,126,21142,2,0,P|142:81|145:46,1,76.4999976654053,2|8,0:0|0:0,0:0:0:0:
244,169,21428,2,0,B|281:146|284:110|284:110|293:103|293:103|285:58|304:25,1,152.999995330811,2|2,0:0|0:0,0:0:0:0:
210,105,21856,1,8,0:0:0:0:
280,34,21999,1,2,0:0:0:0:
479,73,22285,6,0,B|497:60|497:60|367:72,1,152.999995330811,2|2,0:0|0:0,0:0:0:0:
341,179,22714,1,4,0:0:0:0:
244,169,22856,1,2,0:0:0:0:
371,280,22999,1,12,0:0:0:0:
341,179,23141,1,2,0:0:0:0:
341,179,23428,5,2,0:0:0:0:
371,280,23571,1,8,0:0:0:0:
478,279,23714,1,2,0:0:0:0:
478,279,23999,1,2,0:0:0:0:
371,280,24142,1,8,0:0:0:0:
313,367,24285,1,2,0:0:0:0:
313,367,24571,6,0,B|291:370|291:370|275:355|275:355|234:366|234:366|197:356|155:363,1,152.999995330811,2|2,0:0|0:0,0:0:0:0:
73,320,24999,1,4,0:0:0:0:
176,289,25142,1,2,0:0:0:0:
96,254,25285,1,12,0:0:0:0:
46,356,25428,1,10,0:0:0:0:
46,356,25714,5,2,0:0:0:0:
146,306,25856,1,8,0:0:0:0:
47,251,25999,1,2,0:0:0:0:
130,201,26142,1,0,0:0:0:0:
27,145,26285,1,2,0:0:0:0:
97,52,26428,1,8,0:0:0:0:
197,144,26571,2,0,P|243:148|311:64,1,152.999995330811,2|2,0:0|0:0,0:0:0:0:
229,68,26999,5,8,0:0:0:0:
229,68,27142,1,2,0:0:0:0:
288,208,27285,1,4,0:0:0:0:
374,157,27428,1,2,0:0:0:0:
267,136,27571,1,12,0:0:0:0:
262,281,27714,1,2,0:0:0:0:
262,281,27999,6,0,B|240:282|240:282|234:277|234:277|204:283|176:273|176:273|148:292|99:293,1,152.999995330811,2|2,0:0|0:0,0:0:0:0:
209,205,28428,1,0,0:0:0:0:
186,362,28571,1,2,0:0:0:0:
262,281,28714,1,8,0:0:0:0:
115,292,28856,1,2,0:0:0:0:
320,352,28999,6,0,P|369:348|436:317,1,102,4|0,0:1|0:0,0:0:0:0:
491,310,29285,2,0,P|442:301|378:265,1,108.375002067089,8|0,0:0|0:0,0:0:0:0:
345,251,29571,2,0,P|377:242|420:212,1,76.4999976654053,4|0,0:0|0:0,0:0:0:0:
427,192,29785,1,0,0:0:0:0:
427,192,29856,2,0,P|425:168|426:146,1,38.2499988327027
474,92,29999,2,0,P|474:73|472:54,1,38.2499988327027
354,124,30142,6,0,P|310:122|262:111,1,85,6|0,0:0|0:0,0:0:0:0:
159,18,30428,2,0,P|148:58|132:98,1,85,10|0,0:0|0:0,0:0:0:0:
55,219,30714,1,0,0:0:0:0:
182,192,30856,1,2,0:0:0:0:
182,192,30928,1,0,0:0:0:0:
182,192,30999,1,10,0:0:0:0:
28,138,31142,1,0,0:0:0:0:
28,138,31214,1,0,0:0:0:0:
28,138,31285,6,0,P|38:178|54:218,1,85,6|0,0:0|0:0,0:0:0:0:
137,363,31571,2,0,P|152:323|163:282,1,85,10|0,0:0|0:0,0:0:0:0:
182,192,31856,1,0,0:0:0:0:
77,297,31999,1,2,0:0:0:0:
77,297,32071,1,0,0:0:0:0:
77,297,32142,1,10,0:0:0:0:
238,356,32285,1,0,0:0:0:0:
238,356,32356,1,0,0:0:0:0:
238,356,32428,6,0,B|271:358|271:358|325:337,1,85,6|0,0:0|0:0,0:0:0:0:
431,238,32714,2,0,B|464:236|464:236|512:254,1,85,10|0,0:0|0:0,0:0:0:0:
394,313,32999,1,0,0:0:0:0:
318,221,33142,1,2,0:0:0:0:
318,221,33214,1,0,0:0:0:0:
318,221,33285,1,10,0:0:0:0:
431,113,33428,1,0,0:0:0:0:
428,134,33499,1,0,0:0:0:0:
424,155,33571,6,0,L|404:16,1,127.5,2|0,0:0|0:0,0:0:0:0:
405,28,33856,1,8,0:0:0:0:
300,104,33999,2,0,B|251:111|251:111|157:92,1,127.5,2|0,0:0|0:0,0:0:0:0:
174,95,34285,1,2,0:0:0:0:
113,206,34428,1,10,0:0:0:0:
74,205,34499,1,0,0:0:0:0:
37,192,34571,1,0,0:0:0:0:
16,159,34642,1,0,0:0:0:0:
47,136,34714,6,0,L|29:246,1,85,6|0,0:0|0:0,0:0:0:0:
143,276,34999,2,0,L|130:360,1,85,10|0,0:0|0:0,0:0:0:0:
48,309,35285,1,0,0:0:0:0:
217,327,35428,1,2,0:0:0:0:
218,348,35500,1,0,0:0:0:0:
219,370,35571,1,10,0:0:0:0:
248,194,35714,1,0,0:0:0:0:
248,194,35785,1,0,0:0:0:0:
248,194,35856,6,0,P|203:172|148:169,1,85,6|0,0:0|0:0,0:0:0:0:
296,318,36142,2,0,P|337:311|375:291,1,85,10|0,0:0|0:0,0:0:0:0:
461,223,36428,1,0,0:0:0:0:
334,130,36571,1,2,0:0:0:0:
331,151,36643,1,0,0:0:0:0:
328,171,36714,1,10,0:0:0:0:
442,28,36856,1,0,0:0:0:0:
445,49,36928,1,0,0:0:0:0:
448,69,36999,6,0,L|356:56,1,85,6|0,0:0|0:0,0:0:0:0:
252,179,37285,2,0,L|167:167,1,85,10|0,0:0|0:0,0:0:0:0:
76,235,37571,1,0,0:0:0:0:
30,121,37714,1,2,0:0:0:0:
30,121,37785,1,0,0:0:0:0:
30,121,37856,1,10,0:0:0:0:
173,43,37999,1,0,0:0:0:0:
173,43,38071,1,0,0:0:0:0:
173,43,38142,6,0,B|185:93|185:93|164:182,1,127.5,2|0,0:0|0:0,0:0:0:0:
167,167,38428,1,8,0:0:0:0:
30,121,38571,1,2,0:0:0:0:
4,279,38714,5,2,0:2:0:0:
24,275,38785,1,2,0:2:0:0:
50,269,38856,1,8,0:0:0:0:
85,261,38927,1,0,0:0:0:0:
118,241,38999,5,8,0:0:0:0:
153,247,39070,1,0,0:0:0:0:
188,251,39141,1,8,0:0:0:0:
223,257,39213,1,0,0:0:0:0:
256,263,39285,5,4,0:0:0:0:
131,373,39428,2,0,L|118:275,1,85,0|8,0:0|0:0,0:0:0:0:
329,226,39714,2,0,P|327:306|274:342,1,127.5
296,334,39999,1,0,0:0:0:0:
223,257,40142,1,8,0:0:0:0:
318,142,40285,1,0,0:0:0:0:
318,142,40571,6,0,B|378:151|378:151|433:137|433:137|495:148,1,170
329,226,40999,1,0,0:0:0:0:
466,237,41142,1,0,0:0:0:0:
357,304,41285,1,8,0:0:0:0:
440,340,41428,1,0,0:0:0:0:
440,340,41714,5,0,0:0:0:0:
357,304,41856,1,8,0:0:0:0:
329,226,41999,1,0,0:0:0:0:
329,226,42285,1,0,0:0:0:0:
254,261,42428,1,8,0:0:0:0:
167,253,42570,1,0,0:0:0:0:
174,237,42714,1,0,0:0:0:0:
182,338,42856,6,0,B|142:346|111:324|111:324|76:333|41:331|41:331|85:315,1,170
114,164,43285,1,0,0:0:0:0:
167,253,43428,1,0,0:0:0:0:
263,122,43571,1,8,0:0:0:0:
266,231,43714,1,0,0:0:0:0:
266,231,43999,6,0,P|308:220|357:203,2,85,0|8|0,0:0|0:0|0:0,0:0:0:0:
167,253,44428,1,0,0:0:0:0:
114,164,44571,1,0,0:0:0:0:
134,346,44714,1,8,0:0:0:0:
266,231,44856,1,0,0:0:0:0:
266,231,45142,6,0,B|386:195|386:195|363:211|353:227,1,170
295,312,45571,1,0,0:0:0:0:
403,368,45714,1,0,0:0:0:0:
271,317,45856,1,8,0:0:0:0:
425,262,45999,1,0,0:0:0:0:
425,262,46285,6,0,B|452:195|452:195|453:95,1,170
354,222,46714,1,0,0:0:0:0:
324,124,46857,1,0,0:0:0:0:
292,28,46999,1,8,0:0:0:0:
376,108,47142,1,0,0:0:0:0:
240,160,47285,6,0,P|178:164|114:119,1,127.5,4|0,0:2|0:0,0:0:0:0:
103,103,47571,2,2,P|108:75|110:49,3,42.5,10|2|2|2,0:2|0:2|0:2|0:2,0:2:0:0:
77,136,47856,5,0,0:0:0:0:
63,146,47928,1,0,0:0:0:0:
48,154,47999,1,0,0:0:0:0:
31,159,48071,1,0,0:0:0:0:
14,161,48142,5,10,0:2:0:0:
55,172,48214,1,2,0:2:0:0:
89,197,48285,1,2,0:2:0:0:
110,233,48356,1,2,0:2:0:0:
114,273,48428,6,0,P|97:343|46:378,2,136,6|2|8,0:0|0:0|0:0,0:0:0:0:
398,111,49285,1,2,0:0:0:0:
342,51,49428,1,8,0:0:0:0:
297,119,49571,6,0,P|296:154|305:202,1,68,2|8,0:0|0:0,0:0:0:0:
434,252,49856,2,0,B|405:245|405:245|363:252,1,68,2|0,0:0|0:0,0:0:0:0:
336,336,50142,2,0,P|274:327|179:330,1,136,8|2,0:0|0:0,0:0:0:0:
124,296,50571,1,10,0:0:0:0:
222,239,50714,5,2,0:0:0:0:
222,239,50999,2,0,P|226:205|225:171,1,68,2|0,0:0|0:0,0:0:0:0:
204,67,51285,2,0,B|214:58|222:37|222:37|213:103|221:162,1,136,8|2,0:0|0:0,0:0:0:0:
222,239,51714,1,8,0:0:0:0:
151,198,51856,6,0,P|116:190|76:191,1,68,2|8,0:0|0:0,0:0:0:0:
16,293,52142,1,0,0:0:0:0:
16,293,52428,2,0,L|171:277,1,136,8|2,0:0|0:0,0:0:0:0:
295,312,52856,1,8,0:0:0:0:
213,367,52999,5,6,0:0:0:0:
213,367,53285,2,0,L|231:216,2,136,2|8|2,0:0|0:0|0:0,0:0:0:0:
295,312,53999,1,8,0:0:0:0:
221,213,54142,6,0,L|216:145,1,68,2|8,0:0|0:0,0:0:0:0:
239,120,54428,2,0,L|243:52,1,68
388,213,54714,2,0,L|392:145,1,68,10|0,0:0|0:0,0:0:0:0:
370,120,54999,2,0,L|365:52,1,68,2|8,0:0|0:0,0:0:0:0:
304,328,55285,5,2,0:0:0:0:
316,182,55571,1,2,0:0:0:0:
288,252,55856,1,8,0:0:0:0:
304,111,56142,5,2,0:0:0:0:
304,328,56285,1,8,0:0:0:0:
316,182,56428,5,6,0:0:0:0:
288,252,56571,1,0,0:0:0:0:
288,252,56642,1,0,0:0:0:0:
288,252,56714,1,4,0:0:0:0:
446,302,56856,6,2,B|479:254|499:154|499:154|500:210|487:258,1,254.999992218018,2|0,0:0|0:0,0:0:0:0:
431,330,57285,6,0,P|385:327|345:306,1,76.4999976654053,12|0,0:3|0:0,0:0:0:0:
282,348,57571,6,0,P|239:365|153:274,1,170,6|8,0:2|0:0,0:0:0:0:
211,183,57999,2,0,B|235:151|235:151|234:289,1,170
77,346,58428,2,0,L|67:257,1,85,8|0,0:0|0:0,0:0:0:0:
140,72,58714,5,2,0:0:0:0:
211,183,58856,1,0,0:0:0:0:
71,219,58999,1,10,0:0:0:0:
234,280,59142,2,0,L|245:104,1,170,2|0,0:0|0:0,0:0:0:0:
255,99,59571,1,10,0:0:0:0:
243,289,59714,1,0,0:0:0:0:
100,134,59856,6,0,P|61:109|37:68,1,85,2|0,0:0|0:0,0:0:0:0:
275,222,60142,2,0,P|320:202|366:198,1,85,8|0,0:0|0:0,0:0:0:0:
158,356,60428,2,0,L|154:271,1,85,2|0,0:0|0:0,0:0:0:0:
247,25,60714,2,0,L|243:109,1,85,8|0,0:0|0:0,0:0:0:0:
355,197,60999,6,0,P|407:187|454:63,1,170,2|8,0:0|0:0,0:0:0:0:
370,274,61428,2,0,P|391:220|377:99,1,170,2|0,0:0|0:0,0:0:0:0:
437,315,61856,1,10,0:0:0:0:
355,197,61999,1,2,0:0:0:0:
309,345,62142,6,0,P|267:350|226:358,1,85,6|0,0:0|0:0,0:0:0:0:
67,273,62428,1,8,0:0:0:0:
141,209,62571,1,0,0:0:0:0:
149,331,62714,1,2,0:0:0:0:
212,259,62856,1,2,0:0:0:0:
89,173,62999,1,8,0:0:0:0:
59,308,63142,1,0,0:0:0:0:
0,157,63285,6,0,P|46:95|146:114,1,170,2|8,0:0|0:0,0:0:0:0:
263,194,63714,2,0,B|300:202|300:202|447:186,1,170,2|0,0:0|0:0,0:0:0:0:
258,325,64142,1,10,0:0:0:0:
372,237,64285,1,2,0:0:0:0:
227,117,64428,1,0,0:0:0:0:
384,37,64571,6,0,P|424:80|429:192,1,170,2|0,0:0|0:0,0:0:0:0:
258,325,64999,1,2,0:0:0:0:
263,194,65142,1,0,0:0:0:0:
372,237,65285,1,10,0:0:0:0:
205,256,65428,1,0,0:0:0:0:
339,325,65571,5,12,0:0:0:0:
317,127,65714,1,10,0:0:0:0:
131,237,65856,1,8,0:0:0:0:
300,259,65999,1,14,0:0:0:0:
300,259,66428,6,0,P|344:251|385:229,1,76.4999976654053,12|0,0:3|0:0,0:0:0:0:
389,213,66714,6,0,B|413:136|408:88|408:88|392:101|382:134,1,170,4|8,0:2|0:0,0:0:0:0:
415,306,67142,2,0,P|454:276|498:159,1,170
277,59,67571,2,0,P|281:110|286:156,1,85,8|0,0:0|0:0,0:0:0:0:
325,356,67856,5,2,0:0:0:0:
415,306,67999,1,0,0:0:0:0:
300,259,68142,1,10,0:0:0:0:
185,360,68285,2,0,P|134:375|42:304,1,170,2|0,0:0|0:0,0:0:0:0:
284,143,68714,1,10,0:0:0:0:
300,259,68856,1,0,0:0:0:0:
154,178,68999,6,0,P|110:163|52:146,1,85,2|0,0:0|0:0,0:0:0:0:
185,360,69285,2,0,L|201:258,1,85,8|0,0:0|0:0,0:0:0:0:
270,59,69571,2,0,L|283:142,1,85,2|0,0:0|0:0,0:0:0:0:
467,219,69856,2,0,P|423:234|365:251,1,85,8|0,0:0|0:0,0:0:0:0:
309,384,70142,6,0,B|283:342|283:342|267:217,1,170,2|8,0:0|0:0,0:0:0:0:
382,57,70571,2,0,P|406:101|342:188,1,170,2|0,0:0|0:0,0:0:0:0:
153,178,70999,1,10,0:0:0:0:
198,276,71142,1,2,0:0:0:0:
283,142,71285,5,6,0:0:0:0:
283,142,71571,1,8,0:0:0:0:
198,276,71714,1,0,0:0:0:0:
180,69,71856,1,2,0:0:0:0:
232,205,71999,1,2,0:0:0:0:
101,145,72142,1,8,0:0:0:0:
43,289,72285,1,0,0:0:0:0:
214,366,72428,6,0,B|242:320|242:320|231:197,1,170,2|8,0:0|0:0,0:0:0:0:
400,52,72856,2,0,B|389:167|389:167|417:213,1,170,2|0,0:0|0:0,0:0:0:0:
500,272,73285,1,10,0:0:0:0:
331,250,73428,1,2,0:0:0:0:
475,134,73571,1,0,0:0:0:0:
410,379,73714,6,0,P|425:330|406:186,1,170,2|0,0:0|0:0,0:0:0:0:
315,130,74142,1,2,0:0:0:0:
331,250,74285,1,0,0:0:0:0:
475,134,74428,1,8,0:0:0:0:
332,61,74571,1,0,0:0:0:0:
332,61,74642,1,0,0:0:0:0:
332,61,74714,6,0,P|302:54|280:42,3,42.5,6|0|8|0,0:0|0:0|0:0|0:0,0:0:0:0:
263,38,74999,2,0,L|250:96,1,42.5,10|0,0:0|0:0,0:0:0:0:
123,166,75142,2,0,P|153:159|175:147,3,42.5,14|0|0|0,0:0|0:0|0:0|0:0,0:0:0:0:
192,143,75427,2,0,L|205:201,1,42.5,10|0,0:0|0:0,0:0:0:0:
268,315,75571,5,14,0:0:0:0:
278,288,75642,5,0,0:0:0:0:
280,263,75714,5,10,0:0:0:0:
279,242,75785,5,0,0:0:0:0:
275,226,75856,6,0,P|262:275|276:373,1,127.5,14|0,0:0|0:0,0:0:0:0:
268,350,76142,2,0,P|228:319|188:303,1,85,10|0,0:0|0:0,0:0:0:0:
365,160,76428,1,0,0:0:0:0:
406,258,76571,1,2,0:0:0:0:
406,258,76642,1,0,0:0:0:0:
406,258,76714,2,0,L|512:242,1,85,10|0,0:0|0:0,0:0:0:0:
320,69,76999,6,0,P|286:99|272:186,1,127.5,6|0,0:0|0:0,0:0:0:0:
269,176,77285,2,0,L|163:160,1,85,10|0,0:0|0:0,0:0:0:0:
11,209,77571,1,0,0:0:0:0:
117,94,77714,1,2,0:0:0:0:
117,94,77785,1,0,0:0:0:0:
117,94,77856,2,0,P|108:135|85:187,1,85,10|0,0:0|0:0,0:0:0:0:
0,299,78142,6,0,B|42:291|42:291|147:328,1,127.5,6|0,0:0|0:0,0:0:0:0:
121,319,78428,2,0,P|130:278|153:226,1,85,10|0,0:0|0:0,0:0:0:0:
214,360,78714,1,0,0:0:0:0:
298,306,78856,1,2,0:0:0:0:
298,306,78928,1,0,0:0:0:0:
298,306,78999,2,0,P|326:274|372:241,1,85,10|0,0:0|0:0,0:0:0:0:
210,148,79285,6,0,P|215:202|227:283,1,127.5,2|0,0:0|0:0,0:0:0:0:
225,274,79571,1,8,0:0:0:0:
357,364,79714,2,0,P|417:353|466:304,1,127.5,2|0,0:0|0:0,0:0:0:0:
463,308,79999,1,0,0:0:0:0:
321,149,80142,1,10,0:0:0:0:
332,185,80214,1,0,0:0:0:0:
360,210,80285,1,0,0:0:0:0:
396,220,80356,1,0,0:0:0:0:
416,180,80428,6,0,L|316:185,1,85,6|0,0:0|0:0,0:0:0:0:
225,274,80714,2,0,L|125:279,1,85,10|0,0:0|0:0,0:0:0:0:
245,368,80999,1,0,0:0:0:0:
294,229,81142,1,2,0:0:0:0:
294,229,81214,1,0,0:0:0:0:
294,229,81285,2,0,P|309:188|321:146,1,85,10|0,0:0|0:0,0:0:0:0:
191,100,81571,6,0,P|175:59|164:17,1,85,6|0,0:0|0:0,0:0:0:0:
35,170,81856,2,0,P|76:178|118:179,1,85,10|0,0:0|0:0,0:0:0:0:
274,92,82142,1,0,0:0:0:0:
388,170,82285,1,2,0:0:0:0:
388,170,82357,1,0,0:0:0:0:
388,170,82428,2,0,P|430:168|471:160,1,85,10|0,0:0|0:0,0:0:0:0:
300,11,82714,6,0,P|284:51|273:94,1,85,6|0,0:0|0:0,0:0:0:0:
118,179,82999,2,0,P|76:178|35:169,1,85,10|0,0:0|0:0,0:0:0:0:
191,100,83285,1,0,0:0:0:0:
256,216,83428,1,2,0:0:0:0:
256,216,83499,1,0,0:0:0:0:
256,216,83571,2,0,L|256:316,1,85,10|0,0:0|0:0,0:0:0:0:
133,352,83856,6,0,P|89:338|122:266,1,127.5,2|0,0:0|0:0,0:0:0:0:
102,270,84142,1,8,0:0:0:0:
379,352,84285,2,0,P|423:338|390:266,1,127.5,2|0,0:0|0:0,0:0:0:0:
409,270,84571,6,0,L|334:279,1,42.5,2|2,0:0|0:0,0:0:0:0:
317,175,84714,2,0,L|372:175,1,42.5,10|0,0:0|0:0,0:0:0:0:
420,89,84856,2,0,L|344:80,1,42.5,8|0,0:0|0:0,0:0:0:0:
247,22,84999,6,0,B|238:85|238:85|251:128|251:128|240:203,1,170,6|8,0:0|0:0,0:0:0:0:
52,246,85428,2,0,P|98:226|213:284,1,170,2|0,0:0|0:0,0:0:0:0:
316,367,85856,1,8,0:0:0:0:
354,363,85928,1,0,0:0:0:0:
391,359,85999,1,0,0:0:0:0:
429,354,86071,1,0,0:0:0:0:
465,366,86142,6,0,B|474:303|474:303|461:260|461:260|472:185,1,170,6|8,0:0|0:0,0:0:0:0:
242,188,86571,2,0,P|288:208|403:150,1,170,2|0,0:0|0:0,0:0:0:0:
212,352,86999,2,0,L|202:267,1,85,8|0,0:0|0:0,0:0:0:0:
321,39,87285,5,2,0:0:0:0:
318,64,87428,1,0,0:0:0:0:
315,89,87571,1,10,0:0:0:0:
312,115,87714,1,10,0:0:0:0:
119,312,88142,5,10,0:0:0:0:
92,163,88285,1,2,0:0:0:0:
158,227,88428,1,8,0:0:0:0:
52,246,88571,1,10,0:0:0:0:
