osu file format v14

[General]
AudioFilename: audio.ogg
AudioLeadIn: 0
PreviewTime: 56710
Countdown: 0
SampleSet: Normal
StackLeniency: 0.9
Mode: 0
LetterboxInBreaks: 0
WidescreenStoryboard: 1

[Editor]
DistanceSpacing: 0.7
BeatDivisor: 4
GridSize: 16
TimelineZoom: 1.6

[Metadata]
Title:Baptize (TV Size)
TitleUnicode:Baptize (TV Size)
Artist:Yousei Teikoku
ArtistUnicode:妖精帝國
Creator:Bellicose
Version:Zekk's Insane
Source:聖痕のクェイサー
Tags:gothic lolita agitator yui itsuki The Qwaser of Stigmata metal misure yf_bmp zekk Seikon no Qwaser anime opening op short version japanese rock goth 電気式華憐音楽集団 Denkishiki Karen Ongaku Shuudan Ekaterina Kurae エカテリーナ クラエ
BeatmapID:3607766
BeatmapSetID:1756890

[Difficulty]
HPDrainRate:6
CircleSize:4
OverallDifficulty:8
ApproachRate:8.7
SliderMultiplier:1.7
SliderTickRate:1

[Events]
//Background and Video events
0,0,"9511223_p0.jpg",0,0
//Break Periods
//Storyboard Layer 0 (Background)
//Storyboard Layer 1 (Fail)
//Storyboard Layer 2 (Pass)
//Storyboard Layer 3 (Foreground)
//Storyboard Layer 4 (Overlay)
//Storyboard Sound Samples

[TimingPoints]
2210,285.714285714286,4,1,1,50,1,0
2210,-125,4,1,1,50,0,0
3352,-90.9090909090909,4,1,1,50,0,0
3924,-125,4,1,1,50,0,0
5352,-90.9090909090909,4,1,1,50,0,0
5924,-125,4,1,1,50,0,0
7638,-90.9090909090909,4,1,1,50,0,0
7924,-125,4,1,1,50,0,0
10210,-90.9090909090909,4,1,1,50,0,0
10496,-125,4,1,1,50,0,0
11352,-95.2380952380952,4,1,1,60,0,0
20495,-111.111111111111,4,1,1,40,0,0
25067,-105.263157894737,4,1,1,40,0,0
29638,-95.2380952380952,4,1,1,60,0,0
38781,-100,4,1,1,50,0,0
47924,-111.111111111111,4,1,1,50,0,0
55924,-83.3333333333333,4,1,1,50,0,0
57067,-86.9565217391304,4,1,1,65,0,1
75352,-95.2380952380952,4,1,1,60,0,0

[Colours]
Combo1 : 247,169,74
Combo2 : 167,118,128
Combo3 : 218,156,116
Combo4 : 167,81,35

[HitObjects]
431,58,2210,6,0,L|356:76,1,68,6|0,3:2|0:0,0:0:0:0:
297,125,2495,2,0,B|360:103|360:103|327:167,1,136,0|0,3:0|3:0,0:0:0:0:
328,164,2924,1,0,0:0:0:0:
200,175,3067,6,0,P|167:176|126:150,1,68,0|0,3:0|0:0,0:0:0:0:
297,248,3352,2,0,B|333:227|381:225|381:225|413:244|413:244|454:251|474:243,1,187.000005706787,2|0,3:2|3:0,0:0:0:0:
474,243,3781,1,0,0:0:0:0:
346,361,3924,6,0,B|283:380|283:380|313:332,1,102,0|0,3:0|0:0,0:0:0:0:
314,336,4210,2,0,B|346:342|346:342|349:345|349:345|382:352,1,68,0|0,3:0|0:0,0:0:0:0:
184,258,4495,6,0,B|145:273|145:273|81:261|81:261|41:273,1,136,2|0,3:2|3:0,0:0:0:0:
53,269,4924,1,0,0:0:0:0:
30,109,5067,6,0,L|49:200,1,68,0|0,3:0|0:0,0:0:0:0:
43,175,5352,2,0,B|91:151|136:175|134:198|184:218|232:186,1,187.000005706787,0|2,3:0|3:2,0:0:0:0:
220,193,5781,5,0,0:0:0:0:
308,153,5924,2,0,L|360:171,2,34,0|0|2,3:0|0:0|0:2,0:0:0:0:
233,57,6210,2,0,P|212:69|123:75,1,102
135,78,6495,2,0,P|151:115|153:151,1,68,8|8,0:0|0:0,0:0:0:0:
0,259,6781,6,0,B|96:252|45:281|160:270,1,136,6|0,3:2|3:0,0:0:0:0:
201,307,7210,1,0,0:0:0:0:
280,236,7352,2,0,P|310:240|347:276,1,68,0|0,3:0|0:0,0:0:0:0:
440,378,7638,2,0,B|384:328|395:258|468:273|436:318,1,140.25000428009,0|0,3:0|0:0,0:0:0:0:
443,300,7924,6,0,P|435:333|434:366,1,68,2|0,3:2|0:0,0:0:0:0:
512,240,8210,2,0,B|523:204|514:179|514:179|502:165|502:165|487:131|510:89,1,136,0|0,3:0|3:0,0:0:0:0:
278,168,8638,5,0,0:0:0:0:
348,207,8781,2,0,P|381:204|415:182,1,68,0|0,3:0|0:0,0:0:0:0:
217,314,9067,6,2,B|196:286|174:272|174:272|214:298|254:299,1,136,2|0,3:0|0:0,0:1:0:0:
244,298,9495,1,0,0:0:0:0:
348,207,9638,2,0,P|333:222|305:234,2,34,0|0|0,3:0|0:0|0:0,0:0:0:0:
127,199,9924,2,0,P|148:225|180:236,1,68,0|0,3:0|0:0,0:0:0:0:
448,288,10210,6,0,P|412:353|287:352,1,187.000005706787,2|0,3:2|3:0,0:0:0:0:
307,365,10638,1,2,0:2:0:0:
135,303,10781,6,0,L|55:317,1,68
202,172,11067,5,8,0:0:0:0:
233,178,11138,1,8,0:0:0:0:
268,203,11210,5,8,0:0:0:0:
305,211,11281,1,8,0:0:0:0:
328,224,11352,6,0,B|447:212|385:258|511:235,1,178.499994552612,6|2,3:2|3:2,0:0:0:0:
504,237,11781,1,8,0:0:0:0:
437,112,11924,6,0,B|408:103|408:103|372:105|372:105|326:93,1,89.2499972763062,0|8,3:0|0:0,0:0:0:0:
317,100,12138,1,0,3:0:0:0:
310,102,12210,1,0,3:0:0:0:
239,32,12352,1,8,0:0:0:0:
251,175,12495,6,0,B|160:210|160:210|204:130,1,178.499994552612,2|2,3:2|3:2,0:0:0:0:
199,139,12924,1,8,0:0:0:0:
28,217,13067,6,0,L|129:240,1,89.2499972763062,0|8,3:0|0:0,0:0:0:0:
271,310,13352,2,0,P|318:313|375:275,1,89.2499972763062,0|8,3:0|0:0,0:0:0:0:
15,372,13638,6,0,P|81:326|209:347,1,178.499994552612,2|2,3:2|3:2,0:0:0:0:
375,371,14067,1,8,0:0:0:0:
255,289,14210,6,0,L|355:301,1,89.2499972763062,0|8,3:0|0:0,0:0:0:0:
355,295,14424,1,0,3:0:0:0:
368,292,14495,1,0,3:0:0:0:
478,193,14638,5,8,0:0:0:0:
414,158,14781,2,0,B|367:171|328:189|328:189|275:81,1,178.499994552612,2|0,3:1|3:0,0:0:0:0:
191,11,15210,5,10,0:0:0:0:
289,110,15352,2,0,B|275:144|275:144|280:172|280:172|263:232,1,89.2499972763062,0|8,0:0|0:0,0:0:0:0:
175,245,15638,6,0,P|147:253|104:252,1,44.6249986381531,2|0,3:1|3:0,0:0:0:0:
87,266,15781,2,0,P|62:265|26:250,1,44.6249986381531,8|8,0:0|0:0,0:0:0:0:
17,250,15924,6,0,B|59:236|95:241|95:241|127:260|127:260|150:272|223:255,1,178.499994552612,6|2,3:2|3:2,0:0:0:0:
339,276,16352,2,0,L|394:283,2,44.6249986381531,8|0|0,0:0|0:0|3:0,0:0:0:0:
214,367,16638,5,8,0:0:0:0:
339,276,16781,2,0,P|313:296|241:286,1,89.2499972763062,0|8,3:0|0:0,0:0:0:0:
68,109,17067,6,0,P|151:102|233:177,1,178.499994552612,2|2,3:2|3:2,0:0:0:0:
242,41,17495,1,8,0:0:0:0:
68,109,17638,6,0,P|112:135|164:137,1,89.2499972763062,0|8,3:0|0:0,0:0:0:0:
149,139,17852,1,0,3:0:0:0:
149,139,17924,1,0,3:0:0:0:
336,98,18067,1,8,0:0:0:0:
401,141,18210,6,0,B|473:171|473:171|466:76,1,133.874995914459,2|0,3:2|0:0,0:0:0:0:
468,115,18495,2,0,L|449:230,1,89.2499972763062,2|8,3:2|0:0,0:0:0:0:
512,319,18781,5,0,3:0:0:0:
380,287,18924,1,8,0:0:0:0:
314,322,19067,2,0,B|272:313|272:313|239:333|239:333|190:320|190:320|135:343,1,178.499994552612,0|2,3:0|3:1,0:0:0:0:
147,337,19495,5,8,0:0:0:0:
70,252,19638,2,0,P|68:216|121:178,1,89.2499972763062,0|10,3:0|0:0,0:0:0:0:
218,123,19924,5,8,0:0:0:0:
103,180,20067,2,0,P|66:179|31:128,2,89.2499972763062,8|10|8,0:0|0:0|3:0,0:0:0:0:
210,248,20495,6,0,B|323:239|257:274|396:250,1,152.999995330811,4|0,3:1|3:2,0:0:0:0:
484,54,21067,2,0,B|442:65|442:65|471:29,1,76.4999976654053,0|2,3:0|0:2,0:0:0:0:
351,94,21352,6,0,L|264:75,1,76.4999976654053,0|2,3:0|0:2,0:0:0:0:
160,147,21638,2,0,L|-15:176,2,152.999995330811,0|0|2,3:0|3:0|3:2,0:0:0:0:
160,147,22352,1,0,0:0:0:0:
267,199,22495,6,0,P|306:210|367:216,1,76.4999976654053,2|0,3:2|0:0,0:0:0:0:
417,384,22781,2,0,P|441:315|451:221,2,152.999995330811,0|0|0,3:0|3:0|3:0,0:0:0:0:
417,384,23495,1,0,0:0:0:0:
262,267,23638,6,0,P|280:305|279:362,1,76.4999976654053,0|2,3:0|0:2,0:0:0:0:
0,312,23924,2,0,B|107:299|59:326|152:317,1,152.999995330811,0|0,3:0|3:0,0:0:0:0:
151,317,24352,1,0,0:0:0:0:
264,187,24495,6,0,L|154:203,1,76.4999976654053,2|2,3:2|0:2,0:0:0:0:
188,198,24781,1,2,3:2:0:0:
80,104,24924,5,2,0:2:0:0:
36,186,25067,2,0,B|25:140|25:140|127:119,1,121.124996765614,4|0,3:1|0:0,0:0:0:0:
97,125,25352,1,8,0:0:0:0:
196,30,25495,5,0,0:0:0:0:
196,30,25638,2,0,B|244:46|244:46|321:29|321:29|367:-13,1,161.499995687485,2|10,3:1|0:0,0:0:0:0:
344,7,26067,1,0,0:0:0:0:
496,143,26210,6,0,L|411:126,1,80.7499978437424,0|2,3:0|0:0,0:0:0:0:
293,199,26495,2,0,L|192:217,1,80.7499978437424,8|0,0:0|0:0,0:0:0:0:
494,326,26781,6,0,L|425:265,1,80.7499978437424,2|0,3:1|0:0,0:0:0:0:
319,122,27067,1,10,0:0:0:0:
293,199,27210,1,0,0:0:0:0:
293,199,27281,1,0,0:0:0:0:
293,199,27352,6,0,B|307:235|307:235|277:303|277:303|291:358,1,161.499995687485,0|0,3:0|0:0,0:0:0:0:
153,272,27781,1,0,0:0:0:0:
85,307,27924,2,0,P|45:293|33:250,1,80.7499978437424,2|0,3:1|0:0,0:0:0:0:
132,117,28210,2,0,P|123:155|139:192,1,80.7499978437424,10|0,0:0|0:0,0:0:0:0:
139,192,28495,6,0,B|184:179|184:179|218:197|218:197|229:245|282:261,1,161.499995687485,2|10,3:1|0:0,0:0:0:0:
341,236,28924,1,0,0:0:0:0:
509,172,29067,6,0,L|409:152,1,80.7499978437424,2|0,3:1|3:0,0:0:0:0:
291,45,29352,2,0,L|181:22,1,80.7499978437424,10|8,0:0|0:0,0:0:0:0:
445,72,29638,6,0,B|409:65|409:65|369:84|369:84|339:136|290:143,1,178.499994552612,6|2,3:2|3:2,0:0:0:0:
294,142,30067,1,8,0:0:0:0:
176,110,30210,2,0,L|126:122,2,44.6249986381531,0|0|8,3:0|0:0|0:0,0:0:0:0:
262,225,30495,6,0,B|300:232|300:232|319:242|319:242|373:254,1,89.2499972763062,0|8,3:0|0:0,0:0:0:0:
107,338,30781,6,0,B|19:363|19:363|52:264,1,178.499994552612,2|2,3:2|3:2,0:0:0:0:
46,280,31210,1,8,0:0:0:0:
228,178,31352,6,0,L|207:281,1,89.2499972763062,0|8,3:0|0:0,0:0:0:0:
330,355,31638,2,0,L|430:336,1,89.2499972763062,0|8,3:0|0:0,0:0:0:0:
512,190,31924,6,0,B|455:175|455:175|401:192|401:192|329:170,1,178.499994552612,2|2,3:2|3:2,0:0:0:0:
225,36,32352,5,8,0:0:0:0:
128,75,32495,2,0,L|228:59,1,89.2499972763062,0|8,3:0|0:0,0:0:0:0:
285,226,32781,6,0,P|272:252|275:218,1,89.2499972763062,0|8,3:0|0:0,0:0:0:0:
260,144,33067,6,0,B|284:183|270:221|270:221|254:240|254:240|242:276|266:309,1,178.499994552612,2|0,3:1|3:0,0:0:0:0:
169,233,33495,5,10,0:0:0:0:
96,263,33638,2,0,B|62:255|62:255|42:258|42:258|-11:249,1,89.2499972763062,0|8,0:0|0:0,0:0:0:0:
352,360,33924,6,0,B|379:304|513:322|409:362,1,133.874995914459,2|8,3:1|0:0,0:0:0:0:
434,350,34210,6,0,P|397:302|429:214,1,133.874995914459,6|0,3:2|0:0,0:0:0:0:
340,200,34495,2,0,L|236:216,1,89.2499972763062,2|8,3:2|0:0,0:0:0:0:
76,216,34781,5,0,3:0:0:0:
10,253,34924,1,8,0:0:0:0:
136,259,35067,6,0,B|111:252|111:252|75:256|75:256|26:246,1,89.2499972763062,0|8,3:0|0:0,0:0:0:0:
0,95,35352,6,0,B|41:109|41:109|112:84|112:84|136:38,1,133.874995914459,2|0,3:2|0:0,0:0:0:0:
119,70,35638,2,0,L|226:90,1,89.2499972763062,2|8,3:2|0:0,0:0:0:0:
348,41,35924,2,0,L|414:31,2,44.6249986381531,0|0|8,3:0|0:0|0:0,0:0:0:0:
196,166,36210,6,0,L|300:147,1,89.2499972763062,0|8,3:0|0:0,0:0:0:0:
472,211,36495,6,0,B|503:271|503:271|389:246,1,178.499994552612,2|2,3:2|3:2,0:0:0:0:
396,247,36924,1,8,0:0:0:0:
259,298,37067,2,0,P|265:344|281:385,1,89.2499972763062,0|8,3:0|0:0,0:0:0:0:
109,216,37352,2,0,P|100:300|73:365,1,133.874995914459,0|0,3:0|0:0,0:0:0:0:
82,345,37638,6,0,B|126:329|126:329|186:337,1,89.2499972763062,2|8,3:1|0:0,0:0:0:0:
233,220,37924,2,0,L|223:165,2,44.6249986381531,0|0|10,3:0|0:0|0:0,0:0:0:0:
396,247,38210,6,0,B|353:252|353:252|309:236,1,89.2499972763062,8|8,0:0|0:0,0:0:0:0:
259,298,38495,1,10,0:0:0:0:
259,298,38638,1,8,3:0:0:0:
225,176,38781,6,0,B|227:95|256:140|242:14,1,127.5,4|0,3:1|0:0,0:0:0:0:
245,51,39067,2,0,P|274:64|338:74,1,85,0|10,3:2|0:2,0:0:0:0:
141,168,39352,6,0,P|49:162|3:120,1,127.5,0|0,3:0|0:0,0:0:0:0:
22,143,39638,2,0,P|35:180|28:243,1,85,0|10,3:2|0:2,0:0:0:0:
119,332,39924,6,0,B|231:317|178:355|299:331,1,170,0|0,3:0|3:0,0:0:0:0:
287,333,40352,1,10,0:2:0:0:
512,353,40495,6,0,P|475:356|417:314,1,85,0|10,3:0|0:2,0:0:0:0:
354,244,40781,2,0,P|338:205|348:150,1,85,0|10,3:0|0:2,0:0:0:0:
496,223,41067,6,0,P|449:276|327:266,1,170,0|0,3:0|3:0,0:0:0:0:
354,282,41424,1,0,3:0:0:0:
354,282,41495,1,10,0:2:0:0:
248,217,41638,6,0,B|218:211|218:211|195:214|195:214|144:205,1,85,0|10,3:0|0:2,0:0:0:0:
84,274,41924,2,0,L|-16:285,1,85,0|10,3:0|0:2,0:0:0:0:
27,99,42210,6,0,P|70:87|205:152,1,170,0|0,3:0|3:0,0:0:0:0:
184,126,42638,1,10,0:2:0:0:
322,189,42781,2,0,P|367:186|413:135,1,85,0|10,3:0|0:2,0:0:0:0:
439,78,43067,1,0,3:0:0:0:
439,78,43138,1,0,3:0:0:0:
439,78,43210,1,10,0:2:0:0:
322,189,43352,6,0,P|386:186|450:272,1,170,4|0,3:1|3:0,0:0:0:0:
505,318,43781,1,10,0:2:0:0:
356,345,43924,6,0,L|266:333,1,85,0|10,3:0|0:2,0:0:0:0:
271,333,44210,1,0,3:0:0:0:
175,283,44352,1,10,0:2:0:0:
109,326,44495,6,0,B|30:345|30:345|71:234,1,170,0|0,3:0|3:0,0:0:0:0:
60,261,44852,1,0,3:0:0:0:
60,261,44924,1,10,0:2:0:0:
191,168,45067,6,0,B|199:189|199:189|292:215,1,85,0|10,3:0|0:2,0:0:0:0:
287,214,45281,1,0,0:0:0:0:
287,214,45352,2,0,L|282:165,1,42.5,0|0,3:0|0:0,0:0:0:0:
330,117,45495,2,0,L|346:70,1,42.5,10|0,0:2|0:0,0:0:0:0:
343,76,45638,6,0,L|437:66,1,85,0|10,3:0|0:2,0:0:0:0:
106,176,45924,2,0,L|200:166,1,85,0|10,0:0|0:2,0:0:0:0:
139,34,46210,6,0,L|239:70,1,85,0|10,3:0|0:2,0:0:0:0:
399,166,46495,2,0,L|500:205,1,85,0|10,3:0|0:2,0:0:0:0:
176,359,46781,6,0,P|218:325|231:283,1,85,2|8,3:2|0:0,0:0:0:0:
312,169,47067,2,0,P|309:132|277:85,1,85,2|0,3:2|3:0,0:0:0:0:
57,237,47352,5,10,0:2:0:0:
84,229,47424,1,8,0:2:0:0:
123,228,47495,5,8,0:2:0:0:
154,222,47567,1,8,0:2:0:0:
177,215,47638,6,0,L|229:223,3,42.5,10|8|8|8,0:2|0:2|0:2|0:2,0:0:0:0:
259,241,47924,6,0,L|387:227,1,114.749996498108,6|0,3:2|0:0,0:0:0:0:
373,228,48210,2,0,L|300:267,1,76.4999976654053,0|0,3:0|0:0,0:0:0:0:
364,316,48495,6,0,L|345:140,1,152.999995330811,8|2,0:0|3:2,0:0:0:0:
347,163,48924,1,8,0:0:0:0:
418,30,49067,6,0,P|426:73|437:111,1,76.4999976654053,2|8,3:2|0:0,0:0:0:0:
246,185,49352,2,0,P|256:132|257:49,1,114.749996498108,2|0,3:2|0:0,0:0:0:0:
258,71,49638,5,10,0:2:0:0:
323,123,49781,2,0,P|360:138|413:142,1,76.4999976654053,0|2,0:0|3:2,0:0:0:0:
396,142,50067,1,8,0:0:0:0:
270,234,50210,6,0,B|186:217|194:272|124:256,1,152.999995330811,2|2,3:2|3:2,0:0:0:0:
123,256,50638,1,0,0:0:0:0:
35,138,50781,6,0,P|70:156|124:168,1,76.4999976654053,10|0,0:2|0:0,0:0:0:0:
270,234,51067,2,0,P|306:223|340:206,1,76.4999976654053,2|8,3:2|0:0,0:0:0:0:
33,366,51352,6,0,P|88:336|122:244,1,152.999995330811,2|0,3:2|3:0,0:0:0:0:
122,255,51781,1,0,0:0:0:0:
245,103,51924,6,0,P|273:172|361:206,1,152.999995330811,10|8,0:2|0:0,0:0:0:0:
408,167,52352,1,8,0:0:0:0:
245,103,52495,6,0,P|183:104|125:179,1,152.999995330811,4|2,3:1|3:2,0:0:0:0:
384,28,53067,1,10,0:2:0:0:
328,91,53352,6,0,P|337:127|371:163,1,76.4999976654053,2|8,3:2|0:0,0:0:0:0:
361,156,53638,1,2,3:2:0:0:
499,231,53781,6,0,P|461:237|407:260,1,76.4999976654053,0|2,0:0|3:2,0:0:0:0:
425,250,54067,1,0,0:0:0:0:
470,139,54210,6,0,P|396:123|327:90,1,152.999995330811,10|2,0:2|3:2,0:0:0:0:
327,90,54638,1,0,0:0:0:0:
230,190,54781,6,0,L|119:208,1,76.4999976654053,2|0,3:2|0:0,0:0:0:0:
32,280,55067,2,0,L|83:198,1,76.4999976654053,2|0,3:2|0:0,0:0:0:0:
64,72,55352,2,0,L|105:157,1,76.4999976654053,10|0,0:2|0:0,0:0:0:0:
97,140,55638,1,0,3:0:0:0:
72,215,55781,1,0,3:0:0:0:
154,202,55924,6,0,B|197:184|241:193|241:193|271:218|271:218|313:224|366:209,1,203.999993774414,14|4,0:1|3:0,0:0:0:0:
491,88,56352,2,0,B|382:119|382:119|436:19,1,203.999993774414,14|4,0:1|3:0,0:0:0:0:
246,145,56781,6,0,B|256:178|256:178|248:211|248:211|262:253,1,101.999996887207,14|8,0:1|0:0,0:0:0:0:
64,373,57067,6,2,B|43:346|8:319|8:319|55:233,1,146.62500279665,6|0,3:2|0:0,0:1:0:0:
63,245,57352,1,0,3:0:0:0:
258,242,57495,6,2,B|311:244|353:279|353:279|314:232|325:181,1,195.500003728867,10|8,0:0|0:0,0:1:0:0:
386,70,57924,2,0,P|412:39|477:31,1,97.7500018644333,2|8,3:1|0:0,0:0:0:0:
172,127,58210,6,0,P|270:122|324:203,1,195.500003728867,2|2,3:1|3:1,0:0:0:0:
510,343,58638,2,0,B|469:320|431:328|431:328|400:349|400:349|360:357|325:342,1,195.500003728867,10|8,0:0|0:0,0:0:0:0:
157,272,59067,2,0,B|124:267|124:267|89:274|89:274|41:265,1,97.7500018644333,2|8,3:1|0:0,0:0:0:0:
71,40,59352,5,2,3:1:0:0:
15,93,59495,2,0,P|19:143|121:163,1,146.62500279665,8|0,0:0|0:0,0:0:0:0:
123,171,59781,1,8,0:0:0:0:
270,43,59924,6,0,B|259:82|259:82|266:111|266:111|257:166,1,97.7500018644333,2|8,3:1|0:0,0:0:0:0:
490,286,60210,6,0,B|456:247|456:247|333:279,1,146.62500279665,2|0,3:1|0:0,0:0:0:0:
336,282,60495,1,2,3:1:0:0:
213,241,60638,2,0,L|140:222,2,48.8750009322167,8|0|2,0:0|0:0|3:1,0:0:0:0:
336,282,60924,1,10,0:0:0:0:
166,345,61067,6,0,P|128:365|61:353,1,97.7500018644333,2|8,3:1|0:0,0:0:0:0:
74,360,61281,1,0,3:0:0:0:
74,360,61352,1,2,3:1:0:0:
0,292,61495,1,8,0:0:0:0:
254,195,61638,6,0,P|147:193|86:282,1,195.500003728867,4|2,3:1|3:1,0:0:0:0:
92,254,62067,1,8,0:0:0:0:
10,84,62210,6,0,P|60:83|101:122,1,97.7500018644333,2|8,3:1|0:0,0:0:0:0:
95,111,62424,1,0,3:0:0:0:
95,111,62495,2,0,B|118:146|147:149|147:149|132:138|117:94,1,97.7500018644333,2|8,3:1|0:0,0:0:0:0:
294,32,62781,6,0,B|204:55|204:55|327:90,1,195.500003728867,2|2,3:1|3:1,0:0:0:0:
319,83,63138,1,0,3:1:0:0:
333,78,63209,1,8,0:0:0:0:
506,52,63352,6,0,L|451:41,2,48.8750009322167,0|0|10,3:0|0:0|0:0,0:0:0:0:
419,125,63638,1,0,3:0:0:0:
405,131,63710,1,0,3:0:0:0:
305,181,63852,5,0,3:0:0:0:
291,187,63924,2,0,B|252:177|252:177|186:193|186:193|128:177,1,146.62500279665,0|0,3:0|0:0,0:0:0:0:
93,235,64210,2,0,P|67:239|21:254,2,48.8750009322167,0|0|10,3:0|3:0|0:0,0:0:0:0:
140,97,64495,6,0,P|95:92|31:66,1,97.7500018644333,2|10,3:1|0:0,0:0:0:0:
245,298,64781,2,0,P|196:304|151:321,1,97.7500018644333,0|10,3:0|0:0,0:0:0:0:
291,187,65067,5,2,3:1:0:0:
428,238,65210,1,10,0:1:0:0:
320,269,65352,5,2,3:1:0:0:
509,205,65495,2,0,B|392:180|416:256|314:224,1,195.500003728867,10|8,0:1|0:0,0:0:0:0:
362,29,65924,2,0,P|394:69|401:130,1,97.7500018644333,2|8,3:1|0:0,0:0:0:0:
129,228,66210,6,2,P|166:148|254:131,1,146.62500279665,6|0,3:2|0:0,0:1:0:0:
246,128,66495,1,0,3:0:0:0:
53,272,66638,6,2,P|128:267|216:370,1,195.500003728867,10|8,0:0|0:0,0:1:0:0:
360,371,67067,2,0,B|396:365|396:365|434:377|434:377|478:367,1,97.7500018644333,2|8,3:1|0:0,0:0:0:0:
323,225,67352,6,0,P|307:200|334:221,1,97.7500018644333,2|8,3:1|0:0,0:0:0:0:
333,221,67638,1,2,3:1:0:0:
207,178,67781,5,10,0:0:0:0:
97,193,67924,2,0,L|228:208,1,97.7500018644333,0|8,3:0|0:0,0:0:0:0:
387,119,68210,2,0,L|484:107,1,97.7500018644333,2|8,3:1|0:0,0:0:0:0:
133,68,68495,6,0,P|216:57|271:124,1,146.62500279665,2|0,3:1|0:0,0:0:0:0:
286,169,68781,2,0,P|311:192|394:178,1,97.7500018644333,2|8,3:1|0:0,0:0:0:0:
56,367,69067,6,0,P|95:339|143:343,1,97.7500018644333,2|8,3:1|0:0,0:0:0:0:
212,368,69281,1,0,3:0:0:0:
226,367,69352,2,0,L|283:381,2,48.8750009322167,2|0|8,3:1|3:0|0:0,0:0:0:0:
174,242,69638,6,0,B|164:211|164:211|172:180|172:180|161:148,1,97.7500018644333,2|8,3:1|0:0,0:0:0:0:
93,54,69924,1,2,3:1:0:0:
90,60,69995,1,0,3:0:0:0:
87,65,70067,1,10,0:0:0:0:
17,105,70210,5,2,3:1:0:0:
161,148,70352,1,8,0:0:0:0:
181,156,70424,1,0,3:0:0:0:
43,185,70638,5,8,0:0:0:0:
252,101,70781,2,0,B|294:91|294:91|352:110|352:110|425:93,1,146.62500279665,4|0,3:1|0:0,0:0:0:0:
461,73,71067,2,0,B|508:94|508:94|471:163,1,97.7500018644333,2|8,3:1|0:0,0:0:0:0:
324,350,71352,6,0,P|336:313|349:238,1,97.7500018644333,2|8,3:1|0:0,0:0:0:0:
335,231,71567,1,0,3:0:0:0:
328,216,71638,1,2,3:1:0:0:
246,294,71781,5,8,0:0:0:0:
184,252,71924,2,0,B|78:238|102:320|-4:292,1,195.500003728867,2|2,3:1|3:1,0:0:0:0:
0,293,72352,1,10,0:0:0:0:
0,74,72495,6,0,P|52:72|103:125,1,97.7500018644333,0|10,3:0|0:0,0:0:0:0:
148,146,72710,1,0,3:0:0:0:
156,153,72781,2,0,P|203:166|281:82,1,146.62500279665,0|0,3:0|0:0,0:0:0:0:
276,111,73067,6,0,B|314:81|363:90|363:90|401:144|465:133,1,195.500003728867,0|0,3:0|3:0,0:0:0:0:
500,13,73495,2,0,P|470:22|447:46,2,48.8750009322167,10|0|2,0:0|0:0|3:1,0:0:0:0:
357,147,73781,5,10,0:0:0:0:
197,83,73924,1,2,3:1:0:0:
268,50,74067,5,8,0:0:0:0:
113,146,74210,2,0,B|79:155|79:155|56:167|56:167|3:181,1,97.7500018644333,6|8,3:1|0:0,0:0:0:0:
7,167,74424,1,0,0:0:0:0:
0,177,74495,2,0,P|-7:214|43:264,1,97.7500018644333,0|2,3:0|3:1,0:0:0:0:
148,343,74781,2,0,P|197:341|237:289,1,97.7500018644333,8|8,0:0|0:0,0:0:0:0:
376,188,75067,5,10,0:0:0:0:
396,193,75138,1,8,0:0:0:0:
428,210,75210,5,8,0:0:0:0:
460,222,75281,1,8,0:0:0:0:
493,233,75352,6,0,B|391:227|410:296|307:271,1,178.499994552612,6|2,3:1|3:1,0:0:0:0:
246,189,75781,2,0,L|177:168,2,44.6249986381531,8|0|0,0:0|0:0|3:0,0:0:0:0:
246,189,76067,1,8,0:0:0:0:
72,289,76210,2,0,P|116:288|154:265,1,89.2499972763062,2|8,3:1|0:0,0:0:0:0:
286,105,76495,6,0,P|351:98|417:187,1,178.499994552612,2|2,3:1|3:1,0:0:0:0:
266,5,76924,1,8,0:0:0:0:
416,179,77067,6,0,P|377:179|337:141,1,89.2499972763062,0|8,3:0|0:0,0:0:0:0:
168,34,77352,2,0,P|108:39|59:118,1,133.874995914459,2|0,3:1|0:0,0:0:0:0:
62,92,77638,6,0,B|74:128|74:128|66:159|66:159|77:201,1,89.2499972763062,2|8,3:1|0:0,0:0:0:0:
191,262,77924,2,0,B|276:294|276:294|230:182,1,178.499994552612,2|0,3:1|3:0,0:0:0:0:
242,212,78352,1,8,0:0:0:0:
85,280,78495,2,0,B|56:286|56:286|35:296|35:296|-19:308,1,89.2499972763062,2|8,3:1|0:0,0:0:0:0:
300,303,78781,6,0,B|345:314|345:314|381:348|381:348|449:360,1,133.874995914459,2|0,3:1|0:0,0:0:0:0:
441,361,79067,1,0,3:0:0:0:
501,236,79210,2,0,L|445:253,2,44.6249986381531,10|0|0,0:0|0:0|0:0,0:0:0:0:
306,151,79495,2,0,P|341:183|406:178,1,89.2499972763062,8|2,0:0|3:1,0:0:0:0:
442,137,79781,1,8,0:0:0:0:
154,314,79924,6,0,P|213:324|302:238,1,178.499994552612,6|2,3:1|3:1,0:0:0:0:
170,148,80352,5,8,0:0:0:0:
63,174,80495,2,0,L|174:185,1,89.2499972763062,0|8,3:0|0:0,0:0:0:0:
292,70,80781,2,0,L|404:82,1,89.2499972763062,2|8,3:1|0:0,0:0:0:0:
107,37,81067,6,0,L|226:85,1,89.2499972763062,2|8,3:1|0:0,0:0:0:0:
374,202,81352,2,0,B|461:165|461:165|350:156,1,178.499994552612,2|0,3:1|3:0,0:0:0:0:
255,198,81781,5,8,0:0:0:0:
206,256,81924,2,0,P|208:298|252:331,1,89.2499972763062,2|8,3:1|0:0,0:0:0:0:
369,366,82210,6,0,P|402:355|440:290,1,89.2499972763062,2|8,3:1|0:0,0:0:0:0:
157,219,82495,2,0,P|232:220|310:301,1,178.499994552612,2|0,3:1|3:0,0:0:0:0:
183,316,82924,5,8,0:0:0:0:
113,344,83067,2,0,B|80:336|80:336|51:339|51:339|-5:327,1,89.2499972763062,2|8,3:1|0:0,0:0:0:0:
292,195,83352,6,0,B|356:187|356:187|403:213|403:213|471:205,1,178.499994552612,2|0,3:1|3:0,0:0:0:0:
462,205,83781,1,10,0:0:0:0:
204,145,83924,6,0,L|219:264,1,89.2499972763062,0|8,0:0|0:0,0:0:0:0:
46,256,84210,5,2,3:1:0:0:
72,111,84352,1,8,0:0:0:0:
84,260,84495,6,0,B|92:218|68:191|68:191|44:176|44:176|21:142|55:83,1,178.499994552612,6|8,3:2|0:0,0:0:0:0:
204,145,84924,2,0,B|294:173|294:173|272:67,1,178.499994552612,2|12,3:2|0:0,0:0:0:0:
403,37,85352,2,0,B|455:16|455:16|496:48,1,89.2499972763062,0|0,3:0|3:0,0:0:0:0:
334,197,85638,6,0,B|371:225|382:241|382:241|420:227|482:212,1,133.874995914459,14|0,0:0|3:0,0:0:0:0:
476,214,85924,1,0,3:0:0:0:
292,294,86067,2,0,P|268:291|240:263,2,44.6249986381531,14|0|0,0:0|0:0|3:0,0:0:0:0:
411,354,86352,5,0,3:0:0:0:
251,279,86495,2,0,P|212:282|172:349,1,89.2499972763062,12|8,0:0|0:0,0:0:0:0:
73,144,86781,5,6,3:2:0:0:
158,193,86924,1,10,0:2:0:0:
245,139,87067,1,2,3:2:0:0:
220,24,87210,1,10,0:2:0:0:
456,258,87638,5,14,3:1:0:0:
264,207,87781,1,10,3:1:0:0:
346,203,87924,5,10,3:1:0:0:
150,248,88067,1,10,3:1:0:0:
