osu file format v14

[General]
AudioFilename: audio.ogg
AudioLeadIn: 0
PreviewTime: 56710
Countdown: 0
SampleSet: Soft
StackLeniency: 0.5
Mode: 0
LetterboxInBreaks: 0
WidescreenStoryboard: 1

[Editor]
DistanceSpacing: 0.9
BeatDivisor: 4
GridSize: 4
TimelineZoom: 1

[Metadata]
Title:Baptize (TV Size)
TitleUnicode:Baptize (TV Size)
Artist:Yousei Teikoku
ArtistUnicode:妖精帝國
Creator:Bellicose
Version:Misure's Redemption
Source:聖痕のクェイサー
Tags:gothic lolita agitator yui itsuki The Qwaser of Stigmata metal misure yf_bmp zekk Seikon no Qwaser anime opening op short version japanese rock goth 電気式華憐音楽集団 Denkishiki Karen Ongaku Shuudan Ekaterina Kurae エカテリーナ クラエ
BeatmapID:3602896
BeatmapSetID:1756890

[Difficulty]
HPDrainRate:6
CircleSize:4
OverallDifficulty:8.7
ApproachRate:9.3
SliderMultiplier:1.8
SliderTickRate:1

[Events]
//Background and Video events
0,0,"9511223_p0.jpg",0,0
//Break Periods
//Storyboard Layer 0 (Background)
//Storyboard Layer 1 (Fail)
//Storyboard Layer 2 (Pass)
//Storyboard Layer 3 (Foreground)
//Storyboard Layer 4 (Overlay)
//Storyboard Sound Samples

[TimingPoints]
2210,285.714285714286,4,2,2,65,1,0
2210,-125,4,2,2,65,0,0
10781,-125,4,2,2,70,0,0
11352,-100,4,2,2,75,0,0
20495,-125,4,2,2,55,0,0
29352,-100,4,2,2,65,0,0
29638,-100,4,2,2,75,0,0
38781,-100,4,2,2,65,0,0
47924,-125,4,2,2,55,0,0
55924,-125,4,2,0,70,0,0
56781,-76.9230769230769,4,2,0,75,0,0
57067,-76.9230769230769,4,2,2,85,0,1
65067,-66.6666666666667,4,2,2,90,0,1
66067,-66.6666666666667,4,2,2,90,0,0
66210,-76.9230769230769,4,2,2,85,0,1
74210,-66.6666666666667,4,2,2,90,0,1
75352,-100,4,2,2,80,0,0
84495,-76.9230769230769,4,2,2,75,0,0

[Colours]
Combo1 : 5,152,239
Combo2 : 36,166,126
Combo3 : 168,57,215
Combo4 : 209,64,56

[HitObjects]
144,11,2210,6,0,P|153:45|162:80,1,72,4|0,3:2|0:0,0:0:0:0:
162,80,2495,1,8,0:0:0:0:
118,195,2638,2,0,P|186:174|256:155,1,144,2|0,0:0|0:0,0:0:0:0:
369,119,3067,2,0,P|359:153|350:188,1,72,8|0,0:0|0:0,0:0:0:0:
371,359,3352,6,0,P|362:324|352:289,1,72,0|2,3:0|0:0,0:0:0:0:
352,290,3638,1,8,0:0:0:0:
263,362,3781,2,0,P|194:341|124:322,1,144,2|0,0:0|0:0,0:0:0:0:
38,271,4210,2,0,P|28:305|19:340,1,72,8|0,0:0|0:0,0:0:0:0:
23,162,4495,6,0,P|57:171|92:180,1,72,0|0,3:0|0:0,0:0:0:0:
93,181,4781,1,8,0:0:0:0:
180,239,4924,2,0,P|199:169|220:100,1,144,2|0,0:0|0:0,0:0:0:0:
101,5,5352,2,0,P|110:39|119:74,1,72,8|0,0:0|0:0,0:0:0:0:
220,101,5638,6,0,P|254:91|289:82,1,72,0|2,3:0|0:0,0:0:0:0:
289,82,5924,1,8,0:0:0:0:
407,197,6067,2,0,P|372:187|337:178,1,72,2|0,0:0|3:0,0:0:0:0:
337,178,6353,1,2,0:0:0:0:
411,5,6495,2,0,P|402:39|393:74,1,72,8|2,0:0|0:0,0:0:0:0:
411,379,6781,6,0,P|402:345|393:310,1,72,4|0,3:2|0:0,0:0:0:0:
392,309,7067,1,8,0:0:0:0:
268,237,7210,2,0,P|337:217|406:197,1,144,2|0,0:0|0:0,0:0:0:0:
175,284,7638,2,0,P|166:249|156:214,1,72,8|0,0:0|0:0,0:0:0:0:
249,68,7924,6,0,P|239:102|230:137,1,72,0|2,3:0|0:0,0:0:0:0:
230,137,8210,1,8,0:0:0:0:
138,74,8352,2,0,P|68:54|-1:34,1,144,2|0,0:0|0:0,0:0:0:0:
5,145,8781,2,0,P|39:153|74:163,1,72,8|0,0:0|0:0,0:0:0:0:
138,284,9067,6,0,P|146:249|156:214,1,72,0|2,3:0|0:0,0:0:0:0:
164,74,9352,2,0,P|198:82|233:92,1,72,8|2,0:0|0:0,0:0:0:0:
374,100,9638,2,0,P|365:134|355:169,1,72,0|2,3:0|0:0,0:0:0:0:
348,310,9923,2,0,P|313:301|278:291,1,72,8|2,0:0|0:0,0:0:0:0:
229,173,10210,5,0,3:0:0:0:
237,218,10352,1,2,0:0:0:0:
282,210,10495,1,8,0:0:0:0:
274,165,10637,1,2,0:0:0:0:
156,214,10781,5,0,3:0:0:0:
278,292,10924,1,2,3:2:0:0:
356,170,11067,1,8,0:0:0:0:
234,92,11210,1,10,0:0:0:0:
234,92,11281,1,8,0:0:0:0:
234,92,11352,6,0,P|223:43|215:4,1,90,4|2,3:2|0:0,0:0:0:0:
23,82,11638,2,0,P|67:73|112:64,1,90,0|2,1:0|0:3,0:0:0:0:
112,64,11924,1,0,3:0:0:0:
132,261,12067,1,2,0:3:0:0:
132,261,12138,1,0,0:0:0:0:
132,261,12210,2,0,P|140:216|150:172,1,90,0|2,1:0|0:0,0:0:0:0:
296,3,12495,6,0,P|287:48|277:91,1,90,0|2,3:0|0:3,0:0:0:0:
380,261,12781,2,0,P|371:216|361:172,1,90,0|2,1:0|0:0,0:0:0:0:
488,83,13067,2,0,P|443:74|399:64,1,90,0|2,3:0|0:3,0:0:0:0:
400,65,13281,1,0,0:0:0:0:
400,64,13352,2,0,P|390:107|381:152,1,90,0|2,1:0|0:3,0:0:0:0:
291,242,13638,6,0,P|336:251|380:261,1,90,0|2,3:0|0:0,0:0:0:0:
479,326,13924,2,0,P|487:282|497:238,1,90,0|2,1:0|0:3,0:0:0:0:
497,238,14210,1,0,3:0:0:0:
400,64,14352,1,2,0:3:0:0:
400,64,14424,1,0,0:0:0:0:
400,64,14495,2,0,P|409:107|418:152,1,90,0|2,1:0|0:0,0:0:0:0:
380,261,14781,6,0,P|335:252|291:242,1,90,0|2,3:0|0:3,0:0:0:0:
292,243,15067,1,0,1:0:0:0:
170,380,15210,2,0,P|213:370|258:361,1,90,2|0,0:0|3:0,0:0:0:0:
258,361,15496,1,2,0:3:0:0:
163,133,15638,1,0,1:0:0:0:
170,164,15710,1,0,1:0:0:0:
177,195,15781,1,2,3:0:0:0:
184,226,15853,1,0,3:0:0:0:
191,257,15924,5,4,3:2:0:0:
94,282,16067,1,2,0:0:0:0:
0,308,16210,1,0,1:0:0:0:
69,186,16352,1,2,0:3:0:0:
94,282,16495,1,0,3:0:0:0:
119,379,16638,1,2,0:3:0:0:
119,379,16710,1,0,0:0:0:0:
119,379,16781,2,0,P|162:369|207:360,1,90,0|2,1:0|0:0,0:0:0:0:
321,257,17067,5,0,3:0:0:0:
418,282,17210,1,2,0:3:0:0:
512,308,17353,1,0,1:0:0:0:
443,186,17495,1,2,0:0:0:0:
418,282,17638,1,0,3:0:0:0:
393,379,17781,1,2,0:3:0:0:
393,379,17853,1,0,0:0:0:0:
393,379,17924,2,0,P|350:369|305:360,1,90,0|2,1:0|0:3,0:0:0:0:
205,132,18210,5,0,3:0:0:0:
238,225,18352,1,2,0:0:0:0:
331,192,18494,1,0,1:0:0:0:
298,99,18638,1,2,0:3:0:0:
205,132,18780,1,0,3:0:0:0:
145,258,18924,1,2,0:3:0:0:
145,258,18995,1,0,0:0:0:0:
145,258,19067,2,0,P|128:216|111:174,1,90,0|2,1:0|0:0,0:0:0:0:
27,94,19352,6,0,P|68:77|110:60,1,90,0|2,3:0|0:3,0:0:0:0:
110,60,19638,1,0,1:0:0:0:
485,94,19781,2,0,P|444:77|402:60,1,90,2|0,0:0|3:0,0:0:0:0:
256,0,20067,1,2,3:0:0:0:
229,35,20138,1,0,3:0:0:0:
228,80,20209,1,0,1:0:0:0:
256,115,20281,1,0,1:0:0:0:
282,151,20352,1,2,3:0:0:0:
282,195,20423,1,0,3:0:0:0:
256,232,20495,5,4,3:2:0:0:
256,232,20781,1,0,3:0:0:0:
256,232,21067,1,0,3:0:0:0:
256,232,21352,1,0,3:0:0:0:
256,232,21638,6,0,P|220:222|185:212,1,72,0|2,3:0|0:0,0:0:0:0:
104,151,21924,2,0,P|93:185|83:220,1,72,0|2,3:0|0:0,0:0:0:0:
24,303,22210,2,0,P|59:312|93:322,1,72,0|2,3:0|0:0,0:0:0:0:
175,383,22496,2,0,P|183:347|193:313,1,72,0|2,3:0|0:0,0:0:0:0:
256,232,22781,5,0,3:0:0:0:
256,232,23067,1,0,3:0:0:0:
256,232,23353,1,0,3:0:0:0:
256,232,23638,1,0,3:0:0:0:
256,232,23924,6,0,P|292:222|327:212,1,72,0|2,3:0|0:0,0:0:0:0:
408,151,24210,2,0,P|418:185|429:220,1,72,0|2,3:0|0:0,0:0:0:0:
488,303,24496,2,0,P|452:312|419:322,1,72,0|2,3:0|0:0,0:0:0:0:
337,383,24782,1,0,3:0:0:0:
312,301,24924,1,2,3:2:0:0:
408,151,25067,5,4,3:2:0:0:
465,68,25210,2,0,P|428:58|396:49,2,72,2|8|0,0:0|0:1|0:0,0:0:0:0:
303,0,25638,2,0,P|293:32|283:69,1,72,0|2,3:0|0:0,0:0:0:0:
256,168,25924,1,8,0:1:0:0:
256,168,26067,1,0,0:0:0:0:
142,0,26210,5,0,3:0:0:0:
186,92,26353,2,0,P|151:101|117:111,2,72,2|8|0,0:0|0:1|0:0,0:0:0:0:
14,103,26781,2,0,P|23:136|34:172,1,72,0|2,3:0|0:0,0:0:0:0:
64,269,27067,1,8,0:1:0:0:
64,269,27210,1,0,0:0:0:0:
275,178,27352,5,0,3:0:0:0:
291,281,27495,2,0,P|254:270|221:261,2,72,2|8|0,0:0|0:1|0:0,0:0:0:0:
391,267,27924,2,0,P|382:296|370:336,1,72,0|2,3:0|0:0,0:0:0:0:
141,335,28210,2,0,P|131:301|121:267,1,72,8|0,0:1|0:0,0:0:0:0:
166,160,28495,6,0,P|100:134|32:108,1,144,2|8,3:2|0:1,0:0:0:0:
346,160,29067,2,0,P|412:134|480:108,1,144,2|8,3:2|0:1,0:0:0:0:
502,68,29424,1,8,0:1:0:0:
490,24,29495,1,0,3:0:0:0:
449,2,29567,1,0,3:0:0:0:
405,11,29638,5,4,3:2:0:0:
382,112,29781,1,2,0:0:0:0:
283,142,29924,1,0,1:0:0:0:
207,71,30067,1,2,0:3:0:0:
126,135,30210,2,0,P|139:177|152:221,1,90,0|2,3:0|0:3,0:0:0:0:
165,264,30424,1,0,0:0:0:0:
165,264,30495,2,0,P|121:276|78:290,1,90,0|2,1:0|0:0,0:0:0:0:
283,142,30781,5,0,3:0:0:0:
359,71,30924,1,2,0:3:0:0:
458,101,31067,1,0,1:0:0:0:
481,202,31210,1,2,0:3:0:0:
405,272,31352,1,0,3:0:0:0:
306,241,31495,1,2,0:0:0:0:
306,241,31567,1,2,0:0:0:0:
306,241,31638,1,0,1:0:0:0:
306,241,31710,1,0,0:0:0:0:
306,241,31781,1,2,0:3:0:0:
178,298,31924,6,0,P|191:340|204:384,1,90,0|2,3:0|0:0,0:0:0:0:
302,349,32210,2,0,P|343:335|388:322,1,90,0|2,1:0|0:3,0:0:0:0:
306,241,32495,1,0,3:0:0:0:
283,140,32638,1,2,0:3:0:0:
283,140,32710,1,0,0:0:0:0:
283,140,32781,1,0,1:0:0:0:
184,110,32924,1,2,0:0:0:0:
108,181,33067,6,0,P|65:168|23:155,1,90,0|2,3:0|0:3,0:0:0:0:
22,155,33352,1,0,1:0:0:0:
28,368,33495,2,0,P|70:354|114:341,1,90,2|0,0:0|3:0,0:0:0:0:
256,255,33781,1,2,3:0:0:0:
291,281,33852,1,0,3:0:0:0:
336,283,33924,1,0,1:0:0:0:
372,257,33995,1,0,1:0:0:0:
394,217,34067,1,2,3:0:0:0:
391,172,34138,1,0,3:0:0:0:
361,135,34210,6,0,P|373:91|387:48,1,90,4|2,3:2|0:0,0:0:0:0:
151,135,34495,2,0,P|139:91|125:48,1,90,0|2,1:0|0:3,0:0:0:0:
281,0,34781,1,0,3:0:0:0:
244,96,34924,1,2,0:3:0:0:
244,96,34995,1,0,0:0:0:0:
244,96,35067,1,0,1:0:0:0:
292,187,35210,1,2,0:0:0:0:
244,301,35352,6,0,P|202:284|159:268,1,90,0|2,3:0|0:3,0:0:0:0:
342,104,35638,2,0,P|383:120|425:136,1,90,0|2,1:0|0:3,0:0:0:0:
430,333,35924,1,0,3:0:0:0:
333,371,36067,1,2,0:0:0:0:
333,371,36138,1,2,0:0:0:0:
333,371,36210,1,0,1:0:0:0:
346,268,36353,1,2,0:3:0:0:
160,268,36495,6,0,P|147:311|135:354,1,90,0|2,3:0|0:0,0:0:0:0:
34,326,36781,2,0,P|46:282|58:239,1,90,0|2,1:0|0:3,0:0:0:0:
159,60,37067,2,0,P|147:103|136:147,1,90,0|2,3:0|0:3,0:0:0:0:
136,147,37281,1,0,0:0:0:0:
136,147,37352,2,0,P|92:134|49:122,1,90,0|2,1:0|0:0,0:0:0:0:
377,121,37638,6,0,P|420:133|463:145,1,90,0|2,3:0|0:3,0:0:0:0:
400,228,37924,1,0,1:0:0:0:
400,228,38067,1,2,0:0:0:0:
302,384,38210,1,0,3:0:0:0:
322,337,38281,1,0,3:0:0:0:
318,288,38353,1,2,3:0:0:0:
290,248,38424,1,0,3:0:0:0:
247,225,38496,1,0,1:0:0:0:
197,229,38567,1,0,1:0:0:0:
156,257,38638,1,2,3:0:0:0:
134,301,38710,1,0,3:0:0:0:
137,351,38781,1,4,3:2:0:0:
48,347,38924,6,0,P|35:303|21:260,1,90,8|0,0:0|3:0,0:0:0:0:
6,218,39138,1,0,3:0:0:0:
6,218,39210,2,0,P|49:205|92:191,1,90,8|0,0:0|3:0,0:0:0:0:
154,74,39495,1,8,0:0:0:0:
62,97,39638,2,0,P|49:53|35:10,2,90,0|8|0,3:0|0:0|3:0,0:0:0:0:
154,74,40067,6,0,P|193:61|240:47,1,90,10|0,0:0|3:0,0:0:0:0:
240,47,40281,1,0,3:0:0:0:
240,47,40352,1,10,0:0:0:0:
325,19,40495,1,0,3:0:0:0:
353,104,40638,1,10,0:0:0:0:
268,132,40781,1,0,3:0:0:0:
296,217,40924,1,10,0:0:0:0:
381,189,41067,1,0,3:0:0:0:
461,250,41210,6,0,P|473:206|487:163,1,90,8|0,0:0|3:0,0:0:0:0:
503,121,41424,1,0,3:0:0:0:
503,121,41496,2,0,P|459:108|416:94,1,90,8|0,0:0|3:0,0:0:0:0:
297,153,41781,1,8,0:0:0:0:
381,189,41924,2,0,P|367:231|354:275,2,90,0|8|0,3:0|0:0|3:0,0:0:0:0:
265,245,42352,6,0,P|222:230|180:213,1,90,10|0,0:0|3:0,0:0:0:0:
181,214,42567,1,0,3:0:0:0:
181,214,42638,1,10,0:0:0:0:
96,186,42781,1,0,3:0:0:0:
68,271,42924,1,10,0:0:0:0:
153,299,43067,1,0,3:0:0:0:
153,299,43138,1,0,3:0:0:0:
153,299,43210,1,10,0:0:0:0:
153,299,43281,1,8,0:0:0:0:
153,299,43353,1,4,3:2:0:0:
124,384,43495,6,0,P|82:370|38:357,2,90,8|0|8,0:0|3:0|0:0,0:0:0:0:
365,373,43924,1,0,3:0:0:0:
321,294,44067,1,8,0:0:0:0:
234,261,44210,1,0,3:0:0:0:
153,299,44353,1,8,0:0:0:0:
124,383,44495,1,0,3:0:0:0:
91,157,44638,6,0,P|133:171|176:183,1,90,10|0,0:0|3:0,0:0:0:0:
177,184,44852,1,0,3:0:0:0:
177,184,44924,1,10,0:0:0:0:
228,5,45067,2,0,P|216:48|203:92,1,90,0|10,3:0|0:0,0:0:0:0:
369,133,45352,1,0,3:0:0:0:
369,133,45424,1,0,3:0:0:0:
369,133,45495,2,0,P|381:89|395:47,1,90,10|0,0:0|3:0,0:0:0:0:
342,225,45781,6,0,P|384:239|427:251,2,90,8|0|8,0:0|3:0|0:0,0:0:0:0:
177,184,46210,1,0,3:0:0:0:
161,271,46352,1,8,0:0:0:0:
93,211,46495,1,0,3:0:0:0:
93,211,46567,1,0,3:0:0:0:
93,211,46638,1,8,0:0:0:0:
30,382,46781,6,0,P|72:367|116:355,1,90,2|8,3:2|0:0,0:0:0:0:
482,382,47067,2,0,P|439:367|395:355,1,90,2|8,3:2|0:0,0:0:0:0:
256,384,47352,1,0,3:0:0:0:
283,349,47423,1,0,3:0:0:0:
284,304,47494,1,8,0:0:0:0:
256,269,47566,1,8,0:0:0:0:
230,233,47638,1,2,3:2:0:0:
230,189,47710,1,2,3:2:0:0:
256,152,47781,1,0,3:0:0:0:
280,113,47853,1,0,3:0:0:0:
276,68,47924,6,0,P|207:66|167:9,1,144,6|0,3:2|3:0,0:0:0:0:
167,9,48495,1,0,1:0:0:0:
103,132,48781,2,0,P|136:118|170:106,1,72,0|2,3:0|0:0,0:0:0:0:
0,114,49067,2,0,P|13:147|25:181,1,72,0|2,3:0|0:0,0:0:0:0:
5,283,49352,2,0,P|72:257|140:233,1,144,0|0,3:0|1:0,0:0:0:0:
140,233,49924,5,0,3:0:0:0:
200,314,50067,1,2,3:2:0:0:
292,273,50210,1,0,3:0:0:0:
258,119,50495,5,0,3:0:0:0:
56,311,50781,1,0,1:0:0:0:
322,384,51067,1,0,3:0:0:0:
322,384,51210,1,2,3:2:0:0:
390,308,51352,6,0,P|423:294|457:282,1,72,0|2,3:0|0:0,0:0:0:0:
390,205,51638,1,0,3:0:0:0:
390,205,51924,2,0,P|366:135|343:68,1,144,0|0,1:0|3:0,0:0:0:0:
469,7,52352,1,2,3:2:0:0:
439,99,52495,1,4,3:2:0:0:
172,71,52781,6,0,P|179:35|187:0,1,72,0|0,3:0|0:0,0:0:0:0:
191,171,53067,2,0,P|155:162|120:155,1,72,0|0,1:0|0:0,0:0:0:0:
290,154,53352,2,0,P|281:189|274:224,1,72,0|2,3:0|0:0,0:0:0:0:
273,54,53638,6,0,P|308:62|343:69,1,72,0|2,3:0|0:0,0:0:0:0:
191,171,53924,2,0,P|155:162|120:155,1,72,0|0,3:0|0:0,0:0:0:0:
290,154,54210,2,0,P|281:189|274:224,1,72,0|0,1:0|0:0,0:0:0:0:
173,71,54495,1,0,3:0:0:0:
173,71,54638,1,0,3:0:0:0:
24,149,54781,6,0,P|40:219|55:289,1,144,2|0,3:2|3:0,0:0:0:0:
456,289,55352,2,0,P|471:219|488:149,1,144,2|0,1:2|3:0,0:0:0:0:
380,192,55781,5,0,3:0:0:0:
380,192,55852,1,0,3:0:0:0:
380,192,55924,1,6,1:0:0:0:
89,8,56352,5,6,1:0:0:0:
75,352,56781,5,0,1:0:0:0:
127,344,56852,1,0,1:0:0:0:
160,302,56924,1,0,1:0:0:0:
161,249,56995,1,0,1:0:0:0:
137,204,57067,6,0,P|146:147|156:89,1,116.999994644165,4|2,1:0|3:0,0:0:0:0:
336,113,57352,2,0,P|326:170|316:228,1,116.999994644165,8|2,0:1|3:0,0:0:0:0:
229,347,57638,2,0,P|286:356|344:366,1,116.999994644165,0|2,1:0|3:0,0:0:0:0:
385,371,57852,1,0,3:0:0:0:
425,377,57924,2,0,P|434:319|445:261,1,116.999994644165,8|2,0:1|3:0,0:0:0:0:
498,56,58210,6,0,P|393:91|317:10,1,233.999989288331,2|8,1:2|0:1,0:0:0:0:
498,328,58638,2,0,P|393:292|317:373,1,233.999989288331,2|2,3:2|3:2,0:0:0:0:
365,349,58995,1,0,3:0:0:0:
378,297,59067,1,8,0:1:0:0:
360,247,59138,1,0,3:0:0:0:
311,226,59209,1,2,3:2:0:0:
46,384,59352,6,0,P|38:325|29:268,1,116.999994644165,0|2,1:0|3:0,0:0:0:0:
158,372,59638,2,0,P|149:312|141:257,1,116.999994644165,8|2,0:1|3:0,0:0:0:0:
46,0,59924,2,0,P|38:58|29:115,1,116.999994644165,0|2,1:0|3:0,0:0:0:0:
158,12,60210,2,0,P|149:71|141:127,1,116.999994644165,8|2,0:1|3:0,0:0:0:0:
286,302,60495,6,0,P|399:273|512:245,1,233.999989288331,2|8,1:2|0:1,0:0:0:0:
256,173,60924,2,0,P|143:145|30:116,1,233.999989288331,2|2,3:2|3:2,0:0:0:0:
15,65,61281,1,0,3:0:0:0:
36,17,61352,1,8,0:1:0:0:
86,4,61423,1,0,3:0:0:0:
134,26,61495,1,2,3:2:0:0:
127,368,61638,6,0,P|111:307|97:254,1,116.999994644165,4|2,1:1|3:0,0:0:0:0:
10,347,61923,1,8,0:1:0:0:
10,347,62066,1,2,3:0:0:0:
226,300,62209,2,0,P|282:284|339:270,1,116.999994644165,0|2,1:0|3:0,0:0:0:0:
256,173,62495,1,8,0:1:0:0:
256,173,62638,1,2,3:0:0:0:
433,384,62781,6,0,P|455:269|479:154,1,233.999989288331,2|8,1:2|0:1,0:0:0:0:
141,225,63210,2,0,P|229:296|339:269,1,233.999989288331,2|2,3:2|3:2,0:0:0:0:
256,173,63638,1,8,0:1:0:0:
256,173,63709,1,0,3:0:0:0:
256,173,63780,1,2,3:2:0:0:
41,8,63924,6,0,P|55:60|71:121,1,116.999994644165,0|2,1:0|3:0,0:0:0:0:
164,34,64210,1,8,0:1:0:0:
164,34,64281,1,0,3:0:0:0:
164,34,64352,1,2,3:0:0:0:
138,367,64495,2,0,P|122:307|107:253,1,116.999994644165,0|2,1:0|3:0,0:0:0:0:
15,341,64781,1,8,0:1:0:0:
15,341,64852,1,0,3:0:0:0:
15,341,64923,1,2,3:0:0:0:
254,384,65067,6,0,P|315:361|381:339,1,135.000005149842,4|0,1:0|3:0,0:0:0:0:
258,0,65352,2,0,P|196:22|131:45,1,135.000005149842,12|0,0:1|3:0,0:0:0:0:
256,192,65638,5,2,1:2:0:0:
256,192,65781,1,2,3:2:0:0:
256,192,65924,5,8,0:1:0:0:
283,146,65995,1,0,3:0:0:0:
335,132,66067,1,2,3:2:0:0:
384,152,66138,1,0,3:0:0:0:
415,197,66210,6,0,P|428:141|443:84,1,116.999994644165,4|2,1:0|3:0,0:0:0:0:
97,197,66495,2,0,P|84:141|69:84,1,116.999994644165,8|2,0:1|3:0,0:0:0:0:
337,314,66781,2,0,P|279:322|221:332,1,116.999994644165,0|2,1:0|3:0,0:0:0:0:
221,332,66995,1,0,3:0:0:0:
221,332,67067,1,8,0:1:0:0:
256,192,67210,1,2,3:0:0:0:
1,231,67352,6,0,P|58:237|97:197,1,116.999994644165,2|0,1:2|3:0,0:0:0:0:
68,83,67638,1,8,0:1:0:0:
384,67,67781,2,0,P|365:182|347:298,1,233.999989288331,2|2,3:2|3:2,0:0:0:0:
370,345,68138,1,0,3:0:0:0:
415,370,68210,1,8,0:1:0:0:
467,364,68281,1,0,3:0:0:0:
505,328,68352,1,2,3:2:0:0:
199,125,68495,6,0,P|208:168|224:239,1,116.999994644165,0|2,1:0|3:0,0:0:0:0:
108,261,68781,2,0,P|95:203|82:146,1,116.999994644165,8|2,0:1|3:0,0:0:0:0:
336,158,69067,2,0,P|392:144|450:132,1,116.999994644165,0|2,1:0|3:0,0:0:0:0:
469,84,69281,1,0,3:0:0:0:
458,32,69352,1,8,0:1:0:0:
414,1,69424,1,0,3:0:0:0:
363,13,69495,1,2,3:0:0:0:
83,147,69638,5,0,1:0:0:0:
110,0,69781,1,2,3:2:0:0:
170,87,69924,1,8,0:1:0:0:
23,59,70067,1,2,3:2:0:0:
0,289,70210,2,0,P|57:298|115:309,1,116.999994644165,0|2,1:0|3:2,0:0:0:0:
164,310,70424,1,0,3:0:0:0:
206,278,70495,1,8,0:1:0:0:
221,228,70567,1,0,3:0:0:0:
195,182,70638,1,2,3:2:0:0:
512,249,70781,6,0,P|502:306|493:364,1,116.999994644165,4|2,1:0|3:0,0:0:0:0:
376,347,71067,2,0,P|386:289|395:232,1,116.999994644165,8|2,0:1|3:0,0:0:0:0:
262,350,71352,2,0,P|209:373|156:353,1,116.999994644165,0|2,1:0|3:0,0:0:0:0:
135,305,71567,1,0,3:0:0:0:
87,286,71638,1,8,0:1:0:0:
34,293,71710,1,0,3:0:0:0:
0,332,71781,1,2,3:0:0:0:
23,59,71924,6,0,P|80:70|138:80,2,116.999994644165,2|0|8,1:2|3:0|0:1,0:0:0:0:
249,151,72352,2,0,P|258:92|268:35,1,116.999994644165,2|0,3:2|1:0,0:0:0:0:
416,20,72638,1,2,3:2:0:0:
459,48,72709,1,0,3:0:0:0:
472,100,72781,1,8,0:1:0:0:
457,150,72852,1,0,3:0:0:0:
418,183,72923,1,2,3:2:0:0:
118,262,73067,5,0,1:0:0:0:
118,262,73210,2,0,B|221:286|221:286|249:274|249:274|344:293,1,233.999989288331,2|2,3:0|3:0,0:0:0:0:
269,36,73638,1,0,1:0:0:0:
242,183,73781,1,2,3:2:0:0:
329,123,73924,1,8,0:1:0:0:
182,95,74067,1,2,3:2:0:0:
37,302,74210,5,4,1:0:0:0:
68,343,74281,1,2,1:2:0:0:
120,353,74352,1,2,3:0:0:0:
171,336,74424,1,0,3:0:0:0:
206,294,74495,1,8,0:1:0:0:
257,278,74567,1,2,3:2:0:0:
308,291,74638,1,2,3:0:0:0:
344,331,74710,1,0,3:0:0:0:
346,384,74781,1,2,1:2:0:0:
311,342,74853,1,2,1:2:0:0:
308,291,74924,1,2,3:0:0:0:
331,242,74996,1,0,3:0:0:0:
379,219,75067,1,8,0:1:0:0:
415,178,75139,1,2,3:2:0:0:
417,124,75210,1,2,3:0:0:0:
395,74,75281,1,0,3:0:0:0:
352,44,75352,6,0,P|308:52|263:60,1,90,4|2,3:1|0:0,0:0:0:0:
163,123,75638,2,0,P|152:79|143:35,1,90,0|2,1:0|0:3,0:0:0:0:
143,35,75924,1,0,3:0:0:0:
138,243,76067,1,2,0:3:0:0:
138,243,76138,1,0,0:0:0:0:
138,243,76210,2,0,P|180:232|225:222,1,90,0|2,1:0|0:0,0:0:0:0:
351,383,76495,6,0,P|305:371|263:362,1,90,0|2,3:0|0:3,0:0:0:0:
343,174,76781,2,0,P|333:217|323:261,1,90,0|2,1:0|0:0,0:0:0:0:
118,330,77067,2,0,P|127:286|138:243,1,90,0|2,3:0|0:3,0:0:0:0:
138,243,77281,1,0,0:0:0:0:
138,243,77352,2,0,P|87:230|50:222,1,90,0|2,1:3|0:3,0:3:0:0:
78,21,77638,6,0,P|121:32|165:41,1,90,0|2,3:0|0:0,0:0:0:0:
282,12,77924,2,0,P|271:56|261:100,1,90,0|2,1:0|0:3,0:0:0:0:
261,100,78210,1,0,3:0:0:0:
138,243,78352,1,2,0:3:0:0:
138,243,78424,1,0,0:0:0:0:
138,243,78495,2,0,P|126:191|117:155,1,90,0|2,1:0|0:0,0:0:0:0:
242,214,78781,6,0,P|286:203|330:194,1,90,0|2,3:0|0:3,0:0:0:0:
330,194,79067,1,0,1:0:0:0:
448,104,79210,2,0,P|404:93|360:82,1,90,2|0,0:0|3:0,0:0:0:0:
361,83,79496,1,2,0:3:0:0:
399,342,79638,1,0,1:0:0:0:
406,311,79709,1,0,1:0:0:0:
413,280,79781,1,2,3:0:0:0:
420,249,79852,1,0,3:0:0:0:
427,218,79924,5,4,3:2:0:0:
330,194,80067,1,2,0:0:0:0:
233,170,80210,1,0,1:0:0:0:
209,267,80352,1,2,0:3:0:0:
185,364,80495,1,0,3:0:0:0:
88,340,80638,1,2,0:3:0:0:
88,340,80710,1,0,0:0:0:0:
88,340,80781,2,0,P|44:326|1:314,1,90,0|2,1:0|0:0,0:0:0:0:
15,121,81067,5,0,3:0:0:0:
112,97,81210,1,2,0:3:0:0:
209,73,81353,1,0,1:0:0:0:
233,170,81495,1,2,0:0:0:0:
257,267,81638,1,0,3:0:0:0:
354,243,81781,1,2,0:3:0:0:
354,243,81853,1,0,0:0:0:0:
354,243,81924,2,0,P|397:229|440:216,1,90,0|2,1:0|0:3,0:0:0:0:
476,24,82210,5,0,3:0:0:0:
452,121,82352,1,2,0:0:0:0:
355,97,82495,1,0,1:0:0:0:
379,0,82639,1,2,0:3:0:0:
133,0,82781,1,0,3:0:0:0:
157,97,82925,1,2,0:0:0:0:
157,97,82995,1,0,0:0:0:0:
157,97,83067,1,0,1:0:0:0:
60,121,83210,1,2,0:3:0:0:
8,259,83352,6,0,P|50:245|93:232,1,90,0|2,3:0|0:3,0:0:0:0:
94,232,83638,1,0,1:0:0:0:
503,259,83781,2,0,P|461:245|418:232,1,90,2|0,0:0|3:0,0:0:0:0:
256,373,84067,1,2,3:0:0:0:
229,338,84138,1,0,3:0:0:0:
228,293,84209,1,0,1:0:0:0:
256,258,84281,1,0,1:0:0:0:
282,222,84352,1,2,3:0:0:0:
282,178,84423,1,0,3:0:0:0:
254,140,84495,6,0,L|274:24,1,116.999994644165,4|0,1:1|0:0,0:0:0:0:
274,24,84781,1,8,1:0:0:0:
455,338,84924,1,0,3:0:0:0:
455,338,84995,1,0,3:0:0:0:
455,338,85067,2,0,L|339:317,1,116.999994644165,0|0,3:0|0:0,0:0:0:0:
24,249,85352,1,8,1:0:0:0:
24,249,85424,1,0,1:2:0:0:
24,249,85495,1,0,1:2:0:0:
274,24,85638,6,0,L|254:140,1,116.999994644165,4|0,1:0|3:0,0:0:0:0:
254,139,85852,1,0,3:0:0:0:
254,139,85924,1,8,1:0:0:0:
57,338,86067,2,0,L|172:317,1,116.999994644165,0|0,3:0|3:0,0:0:0:0:
172,317,86281,1,0,3:0:0:0:
172,317,86352,1,0,3:0:0:0:
456,228,86495,1,8,1:0:0:0:
456,228,86638,1,0,1:0:0:0:
226,45,86781,5,4,1:1:0:0:
109,220,86924,1,0,1:0:0:0:
284,337,87067,1,0,1:0:0:0:
401,162,87210,1,0,1:0:0:0:
372,16,87638,5,4,1:1:0:0:
430,307,87781,1,0,1:0:0:0:
138,366,87924,1,0,1:0:0:0:
80,74,88067,1,0,1:0:0:0:
