osu file format v14

[General]
AudioFilename: audio.ogg
AudioLeadIn: 0
PreviewTime: 56710
Countdown: 0
SampleSet: Normal
StackLeniency: 0.7
Mode: 0
LetterboxInBreaks: 0
WidescreenStoryboard: 1

[Editor]
DistanceSpacing: 1.3
BeatDivisor: 4
GridSize: 16
TimelineZoom: 1.6

[Metadata]
Title:Baptize (TV Size)
TitleUnicode:Baptize (TV Size)
Artist:Yousei Teikoku
ArtistUnicode:妖精帝國
Creator:Bellicose
Version:Hard
Source:聖痕のクェイサー
Tags:gothic lolita agitator yui itsuki The Qwaser of Stigmata metal misure yf_bmp zekk Seikon no Qwaser anime opening op short version japanese rock goth 電気式華憐音楽集団 Denkishiki Karen Ongaku Shuudan Ekaterina Kurae エカテリーナ クラエ
BeatmapID:3607765
BeatmapSetID:1756890

[Difficulty]
HPDrainRate:5
CircleSize:3.7
OverallDifficulty:7
ApproachRate:8
SliderMultiplier:1.4
SliderTickRate:1

[Events]
//Background and Video events
0,0,"9511223_p0.jpg",0,0
//Break Periods
//Storyboard Layer 0 (Background)
//Storyboard Layer 1 (Fail)
//Storyboard Layer 2 (Pass)
//Storyboard Layer 3 (Foreground)
//Storyboard Layer 4 (Overlay)
//Storyboard Sound Samples

[TimingPoints]
2210,285.714285714286,4,1,1,50,1,0
2210,-111.111111111111,4,1,1,50,0,0
8995,-100,4,1,1,5,0,0
9067,-100,4,1,1,50,0,0
9567,-100,4,1,1,5,0,0
9638,-111.111111111111,4,1,1,50,0,0
11352,-100,4,1,1,60,0,0
20495,-111.111111111111,4,1,1,50,0,0
20638,-111.111111111111,4,1,1,40,0,0
29067,-100,4,1,1,50,0,0
29638,-100,4,1,1,60,0,0
38781,-100,4,1,1,50,0,0
55924,-100,4,1,1,60,0,0
56781,-100,4,1,1,60,0,0
57067,-90.9090909090909,4,1,1,65,0,1
75352,-90.9090909090909,4,1,1,60,0,0
85638,-90.9090909090909,4,1,1,60,0,0

[Colours]
Combo1 : 247,169,74
Combo2 : 167,118,128
Combo3 : 218,156,116
Combo4 : 167,81,35

[HitObjects]
98,100,2210,6,0,P|132:89|171:86,1,62.9999980773926,6|0,3:2|0:0,0:0:0:0:
215,26,2495,2,0,P|302:46|352:48,1,125.999996154785,2|0,3:2|3:0,0:0:0:0:
406,94,2924,2,0,P|395:128|392:167,1,62.9999980773926,0|2,0:0|3:2,0:0:0:0:
501,276,3352,2,0,P|496:307|486:336,1,62.9999980773926,2|0,3:2|0:0,0:0:0:0:
408,363,3638,2,0,P|371:321|296:334,1,125.999996154785,2|0,3:2|3:0,0:0:0:0:
236,371,4067,2,0,P|204:366|175:356,1,62.9999980773926,0|2,0:0|3:2,0:0:0:0:
33,274,4495,6,0,P|64:269|93:259,1,62.9999980773926,2|0,3:2|0:0,0:0:0:0:
176,268,4781,2,0,P|196:181|198:131,1,125.999996154785,2|0,3:2|3:0,0:0:0:0:
245,77,5210,2,0,P|248:31|225:7,1,62.9999980773926,0|2,0:0|3:2,0:0:0:0:
75,12,5638,2,0,P|23:58|47:124,1,125.999996154785,2|0,3:2|3:0,0:0:0:0:
112,126,6067,2,0,B|112:205|57:157|60:251,1,125.999996154785,2|0,0:2|0:0,0:0:0:0:
6,296,6495,2,0,P|24:345|27:380,1,62.9999980773926,8|8,0:0|0:0,0:0:0:0:
109,384,6781,5,6,3:2:0:0:
109,384,7067,2,0,P|152:342|233:365,1,125.999996154785,2|0,3:2|3:0,0:0:0:0:
242,271,7495,2,0,P|224:222|221:187,1,62.9999980773926,0|2,0:0|3:2,0:0:0:0:
135,71,7924,2,0,P|153:22|156:-13,1,62.9999980773926,2|0,3:2|0:0,0:0:0:0:
237,6,8210,2,0,B|325:-1|274:54|365:45,1,125.999996154785,2|0,3:2|3:0,0:0:0:0:
429,25,8638,2,0,P|433:71|407:98,1,62.9999980773926,0|2,0:0|3:2,0:0:0:0:
245,108,9067,6,2,B|208:240|150:88|90:236|131:300|218:284|218:243,1,280,2|0,3:0|3:0,0:1:0:0:
291,212,9781,2,0,P|336:200|366:200,1,62.9999980773926,0|2,0:0|3:2,0:0:0:0:
498,274,10210,2,0,P|489:356|441:373,1,125.999996154785,2|0,3:2|3:0,0:0:0:0:
387,329,10638,2,0,P|376:249|359:203,1,125.999996154785,2|0,0:2|0:0,0:0:0:0:
428,159,11067,2,0,L|443:107,3,31.4999990386963,8|8|8|8,0:0|0:0|0:0|0:0,0:0:0:0:
465,93,11352,6,0,P|441:69|458:17,1,70,6|0,3:2|0:0,0:0:0:0:
354,8,11638,1,2,3:2:0:0:
354,8,11781,2,0,P|285:32|204:41,1,140,8|8,0:0|0:0,0:0:0:0:
139,86,12210,2,0,P|143:123|163:179,1,70,0|8,3:0|0:0,0:0:0:0:
241,136,12495,2,0,P|274:126|309:123,1,70,2|8,3:2|0:0,0:0:0:0:
398,161,12781,1,2,3:2:0:0:
398,161,12924,2,0,P|420:220|365:272,1,140,8|8,0:0|0:0,0:0:0:0:
293,316,13352,2,0,P|283:349|280:384,1,70,0|8,3:0|0:0,0:0:0:0:
274,229,13638,6,0,P|239:232|205:241,1,70,2|8,3:2|0:0,0:0:0:0:
186,334,13924,1,2,3:2:0:0:
186,334,14067,2,0,B|106:343|158:283|55:290,1,140,8|8,0:0|0:0,0:0:0:0:
0,226,14495,2,0,P|-1:183|40:158,1,70,0|8,3:0|0:0,0:0:0:0:
84,103,14781,1,2,3:1:0:0:
84,103,14924,2,0,P|80:68|71:34,1,70,0|0,0:0|3:0,0:0:0:0:
157,3,15210,2,0,P|175:81|179:168,1,140,10|8,0:0|0:0,0:0:0:0:
141,223,15638,2,0,L|89:234,3,35,2|0|8|8,3:1|3:0|0:0|0:0,0:0:0:0:
72,260,15924,6,0,P|75:294|84:328,1,70,6|8,3:2|0:0,0:0:0:0:
163,375,16210,1,2,3:2:0:0:
163,375,16352,2,0,P|217:329|293:352,1,140,8|8,0:0|0:0,0:0:0:0:
366,371,16781,2,0,P|387:339|374:299,1,70,0|8,3:0|0:0,0:0:0:0:
314,247,17067,2,0,P|310:212|301:178,1,70,2|8,3:2|0:0,0:0:0:0:
242,116,17352,1,2,3:2:0:0:
242,116,17495,2,0,P|320:134|407:138,1,140,8|8,0:0|0:0,0:0:0:0:
438,67,17924,2,0,P|428:33|425:-1,1,70,0|8,3:0|0:0,0:0:0:0:
511,122,18210,6,0,P|501:155|498:190,1,70,2|8,3:2|0:0,0:0:0:0:
508,285,18495,1,2,3:2:0:0:
508,285,18638,2,0,P|442:303|399:254,1,140,8|8,0:0|0:0,0:0:0:0:
321,303,19067,2,0,P|298:335|309:380,1,70,0|8,3:0|0:0,0:0:0:0:
256,234,19352,5,2,3:1:0:0:
256,234,19495,2,0,P|252:199|243:165,1,70,8|0,0:0|3:0,0:0:0:0:
312,105,19781,2,0,P|313:27|236:14,1,140,10|8,0:0|0:0,0:0:0:0:
221,22,20138,1,8,0:0:0:0:
221,22,20210,2,0,L|164:9,3,35,10|0|8|4,0:0|3:0|3:0|3:0,0:0:0:0:
154,39,20495,6,0,B|71:30|125:89|27:80,1,125.999996154785,4|0,3:1|3:2,0:0:0:0:
4,240,21067,2,0,P|65:249|142:275,1,125.999996154785,0|0,3:0|3:0,0:0:0:0:
213,129,21638,2,0,P|265:172|337:139,1,125.999996154785,0|0,3:0|3:0,0:0:0:0:
382,108,22067,1,0,0:2:0:0:
382,108,22210,2,0,P|442:97|486:139,1,125.999996154785,2|0,3:2|3:2,0:0:0:0:
511,301,22781,6,0,P|450:310|373:336,1,125.999996154785,0|0,3:0|3:0,0:0:0:0:
234,383,23352,2,0,P|225:322|199:245,1,125.999996154785,0|0,3:0|3:0,0:0:0:0:
330,153,23924,2,0,P|370:98|353:46,1,125.999996154785,0|0,3:0|0:0,0:0:0:0:
280,11,24352,1,0,0:0:0:0:
280,11,24495,2,0,P|225:51|173:34,1,125.999996154785,2|2,3:2|3:2,0:0:0:0:
128,105,24924,1,2,0:2:0:0:
128,105,25067,6,0,P|67:86|5:76,2,125.999996154785,4|0|2,3:1|0:0|3:1,0:0:0:0:
167,182,25781,1,0,0:0:0:0:
167,182,25924,2,0,P|227:163|289:153,1,125.999996154785,10|0,0:0|3:0,0:0:0:0:
325,80,26352,2,0,P|334:142|353:202,1,125.999996154785,2|0,0:0|0:0,0:0:0:0:
281,243,26781,2,0,P|267:279|259:330,1,62.9999980773926,2|0,3:1|0:0,0:0:0:0:
308,370,27067,2,0,P|344:356|395:348,1,62.9999980773926,10|0,0:0|0:0,0:0:0:0:
456,376,27352,6,0,P|463:298|518:274,1,125.999996154785,0|0,3:0|0:0,0:0:0:0:
510,197,27781,1,0,0:0:0:0:
510,197,27924,2,0,P|447:187|387:168,1,125.999996154785,2|10,3:1|0:0,0:0:0:0:
378,91,28352,1,0,0:0:0:0:
378,91,28495,2,0,P|347:53|261:69,1,125.999996154785,2|10,3:1|0:0,0:0:0:0:
145,184,29067,2,0,L|135:150,3,35,2|0|0|0,3:1|3:0|3:0|3:0,0:0:0:0:
121,107,29352,2,0,L|87:97,3,35,10|8|8|8,0:0|0:0|0:0|0:0,0:0:0:0:
41,92,29638,6,0,P|18:129|34:165,1,70,6|8,3:2|0:0,0:0:0:0:
62,241,29924,1,2,3:2:0:0:
62,241,30067,2,0,P|52:306|30:383,1,140,8|8,0:0|0:0,0:0:0:0:
125,384,30495,2,0,P|158:372|192:367,1,70,0|8,3:0|0:0,0:0:0:0:
283,380,30781,2,0,P|306:343|290:307,1,70,2|8,3:2|0:0,0:0:0:0:
222,280,31067,1,2,3:2:0:0:
222,280,31210,2,0,B|231:202|158:239|180:148,1,140,8|8,0:0|0:0,0:0:0:0:
178,65,31638,2,0,P|212:59|245:48,1,70,0|8,3:0|0:0,0:0:0:0:
327,6,31924,6,0,P|332:40|343:73,1,70,2|8,3:2|0:0,0:0:0:0:
277,136,32210,1,2,3:2:0:0:
277,136,32352,2,0,P|329:172|409:143,1,140,8|8,0:0|0:0,0:0:0:0:
480,112,32781,2,0,P|491:145|496:179,1,70,0|8,3:0|0:0,0:0:0:0:
511,270,33067,2,0,P|476:275|443:286,1,70,2|8,3:1|0:0,0:0:0:0:
359,263,33352,1,0,3:0:0:0:
359,263,33495,2,0,P|397:303|369:387,1,140,10|8,0:0|0:0,0:0:0:0:
299,333,33924,2,0,L|238:320,3,35,2|0|8|8,3:1|3:0|0:0|0:0,0:0:0:0:
221,341,34210,6,0,P|206:318|226:260,1,70,6|8,3:2|0:0,0:0:0:0:
276,214,34495,1,2,3:2:0:0:
276,214,34638,2,0,P|255:140|249:68,1,140,8|8,0:0|0:0,0:0:0:0:
181,15,35067,2,0,P|146:9|113:-1,1,70,0|8,3:0|0:0,0:0:0:0:
25,23,35352,2,0,P|36:56|41:90,1,70,2|8,3:2|0:0,0:0:0:0:
16,181,35638,1,2,3:2:0:0:
16,181,35781,2,0,P|57:127|124:131,1,140,8|8,0:0|0:0,0:0:0:0:
202,179,36210,2,0,P|190:212|185:246,1,70,0|8,3:0|0:0,0:0:0:0:
250,310,36495,6,0,P|253:346|223:379,1,70,2|8,3:2|0:0,0:0:0:0:
156,334,36781,1,2,3:2:0:0:
156,334,36924,2,0,B|69:335|137:274|20:283,1,140,8|8,0:0|0:0,0:0:0:0:
2,197,37352,2,0,P|36:191|69:180,1,70,0|8,3:0|0:0,0:0:0:0:
85,93,37638,1,2,3:1:0:0:
85,93,37781,2,0,P|114:74|153:80,1,70,8|0,0:0|3:0,0:0:0:0:
232,112,38067,2,0,P|214:171|200:278,1,140,10|8,0:0|0:0,0:0:0:0:
224,287,38424,1,8,0:0:0:0:
224,287,38495,2,0,L|274:272,3,35,10|0|8|4,0:0|3:0|3:0|3:0,0:0:0:0:
298,297,38781,6,0,P|301:337|277:369,1,70,4|10,3:1|0:2,0:0:0:0:
381,373,39067,1,0,3:2:0:0:
381,373,39210,2,0,P|434:322|504:349,1,140,10|10,0:2|0:2,0:0:0:0:
505,249,39638,1,0,3:2:0:0:
505,249,39781,2,0,B|503:165|442:219|438:126,1,140,10|10,0:2|0:2,0:0:0:0:
492,62,40210,1,0,3:0:0:0:
492,62,40352,2,0,P|451:41|412:54,1,70,10|0,0:2|3:0,0:0:0:0:
347,1,40638,2,0,P|324:75|314:158,1,140,10|10,0:2|0:2,0:0:0:0:
365,224,41067,6,0,P|330:227|296:237,1,70,0|10,3:0|0:2,0:0:0:0:
230,175,41352,1,0,3:0:0:0:
230,175,41495,2,0,P|169:194|108:139,1,140,10|10,0:2|0:2,0:0:0:0:
187,98,41924,1,0,3:0:0:0:
187,98,42067,2,0,P|134:56|69:74,1,140,10|10,0:2|0:2,0:0:0:0:
2,136,42495,1,0,3:0:0:0:
2,136,42638,2,0,P|12:169|15:204,1,70,10|0,0:2|3:0,0:0:0:0:
68,284,42924,2,0,P|33:287|0:297,1,70,10|0,0:2|3:0,0:0:0:0:
108,200,43210,2,0,P|142:196|176:186,1,70,10|4,0:2|3:1,0:0:0:0:
266,171,43495,6,0,B|270:258|326:203|328:297,1,140,10|10,0:2|0:2,0:0:0:0:
272,362,43924,1,0,3:0:0:0:
272,362,44067,2,0,P|199:373|164:326,1,140,10|10,0:2|0:2,0:0:0:0:
82,371,44495,1,0,3:0:0:0:
82,371,44638,2,0,P|64:289|57:222,1,140,10|10,0:2|0:2,0:0:0:0:
6,163,45067,1,0,3:0:0:0:
6,163,45210,2,0,P|15:129|20:94,1,70,10|0,0:2|3:0,0:0:0:0:
74,21,45495,2,0,P|112:44|158:20,1,70,10|0,0:2|3:0,0:0:0:0:
226,48,45781,6,0,B|217:137|173:76|168:178,1,140,10|10,0:2|0:2,0:0:0:0:
152,262,46210,1,0,3:0:0:0:
152,262,46352,2,0,P|185:252|220:247,1,70,10|0,0:2|3:0,0:0:0:0:
291,313,46638,1,10,0:2:0:0:
291,313,46781,2,0,P|286:347|276:381,1,70,2|8,3:2|0:0,0:0:0:0:
390,342,47067,2,0,L|402:290,3,35,2|0|0|0,3:2|3:0|3:0|3:0,0:0:0:0:
405,263,47352,2,0,L|353:251,3,35,10|8|8|8,0:2|0:2|0:2|0:2,0:0:0:0:
337,223,47638,2,0,L|349:171,3,35,10|8|8|8,0:2|0:2|0:2|0:2,0:0:0:0:
372,152,47924,6,0,B|472:146|410:206|520:200,2,140,6|0|8,3:2|3:0|0:0,0:0:0:0:
253,13,48781,2,0,P|217:10|182:38,1,70,2|8,3:2|0:0,0:0:0:0:
141,105,49067,2,0,P|157:145|160:195,1,70,2|8,3:2|0:0,0:0:0:0:
251,165,49352,2,0,P|256:199|270:231,1,70,2|0,3:2|0:0,0:0:0:0:
315,311,49638,2,0,P|269:269|179:296,1,140,10|2,0:2|3:2,0:0:0:0:
143,354,50067,1,8,0:0:0:0:
143,354,50210,6,0,P|58:331|-7:324,2,140,2|2|10,3:2|3:2|0:2,0:0:0:0:
17,222,51067,2,0,P|-4:195|20:144,1,70,2|8,3:2|0:0,0:0:0:0:
23,75,51352,1,2,3:2:0:0:
23,75,51495,2,0,P|149:87|190:18,1,210,8|10,0:0|0:2,0:0:0:0:
369,6,52210,2,0,P|355:53|354:91,1,70,8|8,0:0|0:0,0:0:0:0:
284,132,52495,5,4,3:1:0:0:
284,132,52781,2,0,P|355:122|399:195,2,140,2|10|2,3:2|0:2|3:2,0:0:0:0:
216,193,53495,1,8,0:0:0:0:
216,193,53638,2,0,P|227:226|231:260,1,70,2|0,3:2|0:0,0:0:0:0:
288,332,53924,2,0,P|221:312|124:310,2,140,2|10|2,3:2|0:2|3:2,0:0:0:0:
374,373,54638,1,0,0:0:0:0:
374,373,54781,2,0,P|437:325|505:349,2,140,2|2|10,3:2|3:2|0:2,0:0:0:0:
506,247,55638,2,0,P|494:213|490:179,1,70,0|0,3:0|3:0,0:0:0:0:
502,86,55924,6,0,P|468:97|434:101,1,70,14|8,0:1|3:0,0:0:0:0:
354,146,56210,1,4,3:0:0:0:
399,224,56352,2,0,B|309:228|372:173|260:174,1,140,14|4,0:1|3:0,0:0:0:0:
253,85,56781,2,0,P|264:51|268:17,1,70,14|8,0:1|0:0,0:0:0:0:
163,56,57067,6,2,P|95:96|122:177,1,154.000004699707,6|0,3:2|3:0,0:1:0:0:
187,217,57495,2,0,P|209:264|193:301,1,77.0000023498536,10|0,0:0|3:0,0:0:0:0:
167,376,57781,1,8,0:0:0:0:
167,376,57852,1,0,3:0:0:0:
167,376,57924,2,0,P|124:360|77:360,1,77.0000023498536,2|8,3:1|0:0,0:0:0:0:
21,287,58210,2,0,P|15:208|-9:111,1,154.000004699707,2|2,3:1|3:1,0:0:0:0:
18,36,58638,2,0,P|59:10|102:21,1,77.0000023498536,10|0,0:0|3:0,0:0:0:0:
183,36,58924,1,8,0:0:0:0:
129,120,59067,2,0,P|118:156|114:195,1,77.0000023498536,2|8,3:1|0:0,0:0:0:0:
192,257,59352,6,0,B|289:268|232:185|347:200,1,154.000004699707,2|2,3:1|3:1,0:0:0:0:
408,252,59781,1,8,0:0:0:0:
494,201,59924,2,0,P|504:164|508:125,1,77.0000023498536,2|8,3:1|0:0,0:0:0:0:
498,25,60210,2,0,P|461:35|422:39,1,77.0000023498536,2|8,3:1|0:0,0:0:0:0:
328,7,60495,2,0,P|385:33|381:123,1,154.000004699707,2|2,3:1|3:1,0:0:0:0:
318,189,60924,2,0,P|281:178|242:174,1,77.0000023498536,10|2,0:0|3:1,0:0:0:0:
237,81,61210,1,8,0:0:0:0:
237,81,61281,1,0,3:0:0:0:
237,81,61352,2,0,P|198:77|161:66,1,77.0000023498536,2|8,3:1|0:0,0:0:0:0:
130,162,61638,6,0,P|140:198|144:237,1,77.0000023498536,4|8,3:1|0:0,0:0:0:0:
230,289,61924,1,2,3:1:0:0:
176,373,62067,2,0,P|138:352|91:366,1,77.0000023498536,8|2,0:0|3:1,0:0:0:0:
26,314,62352,1,8,0:0:0:0:
26,314,62424,1,0,3:0:0:0:
26,314,62495,2,0,P|5:276|19:229,1,77.0000023498536,2|8,3:1|0:0,0:0:0:0:
15,143,62781,6,0,P|92:164|186:176,1,154.000004699707,2|2,3:1|3:1,0:0:0:0:
250,119,63210,2,0,P|271:157|257:204,1,77.0000023498536,10|0,0:0|3:0,0:0:0:0:
201,264,63495,1,10,0:0:0:0:
295,298,63638,2,0,P|337:282|396:274,1,77.0000023498536,0|10,3:0|0:0,0:0:0:0:
457,334,63924,1,0,3:0:0:0:
457,334,64067,2,0,B|444:243|524:281|501:175,1,154.000004699707,10|10,0:0|0:0,0:0:0:0:
497,95,64495,2,0,P|459:86|423:72,1,77.0000023498536,2|10,3:1|0:0,0:0:0:0:
341,14,64781,2,0,P|326:49|318:87,1,77.0000023498536,0|10,3:0|0:0,0:0:0:0:
381,164,65067,5,2,3:1:0:0:
354,260,65210,1,10,0:1:0:0:
256,279,65352,1,2,3:1:0:0:
185,207,65495,2,0,P|99:221|52:171,1,154.000004699707,10|8,0:1|0:0,0:0:0:0:
136,111,65924,2,0,P|151:76|159:38,1,77.0000023498536,2|8,3:1|0:0,0:0:0:0:
198,12,66138,1,8,0:0:0:0:
198,12,66210,6,2,B|302:0|236:73|349:55,1,154.000004699707,6|0,3:2|3:0,0:1:0:0:
419,0,66638,2,0,P|456:7|491:22,1,77.0000023498536,10|0,0:0|3:0,0:0:0:0:
512,129,66924,1,8,0:0:0:0:
512,129,66995,1,0,3:0:0:0:
512,129,67067,2,0,P|510:179|467:205,1,77.0000023498536,2|8,3:1|0:0,0:0:0:0:
404,143,67352,2,0,P|328:158|256:185,1,154.000004699707,2|2,3:1|3:1,0:0:0:0:
328,255,67781,2,0,P|312:290|305:327,1,77.0000023498536,10|0,0:0|3:0,0:0:0:0:
217,378,68067,1,8,0:0:0:0:
150,303,68210,2,0,P|152:253|195:227,1,77.0000023498536,2|8,3:1|0:0,0:0:0:0:
256,185,68495,6,0,B|272:96|185:142|205:40,1,154.000004699707,2|2,3:1|3:1,0:0:0:0:
116,0,68924,1,8,0:0:0:0:
23,37,69067,2,0,P|38:72|45:109,1,77.0000023498536,2|8,3:1|0:0,0:0:0:0:
0,199,69352,2,0,P|37:206|72:221,1,77.0000023498536,2|8,3:1|0:0,0:0:0:0:
149,155,69638,2,0,P|230:172|278:96,1,154.000004699707,2|2,3:1|3:1,0:0:0:0:
305,29,70067,2,0,P|340:44|377:51,1,77.0000023498536,10|2,0:0|3:1,0:0:0:0:
483,38,70352,1,8,0:0:0:0:
483,38,70424,1,0,3:0:0:0:
483,38,70495,2,0,P|487:84|455:108,1,77.0000023498536,2|8,3:1|0:0,0:0:0:0:
378,151,70781,6,0,P|370:188|355:223,1,77.0000023498536,4|8,3:1|0:0,0:0:0:0:
255,234,71067,1,2,3:1:0:0:
307,319,71210,2,0,P|344:326|379:341,1,77.0000023498536,8|2,0:0|3:1,0:0:0:0:
485,369,71495,1,8,0:0:0:0:
485,369,71567,1,0,3:0:0:0:
485,369,71638,2,0,P|492:331|507:296,1,77.0000023498536,2|8,3:1|0:0,0:0:0:0:
494,195,71924,6,0,P|419:208|375:144,1,154.000004699707,2|2,3:1|3:1,0:0:0:0:
370,52,72352,2,0,P|328:51|301:79,1,77.0000023498536,10|0,0:0|3:0,0:0:0:0:
276,170,72638,1,10,0:0:0:0:
205,99,72781,2,0,P|189:63|182:26,1,77.0000023498536,0|10,3:0|0:0,0:0:0:0:
85,19,73067,1,0,3:0:0:0:
85,19,73210,2,0,P|55:83|114:146,1,154.000004699707,10|10,0:0|0:0,0:0:0:0:
72,238,73638,2,0,P|36:253|0:260,1,77.0000023498536,2|10,3:1|0:0,0:0:0:0:
56,343,73924,2,0,P|93:350|128:365,1,77.0000023498536,2|8,3:1|0:0,0:0:0:0:
228,378,74210,6,0,P|255:337|243:301,1,77.0000023498536,6|8,3:1|0:0,0:0:0:0:
183,237,74495,2,0,L|196:177,3,38.5000011749268,0|0|2|0,3:0|3:0|3:1|3:0,0:0:0:0:
202,150,74781,2,0,L|239:158,3,38.5000011749268,8|8|8|8,0:0|0:0|0:0|0:0,0:0:0:0:
289,163,75067,2,0,L|302:103,3,38.5000011749268,10|8|8|8,0:0|0:0|0:0|0:0,0:0:0:0:
312,78,75352,6,0,P|349:101|392:92,1,77.0000023498536,6|8,3:1|0:0,0:0:0:0:
459,33,75638,1,2,3:1:0:0:
459,33,75781,2,0,B|455:122|519:72|512:172,1,154.000004699707,8|8,0:0|0:0,0:0:0:0:
446,245,76210,2,0,P|410:229|373:222,1,77.0000023498536,2|8,3:1|0:0,0:0:0:0:
289,163,76495,2,0,P|251:170|216:185,1,77.0000023498536,2|8,3:1|0:0,0:0:0:0:
184,281,76781,1,2,3:1:0:0:
184,281,76924,2,0,P|258:307|354:323,1,154.000004699707,8|8,0:0|0:0,0:0:0:0:
420,368,77352,2,0,P|449:345|505:362,1,77.0000023498536,2|8,3:1|0:0,0:0:0:0:
505,248,77638,6,0,P|489:212|482:175,1,77.0000023498536,2|8,3:1|0:0,0:0:0:0:
505,79,77924,1,2,3:1:0:0:
505,79,78067,2,0,P|458:134|369:92,1,154.000004699707,8|8,0:0|0:0,0:0:0:0:
350,211,78495,2,0,P|314:195|277:188,1,77.0000023498536,2|8,3:1|0:0,0:0:0:0:
291,91,78781,1,2,3:1:0:0:
291,91,78924,2,0,P|275:55|268:18,1,77.0000023498536,0|0,0:0|3:0,0:0:0:0:
200,132,79210,2,0,B|103:118|157:193|43:175,1,154.000004699707,10|8,0:0|0:0,0:0:0:0:
3,95,79638,2,0,L|18:35,3,38.5000011749268,2|0|8|8,3:1|3:0|0:0|0:0,0:0:0:0:
42,17,79924,6,0,P|75:42|128:26,1,77.0000023498536,6|8,3:1|0:0,0:0:0:0:
183,114,80210,1,2,3:1:0:0:
183,114,80352,2,0,P|160:189|149:269,1,154.000004699707,8|8,0:0|0:0,0:0:0:0:
51,287,80781,2,0,P|27:323|48:376,1,77.0000023498536,2|8,3:1|0:0,0:0:0:0:
129,375,81067,2,0,P|164:359|201:352,1,77.0000023498536,2|8,3:1|0:0,0:0:0:0:
299,377,81352,1,2,3:1:0:0:
299,377,81495,2,0,B|284:276|365:335|348:217,1,154.000004699707,8|8,0:0|0:0,0:0:0:0:
361,141,81924,2,0,P|325:156|288:163,1,77.0000023498536,2|8,3:1|0:0,0:0:0:0:
229,245,82210,6,0,P|191:242|161:265,1,77.0000023498536,2|8,3:1|0:0,0:0:0:0:
64,262,82495,1,2,3:1:0:0:
64,262,82638,2,0,P|9:194|63:129,1,154.000004699707,8|8,0:0|0:0,0:0:0:0:
107,73,83067,2,0,P|122:37|129:0,1,77.0000023498536,2|8,3:1|0:0,0:0:0:0:
220,65,83352,1,2,3:1:0:0:
220,65,83495,2,0,P|204:100|197:137,1,77.0000023498536,0|0,0:0|3:0,0:0:0:0:
180,237,83781,2,0,B|281:256|231:176|337:201,1,154.000004699707,10|8,0:0|0:0,0:0:0:0:
354,234,84138,1,0,3:0:0:0:
354,234,84210,2,0,L|423:215,3,38.5000011749268,2|0|8|8,3:1|3:0|0:0|0:0,0:0:0:0:
435,202,84495,6,0,P|490:270|436:335,1,154.000004699707,6|8,3:2|0:0,0:0:0:0:
382,380,84924,2,0,P|346:364|309:357,1,77.0000023498536,2|0,3:2|3:0,0:0:0:0:
209,372,85210,2,0,P|216:334|231:299,1,77.0000023498536,12|0,0:0|3:0,0:0:0:0:
164,224,85495,1,0,3:0:0:0:
215,138,85638,2,0,P|167:182|69:147,1,154.000004699707,14|0,0:0|3:0,0:0:0:0:
8,102,86067,2,0,P|55:57|153:92,1,154.000004699707,14|0,0:0|3:0,0:0:0:0:
220,17,86495,2,0,P|255:32|292:39,1,77.0000023498536,12|8,0:0|0:0,0:0:0:0:
375,106,86781,5,6,3:2:0:0:
375,106,86924,1,10,0:2:0:0:
317,188,87067,2,0,P|354:195|389:210,1,77.0000023498536,2|10,3:2|0:2,0:0:0:0:
389,210,87638,1,14,3:1:0:0:
486,188,87781,1,10,3:1:0:0:
511,90,87924,1,10,3:1:0:0:
442,16,88067,1,10,3:1:0:0:
