osu file format v14

[General]
AudioFilename: audio.mp3
AudioLeadIn: 0
PreviewTime: 126466
Countdown: 0
SampleSet: Normal
StackLeniency: 0.6
Mode: 0
LetterboxInBreaks: 0
WidescreenStoryboard: 1

[Editor]
Bookmarks: 78799,89466,94799,172133,246799,266799,304133,310799,321466,326133,333466,342799
DistanceSpacing: 1.5
BeatDivisor: 4
GridSize: 4
TimelineZoom: 3.100001

[Metadata]
Title:Astral Dogma
TitleUnicode:Astral Dogma
Artist:Yousei Teikoku
ArtistUnicode:妖精帝國
Creator:puxtu
Version:Saten
Source:
Tags:Saten PAX VESANIA Yui Itsuki 伊月ゆい Lantis fairy empire gothic lolita rock metal
BeatmapID:1354937
BeatmapSetID:586542

[Difficulty]
HPDrainRate:6
CircleSize:4
OverallDifficulty:8.6
ApproachRate:9
SliderMultiplier:2
SliderTickRate:1

[Events]
//Background and Video events
0,0,"__original_drawn_by_dishwasher1910__505f0887594890670434d5dc33ea2840.png",0,0
//Break Periods
2,29466,34199
2,238999,245866
2,262666,266199
//Storyboard Layer 0 (Background)
//Storyboard Layer 1 (Fail)
//Storyboard Layer 2 (Pass)
//Storyboard Layer 3 (Foreground)
//Storyboard Sound Samples

[TimingPoints]
6800,333.333333333333,4,2,1,30,1,0
6800,-133.333333333333,4,2,1,30,0,0
26799,-156.25,4,2,1,30,0,0
27549,-200,4,2,1,30,0,0
34799,-200,4,2,1,40,0,0
56133,-133.333333333333,4,1,1,70,0,0
66799,-100,4,1,1,80,0,0
105466,-133.333333333333,4,1,1,60,0,0
126799,-100,4,1,1,80,0,1
137466,-100,4,1,1,80,0,0
148133,-100,4,1,1,80,0,1
160133,-100,4,1,1,80,0,0
182799,-133.333333333333,4,1,1,60,0,0
204133,-100,4,1,1,80,0,1
214799,-100,4,1,1,80,0,0
225466,-100,4,1,1,80,0,1
237466,-133.333333333333,4,1,1,60,0,0
262799,-200,4,2,1,50,0,0
276799,-100,4,1,1,70,0,0
277466,-83.3333333333333,4,1,1,80,0,1
288133,-83.3333333333333,4,1,1,80,0,0
298799,-83.3333333333333,4,1,1,80,0,1
310799,-100,4,1,1,80,0,0
332133,-144.927536231884,4,1,1,50,0,0
333466,-133.333333333333,4,2,1,80,0,0
333633,-133.333333333333,4,2,1,5,0,0

[HitObjects]
126,350,6800,6,0,P|197:364|255:320,1,150.000005722046,2|0,0:0|0:0,0:0:0:0:
328,192,7466,1,2,0:0:0:0:
192,124,7799,1,0,0:0:0:0:
176,272,8133,5,2,0:0:0:0:
212,284,8216,1,2,0:0:0:0:
248,296,8299,1,2,0:0:0:0:
284,308,8383,1,2,0:0:0:0:
320,320,8466,2,0,P|368:260|356:192,1,150.000005722046,2|2,0:0|0:0,0:0:0:0:
256,80,9133,1,0,0:0:0:0:
155,192,9466,6,0,P|103:142|102:69,1,150.000005722046,2|0,0:0|0:0,0:0:0:0:
356,192,10133,2,0,P|408:142|409:69,1,150.000005722046,2|0,0:0|0:0,0:0:0:0:
256,12,10799,1,2,0:0:0:0:
256,192,11133,2,0,L|256:268,2,75.0000028610231,0|2|0,0:0|0:0|0:0,0:0:0:0:
447,19,12133,6,0,P|480:84|452:152,1,150.000005722046,2|0,0:0|0:0,0:0:0:0:
447,364,12799,2,0,P|480:299|452:232,1,150.000005722046,2|0,0:0|0:0,0:0:0:0:
256,120,13466,1,2,0:0:0:0:
60,232,13799,1,2,0:0:0:0:
80,264,13883,1,2,0:0:0:0:
100,296,13966,1,2,0:0:0:0:
120,328,14049,1,2,0:0:0:0:
140,360,14132,1,2,0:0:0:0:
348,272,14466,1,0,0:0:0:0:
164,112,14799,5,2,0:0:0:0:
264,313,15133,1,0,0:0:0:0:
247,70,15466,1,2,0:0:0:0:
176,284,15799,1,0,0:0:0:0:
336,100,16132,5,0,0:0:0:0:
400,192,16299,1,2,0:0:0:0:
336,284,16466,1,0,0:0:0:0:
112,192,16799,1,2,0:0:0:0:
256,191,17466,6,0,P|287:93|196:44,1,225.000008583069,2|0,0:0|0:0,0:0:0:0:
256,191,18133,2,0,P|303:283|403:253,1,225.000008583069,2|0,0:0|0:0,0:0:0:0:
256,191,18799,2,0,P|157:159|108:251,1,225.000008583069,2|0,0:0|0:0,0:0:0:0:
256,191,19466,1,2,0:0:0:0:
72,56,19799,1,0,0:0:0:0:
92,280,20133,6,0,P|171:347|256:288,1,225.000008583069,2|0,0:0|0:0,0:0:0:0:
261,5,20799,2,0,P|163:40|172:144,1,225.000008583069,2|0,0:0|0:0,0:0:0:0:
414,290,21466,2,0,P|433:187|339:144,1,225.000008583069,2|0,0:0|0:0,0:0:0:0:
256,192,22133,1,2,0:0:0:0:
256,192,22799,6,0,P|268:84|368:56,1,225.000008583069,2|0,0:0|0:0,0:0:0:0:
256,192,23466,2,0,P|156:235|82:163,1,225.000008583069,2|0,0:0|0:0,0:0:0:0:
256,192,24133,2,0,P|343:256|317:356,1,225.000008583069,2|0,0:0|0:0,0:0:0:0:
208,336,24799,1,2,0:0:0:0:
155,78,25133,1,0,0:0:0:0:
404,161,25466,6,0,P|344:244|256:192,1,225.000008583069,2|0,0:0|0:0,0:0:0:0:
155,78,26133,2,0,P|257:89|256:192,1,225.000008583069,2|0,0:0|0:0,0:0:0:0:
207,336,26799,2,0,P|166:242|256:192,1,225.000008583069,2|0,0:0|0:0,0:0:0:0:
256,192,27549,6,0,L|256:68,1,125,2|0,0:0|0:0,0:0:0:0:
29,199,34799,6,0,P|95:130|189:150,1,200,4|0,1:3|0:0,0:0:0:0:
264,284,35799,1,0,1:0:0:0:
124,227,36133,2,0,L|256:75,1,200,0|0,1:0|0:0,0:0:0:0:
368,176,37133,1,0,0:0:0:0:
255,276,37466,6,0,L|255:76,1,200,0|0,1:0|0:0,0:0:0:0:
108,44,38466,1,0,1:0:0:0:
92,192,38799,2,0,P|173:240|256:192,1,200,0|0,1:0|0:0,0:0:0:0:
256,191,40133,6,0,P|337:142|420:190,1,200,0|0,1:0|0:0,0:0:0:0:
464,332,41133,1,0,1:0:0:0:
348,240,41466,2,0,P|320:149|380:72,1,200,0|0,1:0|0:0,0:0:0:0:
256,8,42466,1,0,0:0:0:0:
132,72,42799,6,0,P|191:147|164:240,1,200,0|0,1:0|0:0,0:0:0:0:
256,360,43799,1,0,1:0:0:0:
256,192,44133,1,0,1:0:0:0:
256,192,45466,6,0,B|164:152|164:152|72:192,1,200,4|0,1:3|0:0,0:0:0:0:
88,340,46466,2,0,L|158:269,1,100,0|0,1:0|1:0,0:0:0:0:
424,340,47466,2,0,L|353:269,1,100
256,92,48133,6,0,L|256:292,1,200,0|0,1:0|0:0,0:0:0:0:
136,204,49133,1,0,1:0:0:0:
376,180,49466,1,0,1:0:0:0:
256,192,50799,6,0,B|216:100|216:100|256:8,1,200,0|0,1:0|0:0,0:0:0:0:
356,120,51799,1,0,1:0:0:0:
156,264,52133,2,0,P|76:208|72:112,1,200,0|0,1:0|0:0,0:0:0:0:
356,264,53466,6,0,P|436:208|440:112,1,200,0|0,1:0|0:0,0:0:0:0:
292,88,54466,1,0,1:0:0:0:
220,296,54799,1,0,1:0:0:0:
256,192,56133,5,4,1:2:0:0:
168,316,57466,5,8,0:0:0:0:
192,53,57799,1,8,0:0:0:0:
407,206,58133,1,8,0:0:0:0:
192,53,58466,1,8,0:0:0:0:
168,316,58799,1,4,0:0:0:0:
256,192,60133,5,8,0:0:0:0:
400,228,60299,2,0,L|420:264,4,37.5000014305115
256,192,60799,5,8,0:0:0:0:
112,156,60966,2,0,L|92:120,4,37.5000014305115
256,192,61466,5,4,0:0:0:0:
301,332,62799,5,12,0:0:0:0:
301,51,63133,1,8,0:0:0:0:
136,279,63466,1,8,0:0:0:0:
404,192,63799,1,8,0:0:0:0:
136,104,64133,1,4,0:0:0:0:
256,192,65466,5,8,0:0:0:0:
402,162,65632,1,0,0:0:0:0:
390,198,65716,1,0,0:0:0:0:
378,234,65799,2,0,L|400:264,2,37.5000014305115
256,192,66132,5,8,0:0:0:0:
110,162,66299,1,0,0:0:0:0:
122,198,66383,1,0,0:0:0:0:
134,234,66466,2,0,L|112:264,2,37.5000014305115
256,192,66799,6,0,P|264:144|248:97,1,100,4|8,0:0|0:0,0:0:0:0:
104,56,67133,1,0,0:0:0:0:
44,192,67299,1,8,0:0:0:0:
132,312,67466,2,0,P|181:290|206:254,1,100,0|8,0:0|0:0,0:0:0:0:
116,136,67799,1,0,0:0:0:0:
256,192,67966,1,8,0:0:0:0:
396,136,68133,6,0,L|348:48,1,100,0|8,0:0|0:0,0:0:0:0:
116,136,68466,2,0,L|164:48,1,100,0|8,0:0|0:0,0:0:0:0:
256,140,68799,1,0,0:0:0:0:
184,272,68966,1,8,0:0:0:0:
328,272,69133,2,0,P|326:325|296:359,1,100,0|8,0:0|0:0,0:0:0:0:
148,344,69466,5,0,0:0:0:0:
180,196,69633,1,8,0:0:0:0:
332,188,69799,2,0,P|379:199|405:240,1,100,0|8,0:0|0:0,0:0:0:0:
214,128,70133,2,0,P|200:81|223:37,1,100,0|8,0:0|0:0,0:0:0:0:
221,259,70466,2,0,P|188:295|138:297,1,100,0|8,0:0|0:0,0:0:0:0:
36,192,70799,5,0,0:0:0:0:
40,140,70883,1,0,0:0:0:0:
64,96,70966,1,8,0:0:0:0:
108,72,71049,1,0,0:0:0:0:
160,76,71133,2,0,L|200:108,3,50,0|0|8|0,0:0|0:0|0:0|0:0,0:0:0:0:
204,156,71466,5,0,0:0:0:0:
250,178,71550,1,0,0:0:0:0:
300,179,71633,1,8,0:0:0:0:
343,153,71716,1,0,0:0:0:0:
366,106,71800,2,0,L|358:55,3,50,0|0|8|0,0:0|0:0|0:0|0:0,0:0:0:0:
316,28,72133,6,0,P|277:51|256:100,1,100,4|8,0:0|0:0,0:0:0:0:
196,356,72466,2,0,P|235:333|256:284,1,100,0|8,0:0|0:0,0:0:0:0:
192,148,72799,1,0,0:0:0:0:
148,292,72966,1,8,0:0:0:0:
364,292,73133,1,0,0:0:0:0:
320,148,73299,1,8,0:0:0:0:
131,211,73466,6,0,P|105:170|111:121,1,100,0|8,0:0|0:0,0:0:0:0:
380,211,73799,2,0,P|406:170|400:121,1,100,0|8,0:0|0:0,0:0:0:0:
252,84,74133,1,0,0:0:0:0:
260,300,74299,1,8,0:0:0:0:
176,118,74466,1,0,0:0:0:0:
335,265,74632,1,8,0:0:0:0:
148,195,74799,6,0,P|108:168|96:120,1,100,0|8,0:0|0:0,0:0:0:0:
364,188,75133,2,0,P|404:216|416:264,1,100,0|8,0:0|0:0,0:0:0:0:
182,271,75466,2,0,P|134:279|91:254,1,100,0|8,0:0|0:0,0:0:0:0:
329,112,75800,2,0,P|377:104|420:129,1,100,0|8,0:0|0:0,0:0:0:0:
259,300,76133,6,0,L|212:321,3,50,0|0|8|0,0:0|0:0|0:0|0:0,0:0:0:0:
171,314,76466,1,0,0:0:0:0:
138,289,76549,1,0,0:0:0:0:
120,253,76633,1,8,0:0:0:0:
121,215,76716,1,0,0:0:0:0:
136,180,76799,6,0,L|161:135,3,50,0|0|8|0,0:0|0:0|0:0|0:0,0:0:0:0:
158,95,77132,1,8,0:0:0:0:
136,59,77215,1,0,0:0:0:0:
102,39,77299,1,8,0:0:0:0:
64,37,77382,1,0,0:0:0:0:
28,56,77466,6,0,L|16:104,2,50
256,72,77799,1,8,0:0:0:0:
136,180,77966,1,0,0:0:0:0:
136,59,78133,1,8,0:0:0:0:
332,120,78299,1,0,0:0:0:0:
180,120,78466,1,8,0:0:0:0:
376,59,78633,1,8,0:0:0:0:
256,24,78799,6,0,L|256:124,1,100,4|8,0:0|0:0,0:0:0:0:
256,360,79133,2,0,L|256:260,1,100,0|8,0:0|0:0,0:0:0:0:
124,168,79466,1,0,0:0:0:0:
124,168,79549,1,0,0:0:0:0:
124,168,79633,2,0,P|87:200|79:249,1,100,8|0,0:0|0:0,0:0:0:0:
256,192,79966,1,8,0:0:0:0:
176,76,80133,1,0,0:0:0:0:
156,236,80299,5,8,0:0:0:0:
356,148,80466,1,0,0:0:0:0:
216,293,80633,1,8,0:0:0:0:
295,90,80800,1,0,0:0:0:0:
295,90,80883,1,0,0:0:0:0:
295,90,80966,2,0,L|228:16,1,100,8|0,0:0|0:0,0:0:0:0:
140,140,81299,1,8,0:0:0:0:
256,236,81466,6,0,L|323:161,1,100,0|8,0:0|0:0,0:0:0:0:
163,95,81799,1,0,0:0:0:0:
218,319,81966,1,8,0:0:0:0:
385,159,82133,1,0,0:0:0:0:
385,159,82216,1,0,0:0:0:0:
385,159,82299,2,0,P|373:111|337:78,1,100,8|0,0:0|0:0,0:0:0:0:
188,160,82633,1,8,0:0:0:0:
324,224,82799,1,0,0:0:0:0:
254,100,82966,6,0,P|218:66|169:58,2,100,12|0|0,0:0|0:0|0:0,0:0:0:0:
257,283,83466,2,0,P|293:317|342:325,2,100,0|8|0,0:0|0:0|0:0,0:0:0:0:
256,192,83966,1,8,0:0:0:0:
392,128,84133,6,0,P|416:172|408:220,1,100,4|8,0:0|0:0,0:0:0:0:
120,256,84466,2,0,P|96:212|104:164,1,100,0|8,0:0|0:0,0:0:0:0:
216,32,84799,1,0,0:0:0:0:
256,32,84883,1,0,0:0:0:0:
296,32,84966,1,8,0:0:0:0:
344,184,85133,1,0,0:0:0:0:
168,200,85299,1,8,0:0:0:0:
248,104,85466,1,0,0:0:0:0:
264,280,85632,1,8,0:0:0:0:
128,340,85799,6,0,L|100:244,1,100,0|8,0:0|0:0,0:0:0:0:
256,192,86133,1,0,0:0:0:0:
256,192,86216,1,0,0:0:0:0:
256,192,86299,1,8,0:0:0:0:
412,140,86466,2,0,L|384:44,1,100,0|8,0:0|0:0,0:0:0:0:
236,80,86799,5,0,0:0:0:0:
276,304,86966,1,8,0:0:0:0:
162,126,87133,1,0,0:0:0:0:
349,257,87299,1,8,0:0:0:0:
256,192,87466,1,0,0:0:0:0:
256,192,87549,1,0,0:0:0:0:
256,192,87633,1,8,0:0:0:0:
144,212,87799,1,0,0:0:0:0:
368,172,87966,1,8,0:0:0:0:
191,286,88133,1,0,0:0:0:0:
320,98,88299,6,0,P|366:80|412:96,2,100,12|0|0,0:0|0:0|0:0,0:0:0:0:
191,285,88799,2,0,P|145:303|99:287,2,100,0|8|0,0:0|0:0|0:0,0:0:0:0:
256,192,89299,1,0,0:0:0:0:
137,106,89466,5,4,0:0:0:0:
300,329,89633,1,8,0:0:0:0:
300,329,89966,1,0,0:0:0:0:
300,53,90133,1,0,0:0:0:0:
300,53,90466,1,8,0:0:0:0:
137,276,90633,1,8,0:0:0:0:
137,276,90966,1,0,0:0:0:0:
400,192,91133,1,0,0:0:0:0:
400,192,91466,5,0,0:0:0:0:
137,276,91633,1,8,0:0:0:0:
300,53,91799,1,8,0:0:0:0:
300,329,91966,1,8,0:0:0:0:
137,106,92133,5,4,0:0:0:0:
375,278,92299,1,8,0:0:0:0:
400,168,92633,5,0,0:0:0:0:
111,215,92799,1,0,0:0:0:0:
170,311,93133,5,8,0:0:0:0:
342,72,93299,1,8,0:0:0:0:
232,47,93633,5,0,0:0:0:0:
279,336,93799,1,0,0:0:0:0:
375,278,94133,5,0,0:0:0:0:
137,106,94299,1,8,0:0:0:0:
401,169,94466,1,8,0:0:0:0:
112,216,94633,1,8,0:0:0:0:
256,192,94799,6,0,P|279:148|275:99,1,100,4|8,0:0|0:0,0:0:0:0:
112,216,95133,2,0,P|108:265|131:308,1,100,0|8,0:0|0:0,0:0:0:0:
276,352,95466,1,0,0:0:0:0:
276,352,95549,1,0,0:0:0:0:
276,352,95633,1,8,0:0:0:0:
364,232,95799,1,0,0:0:0:0:
256,128,95966,1,8,0:0:0:0:
140,220,96133,1,0,0:0:0:0:
284,264,96299,1,8,0:0:0:0:
344,124,96466,6,0,P|336:75|298:44,1,100,0|8,0:0|0:0,0:0:0:0:
160,104,96799,1,0,0:0:0:0:
160,104,96883,1,0,0:0:0:0:
160,104,96966,1,8,0:0:0:0:
352,280,97133,1,0,0:0:0:0:
256,192,97299,2,0,P|206:188|163:212,1,100,8|0,0:0|0:0,0:0:0:0:
188,360,97633,5,8,0:0:0:0:
296,256,97799,1,0,0:0:0:0:
188,152,97966,1,8,0:0:0:0:
296,48,98133,1,0,0:0:0:0:
296,48,98216,1,0,0:0:0:0:
296,48,98299,1,8,0:0:0:0:
344,192,98466,1,0,0:0:0:0:
196,224,98633,2,0,P|153:252|140:298,1,100,8|0,0:0|0:0,0:0:0:0:
292,288,98966,6,0,L|388:260,1,100,12|0,0:0|0:0,0:0:0:0:
420,112,99299,1,0,0:0:0:0:
292,288,99466,2,0,L|372:228,1,100,0|8,0:0|0:0,0:0:0:0:
352,78,99799,1,0,0:0:0:0:
256,192,99966,1,8,0:0:0:0:
160,78,100133,6,0,P|120:104|104:152,1,100,4|8,0:0|0:0,0:0:0:0:
80,300,100466,2,0,P|40:274|24:226,1,100,0|8,0:0|0:0,0:0:0:0:
172,192,100799,1,0,0:0:0:0:
208,228,100883,1,0,0:0:0:0:
244,264,100966,2,0,P|296:264|336:240,1,100,8|0,0:0|0:0,0:0:0:0:
256,112,101299,1,8,0:0:0:0:
140,264,101466,1,0,0:0:0:0:
276,196,101633,1,8,0:0:0:0:
180,80,101799,6,0,L|80:56,1,100,0|8,0:0|0:0,0:0:0:0:
20,192,102133,1,0,0:0:0:0:
20,192,102216,1,0,0:0:0:0:
20,192,102299,1,8,0:0:0:0:
82,327,102466,1,0,0:0:0:0:
148,192,102633,1,8,0:0:0:0:
256,292,102799,1,0,0:0:0:0:
364,192,102966,1,8,0:0:0:0:
429,327,103133,6,0,P|379:327|342:297,1,100,0|8,0:0|0:0,0:0:0:0:
256,172,103466,1,0,0:0:0:0:
256,124,103549,1,0,0:0:0:0:
256,76,103633,2,0,P|210:57|163:72,1,100,8|0,0:0|0:0,0:0:0:0:
72,192,103966,1,8,0:0:0:0:
163,311,104133,1,0,0:0:0:0:
256,76,104299,6,0,P|295:46|343:48,1,100,12|0,0:0|0:0,0:0:0:0:
376,312,104633,1,0,0:0:0:0:
256,192,104799,2,0,P|216:162|168:164,1,100,8|8,0:0|0:0,0:0:0:0:
136,312,105133,1,0,0:0:0:0:
256,224,105299,5,8,0:0:0:0:
256,192,105383,1,0,0:0:0:0:
256,160,105466,2,0,P|304:104|376:100,1,150.000005722046,4|0,0:0|0:0,0:0:0:0:
436,240,106133,1,8,0:0:0:0:
320,336,106466,1,0,0:0:0:0:
320,336,106633,2,0,P|256:303|192:336,2,150.000005722046,12|0|0,0:0|0:0|0:0,0:0:0:0:
396,348,107466,2,0,L|436:284,1,75.0000028610231,8|0,0:0|0:0,0:0:0:0:
276,224,107799,2,0,L|236:160,1,75.0000028610231,0|8,0:0|0:0,0:0:0:0:
108,117,108133,6,0,L|108:267,1,150.000005722046,4|0,0:0|0:0,0:0:0:0:
256,300,108799,1,8,0:0:0:0:
360,192,109133,1,0,0:0:0:0:
360,192,109299,2,0,P|366:120|310:76,2,150.000005722046,12|0|0,0:0|0:0|0:0,0:0:0:0:
284,192,110133,2,0,L|224:148,1,75.0000028610231,8|0,0:0|0:0,0:0:0:0:
256,300,110466,2,0,L|316:344,1,75.0000028610231,8|0,0:0|0:0,0:0:0:0:
448,264,110799,6,0,B|468:192|468:192|448:120,1,150.000005722046,4|0,0:0|0:0,0:0:0:0:
316,48,111466,1,8,0:0:0:0:
204,148,111799,1,0,0:0:0:0:
204,148,111966,2,0,P|168:148|136:128,1,75.0000028610231,12|0,0:0|0:0,0:0:0:0:
68,200,112299,2,0,P|116:260|184:260,1,150.000005722046
256,192,112799,2,0,L|296:128,1,75.0000028610231,8|0,0:0|0:0,0:0:0:0:
424,192,113133,2,0,L|464:256,1,75.0000028610231
324,348,113466,6,0,B|292:329|292:329|256:340|256:340|220:329|220:329|188:348,1,150.000005722046,4|0,0:0|0:0,0:0:0:0:
84,240,114133,1,8,0:0:0:0:
188,132,114466,1,0,0:0:0:0:
188,132,114633,2,0,B|224:100|256:112|256:112|288:124|324:92,2,150.000005722046,12|0|0,0:0|0:0|0:0,0:0:0:0:
300,232,115466,2,0,L|360:276,1,75.0000028610231,8|0,0:0|0:0,0:0:0:0:
212,232,115799,2,0,L|152:276,1,75.0000028610231,8|0,0:0|0:0,0:0:0:0:
256,304,116133,6,0,L|256:152,1,150.000005722046,4|0,0:0|0:0,0:0:0:0:
256,56,116633,1,0,0:0:0:0:
160,40,116799,2,0,P|135:67|131:103,2,75.0000028610231,8|0|0,0:0|0:0|0:0,0:0:0:0:
352,40,117299,2,0,P|379:104|327:152,2,150.000005722046,12|0|0,0:0|0:0|0:0,0:0:0:0:
256,100,118133,2,0,L|196:144,1,75.0000028610231,8|0,0:0|0:0,0:0:0:0:
256,284,118466,2,0,L|316:240,1,75.0000028610231
380,168,118799,6,0,P|416:230|392:299,1,150.000005722046,4|0,0:0|0:0,0:0:0:0:
296,318,119299,1,0,0:0:0:0:
256,229,119466,2,0,L|256:153,1,75.0000028610231,8|0,0:0|0:0,0:0:0:0:
216,66,119799,1,0,0:0:0:0:
119,84,119966,2,0,P|95:153|131:215,2,150.000005722046,12|0|0,0:0|0:0|0:0,0:0:0:0:
216,66,120799,2,0,L|288:86,1,75.0000028610231,8|0,0:0|0:0,0:0:0:0:
296,318,121133,2,0,L|224:298,1,75.0000028610231,8|0,0:0|0:0,0:0:0:0:
202,138,121466,6,0,L|309:245,1,150.000005722046,4|0,0:0|0:0,0:0:0:0:
408,192,121966,1,0,0:0:0:0:
309,139,122133,1,8,0:0:0:0:
203,245,122299,1,0,0:0:0:0:
104,192,122466,2,0,L|136:124,1,75.0000028610231,0|12,0:0|0:0,0:0:0:0:
256,42,122799,6,0,L|256:192,1,150.000005722046
320,284,123299,1,0,0:0:0:0:
416,224,123466,2,0,P|438:195|440:158,2,75.0000028610231,8|0|0,0:0|0:0|0:0,0:0:0:0:
320,284,123966,2,0,B|280:280|256:249|256:249|232:280|192:284,2,150.000005722046,12|0|0,0:0|0:0|0:0,0:0:0:0:
316,160,124799,2,0,P|256:122|196:160,1,150.000005722046,8|0,0:0|0:0,0:0:0:0:
256,256,125299,1,0,0:0:0:0:
364,224,125466,5,8,0:0:0:0:
384,192,125549,1,0,0:0:0:0:
404,160,125633,1,0,0:0:0:0:
424,128,125716,1,0,0:0:0:0:
444,96,125799,2,0,L|428:60,3,37.5000014305115
400,36,126133,1,0,0:0:0:0:
364,40,126216,1,0,0:0:0:0:
328,44,126299,1,0,0:0:0:0:
292,48,126383,1,0,0:0:0:0:
256,52,126466,2,0,L|256:92,3,37.5000014305115,0|8|8|8,0:0|0:0|0:0|0:0,0:0:0:0:
256,140,126799,6,0,P|229:178|180:192,1,100,4|8,0:0|0:0,0:0:0:0:
76,80,127133,2,0,P|121:72|166:96,1,100,0|8,0:0|0:0,0:0:0:0:
120,240,127466,1,0,0:0:0:0:
256,140,127633,1,8,0:0:0:0:
392,240,127799,2,0,L|344:328,1,100,0|8,0:0|0:0,0:0:0:0:
168,328,128133,6,0,L|120:240,1,100,4|8,0:0|0:0,0:0:0:0:
192,108,128466,1,0,0:0:0:0:
256,244,128633,1,8,0:0:0:0:
320,108,128799,2,0,L|408:60,1,100,0|8,0:0|0:0,0:0:0:0:
192,108,129133,2,0,L|104:60,1,100,0|8,0:0|0:0,0:0:0:0:
52,200,129466,5,4,0:0:0:0:
180,276,129633,1,8,0:0:0:0:
256,142,129799,2,0,L|256:42,1,100,0|8,0:0|0:0,0:0:0:0:
256,242,130133,2,0,L|256:342,1,100,0|8,0:0|0:0,0:0:0:0:
404,320,130466,1,0,0:0:0:0:
328,192,130633,1,8,0:0:0:0:
404,64,130799,6,0,P|440:100|448:148,1,100,4|8,0:0|0:0,0:0:0:0:
256,242,131133,2,0,L|256:142,1,100,0|8,0:0|0:0,0:0:0:0:
108,64,131466,2,0,P|72:100|64:148,1,100,0|8,0:0|0:0,0:0:0:0:
160,264,131799,1,8,0:0:0:0:
352,120,131966,1,8,0:0:0:0:
226,106,132133,6,0,P|224:154|256:192,1,100,4|8,0:0|0:0,0:0:0:0:
283,278,132466,2,0,P|287:229|256:192,1,100,0|8,0:0|0:0,0:0:0:0:
152,288,132799,1,0,0:0:0:0:
360,288,132966,1,8,0:0:0:0:
152,96,133133,1,0,0:0:0:0:
360,96,133300,1,8,0:0:0:0:
256,192,133466,6,0,L|160:220,1,100,4|8,0:0|0:0,0:0:0:0:
256,192,133799,2,0,L|352:220,1,100,0|8,0:0|0:0,0:0:0:0:
236,316,134133,1,0,0:0:0:0:
158,112,134299,1,8,0:0:0:0:
373,147,134466,1,0,0:0:0:0:
256,192,134633,1,8,0:0:0:0:
276,67,134799,6,0,P|316:36|364:36,1,100,4|8,0:0|0:0,0:0:0:0:
137,236,135133,2,0,P|90:218|66:176,1,100,0|8,0:0|0:0,0:0:0:0:
354,272,135466,2,0,P|361:321|337:363,1,100,0|8,0:0|0:0,0:0:0:0:
192,328,135799,1,0,0:0:0:0:
256,192,135966,1,0,0:0:0:0:
320,56,136133,2,0,L|412:96,1,100,4|8,0:0|0:0,0:0:0:0:
192,328,136466,2,0,L|100:288,1,100,0|8,0:0|0:0,0:0:0:0:
36,152,136799,5,8,0:0:0:0:
256,192,137049,5,8,0:0:0:0:
476,232,137299,5,8,0:0:0:0:
256,192,137466,6,0,P|236:144|248:100,1,100,4|8,0:0|0:0,0:0:0:0:
384,36,137799,2,0,L|424:68,1,50
416,144,137966,2,0,L|316:140,1,100,8|0,0:0|0:0,0:0:0:0:
204,36,138299,1,8,0:0:0:0:
112,156,138466,6,0,L|128:204,1,50
204,216,138633,2,0,L|239:122,1,100,8|0,0:0|0:0,0:0:0:0:
372,192,138966,2,0,L|336:285,1,100,8|0,0:0|0:0,0:0:0:0:
264,308,139216,2,0,L|216:288,1,50,0|8,0:0|0:0,0:0:0:0:
104,192,139466,6,0,L|72:152,2,50,0|0|8,0:0|0:0|0:0,0:0:0:0:
256,40,139799,1,0,0:0:0:0:
408,192,139966,1,8,0:0:0:0:
256,192,140133,6,0,L|300:100,1,100,4|8,0:0|0:0,0:0:0:0:
444,64,140466,1,0,0:0:0:0:
444,64,140549,1,0,0:0:0:0:
444,64,140633,2,0,L|488:156,1,100,8|0,0:0|0:0,0:0:0:0:
468,304,140966,1,8,0:0:0:0:
324,264,141133,5,0,0:0:0:0:
324,264,141216,1,0,0:0:0:0:
324,264,141299,1,8,0:0:0:0:
256,132,141466,2,0,L|316:52,1,100,0|8,0:0|0:0,0:0:0:0:
400,176,141799,1,0,0:0:0:0:
400,176,141883,1,0,0:0:0:0:
400,176,141966,1,8,0:0:0:0:
256,224,142133,5,0,0:0:0:0:
112,176,142299,1,8,0:0:0:0:
256,224,142466,1,0,0:0:0:0:
400,176,142633,1,8,0:0:0:0:
256,224,142799,6,0,P|219:195|208:144,1,100,4|8,0:0|0:0,0:0:0:0:
300,24,143133,2,0,L|344:48,1,50
396,100,143299,2,0,L|304:144,1,100,8|0,0:0|0:0,0:0:0:0:
184,52,143633,1,8,0:0:0:0:
92,172,143799,6,0,L|76:220,1,50
116,284,143966,2,0,L|208:240,1,100,8|0,0:0|0:0,0:0:0:0:
244,96,144299,1,8,0:0:0:0:
268,288,144466,6,0,L|304:324,2,50,0|0|8,0:0|0:0|0:0,0:0:0:0:
244,96,144799,6,0,L|208:60,2,50,0|0|8,0:0|0:0|0:0,0:0:0:0:
392,56,145133,1,0,0:0:0:0:
256,192,145299,1,8,0:0:0:0:
120,56,145466,6,0,P|72:76|48:116,1,100,4|8,0:0|0:0,0:0:0:0:
148,228,145799,1,0,0:0:0:0:
148,228,145883,1,0,0:0:0:0:
148,228,145966,1,8,0:0:0:0:
256,112,146133,1,0,0:0:0:0:
364,228,146299,1,8,0:0:0:0:
256,112,146466,5,0,0:0:0:0:
256,112,146549,1,0,0:0:0:0:
256,112,146633,1,8,0:0:0:0:
256,272,146799,2,0,L|256:372,1,100,0|8,0:0|0:0,0:0:0:0:
364,228,147133,1,0,0:0:0:0:
364,228,147216,1,0,0:0:0:0:
364,228,147299,1,8,0:0:0:0:
148,228,147466,1,8,0:0:0:0:
460,48,147799,1,8,0:0:0:0:
52,48,148133,5,12,0:0:0:0:
152,128,148299,1,0,0:0:0:0:
256,48,148466,1,0,0:0:0:0:
360,128,148633,1,8,0:0:0:0:
460,48,148799,1,0,0:0:0:0:
360,128,148966,1,0,0:0:0:0:
256,48,149133,2,0,P|228:92|236:136,1,100,8|0,0:0|0:0,0:0:0:0:
256,336,149466,2,0,P|284:292|276:248,1,100,0|8,0:0|0:0,0:0:0:0:
44,124,149966,1,0,0:0:0:0:
44,260,150133,1,8,0:0:0:0:
256,192,150466,1,8,0:0:0:0:
468,124,150799,5,12,0:0:0:0:
360,232,150966,1,0,0:0:0:0:
256,124,151133,1,0,0:0:0:0:
360,232,151299,5,8,0:0:0:0:
256,124,151466,1,0,0:0:0:0:
152,232,151633,1,0,0:0:0:0:
256,124,151799,5,8,0:0:0:0:
152,232,151966,1,0,0:0:0:0:
44,124,152133,1,0,0:0:0:0:
152,232,152299,5,8,0:0:0:0:
256,124,152466,1,0,0:0:0:0:
360,232,152633,1,0,0:0:0:0:
256,340,152799,5,0,0:0:0:0:
220,333,152883,1,0,0:0:0:0:
187,331,152966,1,0,0:0:0:0:
154,328,153049,1,0,0:0:0:0:
121,325,153133,1,0,0:0:0:0:
99,299,153216,1,0,0:0:0:0:
79,273,153299,1,0,0:0:0:0:
57,248,153383,1,0,0:0:0:0:
60,212,153466,6,0,L|96:119,2,100,12|0|0,0:0|0:0|0:0,0:0:0:0:
452,212,153966,2,0,L|416:119,2,100,8|0|0,0:0|0:0|0:0,0:0:0:0:
332,328,154466,1,8,0:0:0:0:
180,56,154799,1,0,0:0:0:0:
256,192,154966,1,8,0:0:0:0:
168,312,155133,1,0,0:0:0:0:
344,72,155299,1,0,0:0:0:0:
408,208,155466,1,8,0:0:0:0:
104,176,155799,1,8,0:0:0:0:
256,192,156133,6,0,L|272:92,1,100,12|0,0:0|0:0,0:0:0:0:
132,40,156466,1,0,0:0:0:0:
256,192,156633,6,0,L|334:255,1,100,8|0,0:0|0:0,0:0:0:0:
449,160,156966,1,0,0:0:0:0:
256,192,157133,6,0,L|161:228,1,100,8|0,0:0|0:0,0:0:0:0:
186,375,157466,1,0,0:0:0:0:
328,324,157633,5,8,0:0:0:0:
105,188,157799,1,0,0:0:0:0:
334,63,157966,1,0,0:0:0:0:
256,192,158133,6,0,L|208:204,3,50,8|0|0|0,0:0|0:0|0:0|0:0,0:0:0:0:
184,172,158466,1,0,0:0:0:0:
160,140,158549,1,8,0:0:0:0:
136,108,158633,1,8,0:0:0:0:
112,76,158716,1,8,0:0:0:0:
88,44,158799,6,0,B|152:8|152:8|228:16,1,150,6|2,0:0|0:0,0:0:0:0:
256,192,159299,1,2,0:0:0:0:
284,368,159466,2,0,B|360:376|360:376|424:340,1,150,6|2,0:0|0:0,0:0:0:0:
356,124,159966,1,2,0:0:0:0:
156,260,160133,6,0,P|124:220|120:172,1,100,4|8,0:0|0:0,0:0:0:0:
256,104,160466,1,0,0:0:0:0:
256,104,160549,1,0,0:0:0:0:
256,104,160633,1,8,0:0:0:0:
256,280,160799,1,0,0:0:0:0:
188,148,160966,1,8,0:0:0:0:
324,236,161133,5,0,0:0:0:0:
324,236,161216,1,0,0:0:0:0:
324,236,161299,2,0,P|372:216|396:176,1,100,8|0,0:0|0:0,0:0:0:0:
316,48,161633,1,8,0:0:0:0:
188,148,161799,1,0,0:0:0:0:
188,148,161883,1,0,0:0:0:0:
188,148,161966,1,8,0:0:0:0:
256,284,162133,1,0,0:0:0:0:
304,140,162299,1,8,0:0:0:0:
184,232,162466,5,0,0:0:0:0:
184,232,162549,1,0,0:0:0:0:
184,232,162633,2,0,P|136:220|108:180,1,100,8|0,0:0|0:0,0:0:0:0:
180,48,162966,1,8,0:0:0:0:
332,48,163133,2,0,L|372:16,2,50,0|0|8,0:0|0:0|0:0,0:0:0:0:
256,192,163466,1,0,0:0:0:0:
332,336,163633,1,8,0:0:0:0:
180,336,163799,2,0,L|140:368,2,50,0|0|8,0:0|0:0|0:0,0:0:0:0:
321,144,164133,5,0,0:0:0:0:
281,115,164216,1,0,0:0:0:0:
231,115,164299,1,8,0:0:0:0:
190,144,164383,1,0,0:0:0:0:
175,192,164466,1,0,0:0:0:0:
190,239,164549,1,0,0:0:0:0:
231,268,164633,1,8,0:0:0:0:
281,268,164716,1,0,0:0:0:0:
321,239,164799,6,0,L|336:192,1,50
428,44,164966,2,0,L|413:91,1,50,8|0,0:0|0:0,0:0:0:0:
360,251,165133,2,0,L|357:201,1,50,8|0,0:0|0:0,0:0:0:0:
389,32,165300,2,0,L|391:81,1,50,8|0,0:0|0:0,0:0:0:0:
400,249,165466,6,0,L|361:156,1,100,4|8,0:0|0:0,0:0:0:0:
256,48,165799,1,0,0:0:0:0:
224,64,165883,1,0,0:0:0:0:
192,80,165966,1,8,0:0:0:0:
108,204,166133,1,0,0:0:0:0:
256,192,166299,1,8,0:0:0:0:
404,204,166466,1,0,0:0:0:0:
420,236,166549,1,0,0:0:0:0:
436,268,166633,1,8,0:0:0:0:
308,348,166799,6,0,P|260:332|236:292,1,100,0|8,0:0|0:0,0:0:0:0:
296,152,167133,1,0,0:0:0:0:
324,132,167216,1,0,0:0:0:0:
352,112,167299,2,0,P|400:96|448:108,1,100,8|0,0:0|0:0,0:0:0:0:
500,248,167633,1,8,0:0:0:0:
352,236,167799,1,0,0:0:0:0:
316,232,167883,1,0,0:0:0:0:
280,228,167966,2,0,P|237:207|217:161,1,100,8|0,0:0|0:0,0:0:0:0:
328,60,168299,5,8,0:0:0:0:
464,120,168466,2,0,L|476:168,2,50,0|0|8,0:0|0:0|0:0,0:0:0:0:
328,60,168799,1,0,0:0:0:0:
184,60,168966,1,8,0:0:0:0:
48,120,169133,2,0,L|36:168,2,50,0|0|8,0:0|0:0|0:0,0:0:0:0:
256,192,169466,5,0,0:0:0:0:
284,212,169549,1,0,0:0:0:0:
312,232,169633,1,8,0:0:0:0:
340,252,169716,1,0,0:0:0:0:
368,272,169799,1,0,0:0:0:0:
388,244,169883,1,0,0:0:0:0:
408,216,169966,1,8,0:0:0:0:
428,188,170049,1,0,0:0:0:0:
448,160,170133,6,0,L|436:112,1,50
456,276,170299,2,0,L|468:324,1,50,8|0,0:0|0:0,0:0:0:0:
468,162,170466,2,0,L|473:112,1,50
435,273,170632,2,0,L|430:323,1,50,8|0,0:0|0:0,0:0:0:0:
256,192,170799,5,8,0:0:0:0:
232,163,170883,1,8,0:0:0:0:
225,130,170966,1,8,0:0:0:0:
238,100,171049,1,8,0:0:0:0:
266,76,171133,1,4,0:0:0:0:
301,81,171216,1,0,0:0:0:0:
337,87,171299,1,0,0:0:0:0:
371,78,171383,1,0,0:0:0:0:
406,71,171466,1,4,0:0:0:0:
436,93,171549,1,8,0:0:0:0:
451,123,171632,1,8,0:0:0:0:
446,157,171715,1,8,0:0:0:0:
428,188,171799,1,0,0:0:0:0:
408,216,171882,1,0,0:0:0:0:
388,244,171965,1,8,0:0:0:0:
368,272,172049,1,0,0:0:0:0:
392,308,172133,6,0,L|484:268,1,100,4|8,0:0|0:0,0:0:0:0:
256,192,172466,2,0,L|164:232,1,100,0|8,0:0|0:0,0:0:0:0:
256,352,172799,1,0,0:0:0:0:
256,352,172883,1,0,0:0:0:0:
256,352,172966,2,0,P|303:331|328:292,1,100,8|0,0:0|0:0,0:0:0:0:
380,152,173299,1,8,0:0:0:0:
256,68,173466,1,0,0:0:0:0:
132,152,173633,5,8,0:0:0:0:
256,68,173799,1,0,0:0:0:0:
380,152,173966,1,8,0:0:0:0:
256,240,174133,1,0,0:0:0:0:
256,240,174216,1,0,0:0:0:0:
256,240,174299,2,0,P|216:212|207:164,1,100,8|0,0:0|0:0,0:0:0:0:
336,84,174633,1,8,0:0:0:0:
440,192,174799,1,0,0:0:0:0:
336,300,174966,5,8,0:0:0:0:
176,84,175133,2,0,P|134:110|119:156,1,100,0|8,0:0|0:0,0:0:0:0:
176,300,175466,1,0,0:0:0:0:
176,300,175549,1,0,0:0:0:0:
176,300,175633,2,0,L|256:240,1,100,8|0,0:0|0:0,0:0:0:0:
336,84,175966,2,0,L|256:144,1,100,8|0,0:0|0:0,0:0:0:0:
380,276,176299,6,0,B|404:232|404:232|396:182,2,100,12|0|0,0:0|0:0|0:0,0:0:0:0:
132,108,176799,2,0,B|108:152|108:152|115:201,2,100,0|8|0,0:0|0:0|0:0,0:0:0:0:
256,192,177299,1,8,0:0:0:0:
196,328,177466,6,0,L|104:288,1,100,4|8,0:0|0:0,0:0:0:0:
316,328,177799,2,0,L|408:288,1,100,0|8,0:0|0:0,0:0:0:0:
468,148,178133,1,0,0:0:0:0:
444,116,178216,1,0,0:0:0:0:
420,84,178299,2,0,L|328:124,1,100,8|0,0:0|0:0,0:0:0:0:
92,84,178633,2,0,L|184:124,1,100,8|0,0:0|0:0,0:0:0:0:
256,256,178966,5,8,0:0:0:0:
256,256,179049,1,0,0:0:0:0:
256,256,179133,2,0,P|224:296|180:312,1,100,0|8,0:0|0:0,0:0:0:0:
88,192,179466,1,0,0:0:0:0:
108,156,179549,1,0,0:0:0:0:
128,120,179633,1,8,0:0:0:0:
256,40,179799,2,0,L|348:80,1,100,0|8,0:0|0:0,0:0:0:0:
348,232,180133,6,0,L|256:192,1,100,0|8,0:0|0:0,0:0:0:0:
164,304,180466,1,0,0:0:0:0:
348,80,180633,1,8,0:0:0:0:
428,208,180799,1,0,0:0:0:0:
408,244,180883,1,0,0:0:0:0:
388,280,180966,1,8,0:0:0:0:
256,348,181133,1,0,0:0:0:0:
132,192,181299,1,8,0:0:0:0:
256,36,181466,1,0,0:0:0:0:
132,192,181633,6,0,B|94:156|94:156|88:108,2,100,12|0|0,0:0|0:0|0:0,0:0:0:0:
380,192,182133,2,0,B|417:227|417:227|424:276,2,100,0|8|0,0:0|0:0|0:0,0:0:0:0:
256,192,182633,5,0,0:0:0:0:
256,232,182716,1,0,0:0:0:0:
256,272,182799,2,0,P|184:296|124:260,1,150.000005722046,4|0,0:0|0:0,0:0:0:0:
72,160,183299,1,0,0:0:0:0:
160,88,183466,2,0,L|236:80,1,75.0000028610231,8|0,0:0|0:0,0:0:0:0:
256,192,183799,1,0,0:0:0:0:
277,303,183966,2,0,B|352:296|352:296|408:244,2,150.000005722046,12|0|0,0:0|0:0|0:0,0:0:0:0:
196,228,184799,2,0,P|184:192|192:156,1,75.0000028610231,8|0,0:0|0:0,0:0:0:0:
316,156,185133,2,0,P|328:192|320:228,1,75.0000028610231
168,260,185466,6,0,P|140:191|163:122,1,150.000005722046,4|0,0:0|0:0,0:0:0:0:
280,84,185966,1,0,0:0:0:0:
380,152,186133,2,0,L|387:226,1,75.0000028610231,8|0,0:0|0:0,0:0:0:0:
256,192,186466,1,0,0:0:0:0:
132,152,186633,2,0,B|124:227|124:227|168:285,2,150.000005722046,12|0|0,0:0|0:0|0:0,0:0:0:0:
216,68,187466,2,0,L|288:48,1,75.0000028610231,8|0,0:0|0:0,0:0:0:0:
328,160,187799,2,0,L|256:140,1,75.0000028610231,8|0,0:0|0:0,0:0:0:0:
296,252,188133,6,0,B|368:232|368:232|416:172,1,150.000005722046,4|0,0:0|0:0,0:0:0:0:
372,68,188633,1,0,0:0:0:0:
264,36,188799,2,0,L|228:104,1,75.0000028610231,8|0,0:0|0:0,0:0:0:0:
156,192,189133,2,0,L|120:124,1,75.0000028610231,0|12,0:0|0:0,0:0:0:0:
28,192,189466,1,0,0:0:0:0:
104,276,189633,2,0,P|174:293|234:253,1,150.000005722046
272,148,190133,2,0,L|292:76,1,75.0000028610231,8|0,0:0|0:0,0:0:0:0:
404,92,190466,2,0,L|424:164,1,75.0000028610231
408,276,190799,6,0,P|337:293|277:253,1,150.000005722046,4|0,0:0|0:0,0:0:0:0:
220,156,191299,1,0,0:0:0:0:
112,192,191466,2,0,P|91:222|86:259,1,75.0000028610231,8|0,0:0|0:0,0:0:0:0:
152,352,191799,1,0,0:0:0:0:
256,308,191966,2,0,B|276:260|256:236|256:236|235:213|256:166,2,150.000005722046,12|0|0,0:0|0:0|0:0,0:0:0:0:
152,352,192799,2,0,L|80:328,1,75.0000028610231,8|0,0:0|0:0,0:0:0:0:
360,352,193133,2,0,L|432:328,1,75.0000028610231,8|0,0:0|0:0,0:0:0:0:
328,248,193466,6,0,B|256:268|256:268|184:248,1,150.000005722046,4|0,0:0|0:0,0:0:0:0:
112,160,193966,1,0,0:0:0:0:
164,60,194133,1,8,0:0:0:0:
256,124,194299,1,0,0:0:0:0:
348,60,194466,1,0,0:0:0:0:
400,160,194633,2,0,B|417:204|417:204|390:252|390:252|408:296,2,150.000005722046,12|0|0,0:0|0:0|0:0,0:0:0:0:
348,60,195466,1,8,0:0:0:0:
256,124,195633,1,0,0:0:0:0:
164,60,195799,1,8,0:0:0:0:
112,160,195966,1,0,0:0:0:0:
184,248,196133,6,0,B|256:268|256:268|328:248,1,150.000005722046,4|0,0:0|0:0,0:0:0:0:
400,160,196633,1,0,0:0:0:0:
310,93,196799,1,8,0:0:0:0:
256,192,196966,1,0,0:0:0:0:
202,291,197133,1,0,0:0:0:0:
112,224,197299,2,0,B|95:180|95:180|122:132|122:132|104:88,2,150.000005722046,12|0|0,0:0|0:0|0:0,0:0:0:0:
202,291,198133,2,0,L|274:315,1,75.0000028610231,8|0,0:0|0:0,0:0:0:0:
310,93,198466,2,0,L|238:69,1,75.0000028610231,8|0,0:0|0:0,0:0:0:0:
256,192,198799,6,0,B|328:212|328:212|396:180,1,150.000005722046,4|0,0:0|0:0,0:0:0:0:
456,276,199299,1,0,0:0:0:0:
364,340,199466,1,8,0:0:0:0:
256,304,199633,1,0,0:0:0:0:
148,340,199799,1,0,0:0:0:0:
56,276,199966,1,12,0:0:0:0:
116,180,200133,6,0,B|184:212|184:212|256:192,1,150.000005722046
316,96,200633,2,0,L|256:52,1,75.0000028610231,0|8,0:0|0:0,0:0:0:0:
144,52,200966,2,0,L|84:96,1,75.0000028610231
76,208,201299,5,12,0:0:0:0:
256,344,201633,1,0,0:0:0:0:
436,208,201966,1,0,0:0:0:0:
352,136,202133,1,8,0:0:0:0:
256,192,202299,1,0,0:0:0:0:
256,192,202799,5,0,0:0:0:0:
232,164,202883,1,0,0:0:0:0:
208,136,202966,1,0,0:0:0:0:
172,136,203049,1,8,0:0:0:0:
148,164,203133,1,0,0:0:0:0:
124,192,203216,1,0,0:0:0:0:
100,220,203299,1,0,0:0:0:0:
64,220,203383,1,8,0:0:0:0:
40,192,203466,1,0,0:0:0:0:
256,48,203799,5,8,0:0:0:0:
256,84,203883,1,8,0:0:0:0:
256,120,203966,1,8,0:0:0:0:
256,156,204049,1,8,0:0:0:0:
256,192,204133,2,0,P|304:212|352:208,1,100,4|8,0:0|0:0,0:0:0:0:
380,60,204466,1,0,0:0:0:0:
380,60,204549,1,0,0:0:0:0:
380,60,204633,1,8,0:0:0:0:
256,192,204799,2,0,P|208:212|160:208,1,100,0|8,0:0|0:0,0:0:0:0:
132,60,205133,1,0,0:0:0:0:
132,60,205216,1,0,0:0:0:0:
132,60,205299,1,8,0:0:0:0:
276,104,205466,5,4,0:0:0:0:
322,253,205633,1,8,0:0:0:0:
169,218,205799,1,0,0:0:0:0:
169,218,205883,1,0,0:0:0:0:
169,218,205966,2,0,L|192:120,1,100,8|0,0:0|0:0,0:0:0:0:
328,60,206299,1,8,0:0:0:0:
380,200,206466,1,0,0:0:0:0:
380,200,206549,1,0,0:0:0:0:
380,200,206633,1,8,0:0:0:0:
256,284,206799,5,4,0:0:0:0:
132,200,206966,1,8,0:0:0:0:
256,284,207133,1,0,0:0:0:0:
256,284,207216,1,0,0:0:0:0:
256,284,207299,1,8,0:0:0:0:
328,152,207466,2,0,P|327:102|296:64,1,100,0|8,0:0|0:0,0:0:0:0:
148,64,207799,1,0,0:0:0:0:
148,64,207883,1,0,0:0:0:0:
148,64,207966,1,8,0:0:0:0:
68,192,208133,5,4,0:0:0:0:
148,320,208299,1,8,0:0:0:0:
68,192,208466,1,0,0:0:0:0:
68,192,208549,1,0,0:0:0:0:
68,192,208633,1,8,0:0:0:0:
196,116,208799,2,0,L|288:76,1,100,0|8,0:0|0:0,0:0:0:0:
288,308,209133,2,0,L|196:268,1,100,8|8,0:0|0:0,0:0:0:0:
324,192,209466,6,0,L|424:192,1,100,4|8,0:0|0:0,0:0:0:0:
444,340,209799,1,0,0:0:0:0:
404,352,209883,1,0,0:0:0:0:
364,364,209966,1,8,0:0:0:0:
248,268,210133,1,0,0:0:0:0:
264,116,210299,1,8,0:0:0:0:
148,20,210466,1,0,0:0:0:0:
108,32,210549,1,0,0:0:0:0:
68,44,210633,1,8,0:0:0:0:
140,176,210799,5,4,0:0:0:0:
372,208,210966,1,8,0:0:0:0:
256,192,211133,1,0,0:0:0:0:
256,192,211216,1,0,0:0:0:0:
256,192,211299,1,8,0:0:0:0:
216,48,211466,1,0,0:0:0:0:
296,336,211633,1,8,0:0:0:0:
256,192,211799,1,0,0:0:0:0:
256,192,211883,1,0,0:0:0:0:
256,192,211966,1,8,0:0:0:0:
348,72,212133,6,0,P|396:92|420:132,1,100,4|8,0:0|0:0,0:0:0:0:
328,252,212466,1,0,0:0:0:0:
292,268,212549,1,0,0:0:0:0:
256,284,212633,1,8,0:0:0:0:
164,72,212799,2,0,P|116:92|92:132,1,100,0|8,0:0|0:0,0:0:0:0:
184,252,213132,1,0,0:0:0:0:
220,268,213215,1,0,0:0:0:0:
256,284,213299,1,8,0:0:0:0:
256,132,213466,6,0,L|256:32,1,100,4|8,0:0|0:0,0:0:0:0:
256,284,213799,6,0,L|256:336,2,50,0|0|8,0:0|0:0|0:0,0:0:0:0:
426,211,214133,5,8,0:0:0:0:
188,34,214383,5,8,0:0:0:0:
153,329,214633,5,8,0:0:0:0:
256,192,214799,6,0,P|220:164|168:164,1,100,4|8,0:0|0:0,0:0:0:0:
30,225,215133,1,0,0:0:0:0:
45,261,215216,1,0,0:0:0:0:
59,298,215299,2,0,L|153:329,1,100,8|0,0:0|0:0,0:0:0:0:
256,192,215633,1,8,0:0:0:0:
256,44,215799,5,0,0:0:0:0:
256,44,215883,1,0,0:0:0:0:
256,44,215966,1,8,0:0:0:0:
128,124,216133,1,0,0:0:0:0:
256,44,216299,1,8,0:0:0:0:
384,124,216466,1,0,0:0:0:0:
400,160,216549,1,0,0:0:0:0:
416,196,216633,1,8,0:0:0:0:
288,264,216799,5,0,0:0:0:0:
272,228,216882,1,0,0:0:0:0:
256,192,216966,1,8,0:0:0:0:
128,260,217133,1,8,0:0:0:0:
384,260,217299,1,8,0:0:0:0:
256,40,217466,6,0,L|172:96,1,100,4|8,0:0|0:0,0:0:0:0:
56,192,217799,1,0,0:0:0:0:
56,232,217883,1,0,0:0:0:0:
56,272,217966,2,0,L|136:332,1,100,8|0,0:0|0:0,0:0:0:0:
256,240,218299,1,8,0:0:0:0:
456,192,218466,5,0,0:0:0:0:
456,232,218550,1,0,0:0:0:0:
456,272,218633,2,0,L|376:332,1,100,8|0,0:0|0:0,0:0:0:0:
256,240,218966,1,8,0:0:0:0:
256,88,219133,1,0,0:0:0:0:
256,88,219216,1,0,0:0:0:0:
256,88,219299,1,8,0:0:0:0:
404,64,219466,5,0,0:0:0:0:
352,204,219633,1,8,0:0:0:0:
256,88,219799,1,0,0:0:0:0:
160,204,219966,1,8,0:0:0:0:
108,64,220133,6,0,L|200:24,1,100,4|8,0:0|0:0,0:0:0:0:
256,164,220466,1,0,0:0:0:0:
256,204,220549,1,0,0:0:0:0:
256,244,220633,2,0,L|348:284,1,100,8|0,0:0|0:0,0:0:0:0:
468,192,220966,1,8,0:0:0:0:
392,64,221133,5,0,0:0:0:0:
356,80,221216,1,0,0:0:0:0:
320,96,221299,1,8,0:0:0:0:
188,164,221466,1,0,0:0:0:0:
324,220,221633,1,8,0:0:0:0:
240,96,221799,2,0,L|208:56,2,50,0|0|8,0:0|0:0|0:0,0:0:0:0:
272,288,222133,2,0,L|304:328,2,50,0|0|8,0:0|0:0|0:0,0:0:0:0:
164,184,222466,2,0,L|76:136,1,100,0|8,0:0|0:0,0:0:0:0:
348,184,222799,6,0,L|436:136,1,100,4|8,0:0|0:0,0:0:0:0:
324,36,223133,2,0,L|292:76,1,50
244,132,223299,2,0,L|144:116,1,100,8|0,0:0|0:0,0:0:0:0:
145,267,223633,2,0,L|244:252,1,100,8|0,0:0|0:0,0:0:0:0:
292,308,223882,2,0,L|324:348,1,50,0|8,0:0|0:0,0:0:0:0:
404,220,224133,1,0,0:0:0:0:
256,192,224299,1,8,0:0:0:0:
108,164,224466,1,0,0:0:0:0:
108,164,224549,1,0,0:0:0:0:
108,164,224633,1,8,0:0:0:0:
184,36,224799,1,8,0:0:0:0:
328,348,225133,1,8,0:0:0:0:
156,104,225466,5,12,0:0:0:0:
356,104,225633,1,0,0:0:0:0:
156,104,225799,1,0,0:0:0:0:
356,104,225966,1,8,0:0:0:0:
156,104,226133,1,0,0:0:0:0:
356,104,226300,1,0,0:0:0:0:
156,104,226466,2,0,P|136:152|144:200,1,100,8|0,0:0|0:0,0:0:0:0:
356,104,226799,2,0,P|376:152|368:200,1,100,0|8,0:0|0:0,0:0:0:0:
120,364,227299,1,0,0:0:0:0:
40,236,227466,1,8,0:0:0:0:
256,28,227799,1,8,0:0:0:0:
472,236,228133,5,12,0:0:0:0:
392,364,228299,1,0,0:0:0:0:
472,236,228466,1,0,0:0:0:0:
320,244,228633,5,8,0:0:0:0:
358,101,228799,1,0,0:0:0:0:
320,244,228966,1,0,0:0:0:0:
192,140,229133,5,8,0:0:0:0:
154,283,229300,1,0,0:0:0:0:
192,140,229466,1,0,0:0:0:0:
40,148,229633,5,8,0:0:0:0:
120,20,229800,1,0,0:0:0:0:
40,148,229966,1,0,0:0:0:0:
256,192,230133,5,0,0:0:0:0:
295,194,230216,1,0,0:0:0:0:
331,177,230299,1,0,0:0:0:0:
357,146,230383,1,0,0:0:0:0:
369,107,230466,1,0,0:0:0:0:
357,70,230549,1,0,0:0:0:0:
332,39,230633,1,0,0:0:0:0:
295,25,230716,1,0,0:0:0:0:
257,23,230799,6,0,L|168:68,2,100,12|0|0,0:0|0:0|0:0,0:0:0:0:
256,192,231299,2,0,L|167:237,2,100,8|0|0,0:0|0:0|0:0,0:0:0:0:
468,192,231799,1,8,0:0:0:0:
132,312,232133,1,0,0:0:0:0:
44,192,232299,1,8,0:0:0:0:
132,72,232466,1,0,0:0:0:0:
256,192,232633,1,0,0:0:0:0:
380,312,232799,1,8,0:0:0:0:
380,72,233133,1,8,0:0:0:0:
132,312,233466,6,0,L|108:212,1,100,12|0,0:0|0:0,0:0:0:0:
256,192,233799,1,0,0:0:0:0:
421,239,233966,6,0,L|347:310,1,100,8|0,0:0|0:0,0:0:0:0:
256,192,234299,1,0,0:0:0:0:
214,24,234466,6,0,L|312:53,1,100,8|0,0:0|0:0,0:0:0:0:
256,192,234799,1,0,0:0:0:0:
128,112,234966,5,8,0:0:0:0:
389,121,235133,1,0,0:0:0:0:
250,342,235299,1,0,0:0:0:0:
244,182,235466,5,8,0:0:0:0:
253,177,235549,1,8,0:0:0:0:
263,179,235633,1,0,0:0:0:0:
269,187,235716,1,0,0:0:0:0:
269,197,235799,1,0,0:0:0:0:
263,204,235883,1,8,0:0:0:0:
253,206,235966,1,0,0:0:0:0:
244,201,236049,1,8,0:0:0:0:
241,191,236133,6,0,P|192:137|122:151,1,150,6|0,0:0|0:0,0:0:0:0:
196,364,236633,1,2,0:0:0:0:
270,191,236799,2,0,P|319:137|389:151,1,150,6|2,0:0|0:0,0:0:0:0:
316,364,237299,1,2,0:0:0:0:
256,192,237466,12,4,238799,0:0:0:0:
44,56,246466,5,8,0:0:0:0:
44,56,246633,1,8,0:0:0:0:
44,56,246799,2,0,L|120:36,1,75.0000028610231
220,84,247133,1,0,2:1:0:0:
292,300,247466,1,8,2:1:0:0:
68,284,247799,6,0,L|72:208,1,75.0000028610231
156,132,248133,1,0,2:0:0:0:
356,252,248466,1,8,2:1:0:0:
428,40,248799,6,0,L|352:56,1,75.0000028610231
244,76,249133,1,0,2:0:0:0:
268,308,249466,1,8,2:1:0:0:
476,224,249799,6,0,L|420:172,1,75.0000028610231
336,100,250133,1,0,2:0:0:0:
176,284,250466,1,8,2:1:0:0:
20,120,250799,6,0,L|52:52,1,75.0000028610231
160,88,251133,1,0,2:0:0:0:
352,296,251466,1,8,2:1:0:0:
128,316,251799,6,0,L|80:256,1,75.0000028610231
92,144,252133,1,0,2:0:0:0:
420,240,252466,1,8,2:1:0:0:
328,36,252799,2,0,L|252:48,1,75.0000028610231
144,68,253133,1,0,2:0:0:0:
368,316,253466,1,8,2:1:0:0:
504,136,253799,6,0,L|476:64,1,75.0000028610231
364,68,254133,1,0,2:0:0:0:
148,316,254466,1,8,2:1:0:0:
20,132,254799,6,0,P|39:100|70:80,1,75.0000028610231
184,104,255133,1,0,2:0:0:0:
256,192,255299,1,0,2:0:0:0:
328,280,255466,1,8,2:1:0:0:
492,132,255799,6,0,P|472:100|441:80,1,75.0000028610231
328,104,256133,1,0,2:0:0:0:
184,280,256466,1,8,2:1:0:0:
388,376,256799,6,0,P|417:354|432:320,1,75.0000028610231
360,232,257133,1,0,2:0:0:0:
256,192,257299,1,0,2:0:0:0:
152,152,257466,1,8,2:1:0:0:
124,376,257799,6,0,P|94:354|79:320,1,75.0000028610231
256,192,258299,1,0,2:0:0:0:
360,152,258466,1,8,2:1:0:0:
172,32,258799,6,0,P|143:55|131:90,1,75.0000028610231
144,204,259133,1,0,2:0:0:0:
256,192,259299,1,0,2:0:0:0:
368,180,259466,1,8,2:1:0:0:
340,352,259799,6,0,P|368:328|380:293,1,75.0000028610231
368,180,260133,1,0,2:0:0:0:
144,204,260466,1,8,2:1:0:0:
296,40,260799,6,0,P|332:31|367:43,1,75.0000028610231
432,136,261133,1,0,2:0:0:0:
372,228,261299,1,0,2:0:0:0:
312,320,261466,1,8,2:1:0:0:
216,40,261799,6,0,P|179:31|144:43,1,75.0000028610231
80,136,262133,1,8,2:3:0:0:
200,320,262466,1,8,2:1:0:0:
164,320,266799,6,0,P|256:353|348:320,1,200,4|2,0:0|0:0,0:0:0:0:
256,32,268133,1,2,0:0:0:0:
128,112,268466,1,0,0:0:0:0:
256,192,268799,1,2,0:0:0:0:
384,112,269133,1,0,0:0:0:0:
128,112,269466,6,0,P|77:191|127:271,1,200,2|2,0:0|0:0,0:0:0:0:
384,112,270799,2,0,P|434:191|384:271,1,200,2|2,0:0|0:0,0:0:0:0:
256,192,271799,1,0,0:0:0:0:
156,80,272133,6,0,P|104:96|76:132,1,100,4|0,0:0|0:0,0:0:0:0:
152,260,272799,2,0,L|152:160,1,100,2|0,0:0|0:0,0:0:0:0:
256,52,273466,1,2,0:0:0:0:
360,160,273799,2,0,L|360:260,1,100,0|2,0:0|0:0,0:0:0:0:
435,130,274465,2,0,P|403:92|356:80,1,100,0|2,0:0|0:0,0:0:0:0:
256,192,275133,5,0,0:0:0:0:
168,312,275466,2,0,P|256:353|344:312,2,200,2|2|8,0:0|0:0|0:0,0:0:0:0:
44,124,277049,5,8,0:0:0:0:
240,12,277299,5,8,0:0:0:0:
256,192,277466,6,0,P|212:232|152:236,1,119.999996337891,4|8,0:0|0:0,0:0:0:0:
164,56,277799,1,0,0:0:0:0:
164,56,277883,1,0,0:0:0:0:
164,56,277966,1,8,0:0:0:0:
348,56,278133,2,0,P|400:84|424:140,1,119.999996337891,0|8,0:0|0:0,0:0:0:0:
304,272,278466,1,0,0:0:0:0:
304,272,278549,1,0,0:0:0:0:
304,272,278633,1,8,0:0:0:0:
208,112,278799,5,4,0:0:0:0:
372,188,278966,1,8,0:0:0:0:
224,288,279133,1,0,0:0:0:0:
224,288,279216,1,0,0:0:0:0:
224,288,279299,1,8,0:0:0:0:
304,128,279466,2,0,P|304:67|262:28,1,119.999996337891,0|8,0:0|0:0,0:0:0:0:
96,100,279799,1,0,0:0:0:0:
96,100,279883,1,0,0:0:0:0:
96,100,279966,1,8,0:0:0:0:
156,268,280133,5,4,0:0:0:0:
256,120,280299,1,8,0:0:0:0:
356,268,280466,1,0,0:0:0:0:
356,268,280549,1,0,0:0:0:0:
356,268,280633,1,8,0:0:0:0:
196,192,280799,2,0,P|156:149|166:91,1,119.999996337891,0|8,0:0|0:0,0:0:0:0:
348,96,281133,1,0,0:0:0:0:
348,96,281216,1,0,0:0:0:0:
348,96,281299,1,8,0:0:0:0:
196,192,281466,6,0,P|156:234|166:292,1,119.999996337891,4|8,0:0|0:0,0:0:0:0:
348,288,281799,1,0,0:0:0:0:
348,288,281882,1,0,0:0:0:0:
348,288,281965,1,8,0:0:0:0:
237,60,282133,1,0,0:0:0:0:
193,309,282299,1,8,0:0:0:0:
375,134,282466,1,8,0:0:0:0:
125,168,282633,1,8,0:0:0:0:
256,192,282799,6,0,P|300:154|303:95,1,119.999996337891,4|8,0:0|0:0,0:0:0:0:
132,32,283133,1,0,0:0:0:0:
96,64,283216,1,0,0:0:0:0:
60,96,283299,1,8,0:0:0:0:
92,272,283466,1,0,0:0:0:0:
256,192,283633,1,8,0:0:0:0:
420,272,283799,1,0,0:0:0:0:
384,304,283883,1,0,0:0:0:0:
348,336,283966,1,8,0:0:0:0:
188,256,284133,5,4,0:0:0:0:
324,128,284299,1,8,0:0:0:0:
148,84,284466,1,0,0:0:0:0:
132,128,284549,1,0,0:0:0:0:
116,172,284633,1,8,0:0:0:0:
396,212,284799,1,0,0:0:0:0:
256,100,284966,1,8,0:0:0:0:
256,284,285133,1,0,0:0:0:0:
292,316,285216,1,0,0:0:0:0:
328,348,285299,1,8,0:0:0:0:
464,228,285466,5,4,0:0:0:0:
384,68,285633,1,8,0:0:0:0:
256,192,285799,1,0,0:0:0:0:
256,192,285883,1,0,0:0:0:0:
256,192,285966,1,8,0:0:0:0:
128,68,286133,1,0,0:0:0:0:
48,228,286300,1,8,0:0:0:0:
168,364,286466,1,0,0:0:0:0:
212,348,286549,1,0,0:0:0:0:
256,332,286633,1,8,0:0:0:0:
148,192,286799,5,4,0:0:0:0:
364,192,286966,1,8,0:0:0:0:
344,20,287133,1,0,0:0:0:0:
300,36,287216,1,0,0:0:0:0:
256,52,287300,1,8,0:0:0:0:
256,192,287466,5,8,0:0:0:0:
256,240,287716,5,8,0:0:0:0:
256,288,287966,5,8,0:0:0:0:
256,336,288133,6,0,L|148:284,1,119.999996337891,4|8,0:0|0:0,0:0:0:0:
112,108,288466,1,0,0:0:0:0:
112,108,288549,1,0,0:0:0:0:
112,108,288633,1,8,0:0:0:0:
256,216,288799,1,0,0:0:0:0:
400,108,288966,1,8,0:0:0:0:
256,216,289133,5,0,0:0:0:0:
256,216,289216,1,0,0:0:0:0:
256,216,289299,1,8,0:0:0:0:
112,108,289466,1,0,0:0:0:0:
256,216,289633,1,8,0:0:0:0:
400,108,289799,1,0,0:0:0:0:
400,108,289883,1,0,0:0:0:0:
400,108,289966,1,8,0:0:0:0:
112,276,290133,5,0,0:0:0:0:
112,276,290217,1,0,0:0:0:0:
112,276,290300,1,8,0:0:0:0:
256,168,290466,1,0,0:0:0:0:
400,276,290633,1,8,0:0:0:0:
224,248,290799,6,0,P|179:210|171:152,1,119.999996337891,0|8,0:0|0:0,0:0:0:0:
324,27,291133,1,0,0:0:0:0:
344,71,291216,1,0,0:0:0:0:
364,115,291299,2,0,L|256:167,1,119.999996337891,8|0,0:0|0:0,0:0:0:0:
76,192,291633,1,8,0:0:0:0:
164,36,291799,5,0,0:0:0:0:
164,36,291883,1,0,0:0:0:0:
164,36,291966,1,8,0:0:0:0:
256,192,292133,1,0,0:0:0:0:
164,348,292299,1,8,0:0:0:0:
24,232,292466,1,0,0:0:0:0:
48,192,292549,1,0,0:0:0:0:
72,152,292633,1,8,0:0:0:0:
256,24,292799,5,0,0:0:0:0:
440,152,292966,1,8,0:0:0:0:
256,48,293133,1,0,0:0:0:0:
72,152,293299,1,8,0:0:0:0:
256,72,293466,6,0,L|256:192,1,119.999996337891,0|8,0:0|0:0,0:0:0:0:
164,348,293799,1,0,0:0:0:0:
164,348,293883,1,0,0:0:0:0:
164,348,293966,1,8,0:0:0:0:
24,232,294133,1,0,0:0:0:0:
116,80,294299,1,8,0:0:0:0:
256,192,294466,5,0,0:0:0:0:
256,240,294549,1,0,0:0:0:0:
256,288,294633,1,8,0:0:0:0:
96,208,294799,1,0,0:0:0:0:
416,176,294966,1,8,0:0:0:0:
256,96,295133,1,0,0:0:0:0:
256,144,295217,1,0,0:0:0:0:
256,192,295300,1,8,0:0:0:0:
140,328,295466,2,0,L|92:292,1,59.9999981689454
44,216,295633,2,0,L|148:156,1,119.999996337891,8|0,0:0|0:0,0:0:0:0:
364,227,295966,1,8,0:0:0:0:
256,372,296133,6,0,P|208:330|200:275,1,119.999996337891,0|8,0:0|0:0,0:0:0:0:
320,140,296466,1,0,0:0:0:0:
364,116,296549,1,0,0:0:0:0:
408,92,296633,2,0,L|476:192,1,119.999996337891,8|0,0:0|0:0,0:0:0:0:
256,308,296966,1,8,0:0:0:0:
192,140,297133,5,0,0:0:0:0:
148,116,297216,1,0,0:0:0:0:
104,92,297300,2,0,L|36:192,1,119.999996337891,8|0,0:0|0:0,0:0:0:0:
256,308,297633,1,8,0:0:0:0:
256,308,297716,1,0,0:0:0:0:
256,308,297799,1,0,0:0:0:0:
256,76,297966,1,8,0:0:0:0:
256,192,298133,1,8,0:0:0:0:
256,192,298466,1,8,0:0:0:0:
256,192,298799,5,12,0:0:0:0:
128,64,298966,1,0,0:0:0:0:
256,196,299133,1,0,0:0:0:0:
384,64,299299,1,8,0:0:0:0:
256,200,299466,1,0,0:0:0:0:
124,64,299633,1,0,0:0:0:0:
256,204,299799,1,8,0:0:0:0:
388,64,299966,1,0,0:0:0:0:
256,208,300133,1,0,0:0:0:0:
120,64,300299,1,8,0:0:0:0:
412,244,300633,1,0,0:0:0:0:
392,64,300799,1,8,0:0:0:0:
100,244,301133,1,8,0:0:0:0:
256,16,301466,5,12,0:0:0:0:
348,172,301633,1,0,0:0:0:0:
164,172,301799,1,0,0:0:0:0:
256,16,301966,5,8,0:0:0:0:
164,172,302133,1,0,0:0:0:0:
348,172,302299,1,0,0:0:0:0:
256,16,302466,5,8,0:0:0:0:
348,172,302633,1,0,0:0:0:0:
164,172,302799,1,0,0:0:0:0:
256,16,302966,5,8,0:0:0:0:
164,172,303133,1,0,0:0:0:0:
348,172,303299,1,0,0:0:0:0:
256,328,303466,5,0,0:0:0:0:
208,336,303549,1,0,0:0:0:0:
160,332,303633,1,0,0:0:0:0:
116,312,303716,1,0,0:0:0:0:
88,272,303799,1,0,0:0:0:0:
72,228,303883,1,0,0:0:0:0:
76,180,303966,1,0,0:0:0:0:
96,136,304049,1,0,0:0:0:0:
136,108,304133,6,0,L|192:128,5,59.9999981689454,12|0|0|0|0|0,0:0|0:0|0:0|0:0|0:0|0:0,0:0:0:0:
240,128,304633,2,0,L|296:108,5,59.9999981689454,8|0|0|0|0|0,0:0|0:0|0:0|0:0|0:0|0:0,0:0:0:0:
344,116,305133,1,8,0:0:0:0:
384,140,305216,1,0,0:0:0:0:
396,188,305299,1,0,0:0:0:0:
380,236,305383,1,0,0:0:0:0:
348,272,305466,1,0,0:0:0:0:
300,280,305549,1,0,0:0:0:0:
256,264,305633,1,8,0:0:0:0:
212,280,305716,1,0,0:0:0:0:
164,272,305799,1,0,0:0:0:0:
132,236,305883,1,0,0:0:0:0:
116,188,305966,1,0,0:0:0:0:
128,140,306049,1,0,0:0:0:0:
168,116,306133,6,0,L|228:136,1,59.9999981689454,8|0,0:0|0:0,0:0:0:0:
344,116,306299,2,0,L|284:136,1,59.9999981689454
168,136,306466,2,0,L|228:156,1,59.9999981689454,8|0,0:0|0:0,0:0:0:0:
344,136,306632,2,0,L|284:156,1,59.9999981689454
256,116,306799,5,12,0:0:0:0:
260,68,306883,1,0,0:0:0:0:
292,32,306966,1,0,0:0:0:0:
340,28,307049,1,0,0:0:0:0:
388,40,307133,1,0,0:0:0:0:
420,76,307216,1,0,0:0:0:0:
428,124,307299,6,0,L|404:180,5,59.9999981689454,8|0|0|0|0|0,0:0|0:0|0:0|0:0|0:0|0:0,0:0:0:0:
380,220,307799,5,8,0:0:0:0:
332,232,307883,1,0,0:0:0:0:
284,244,307966,1,0,0:0:0:0:
236,256,308049,1,0,0:0:0:0:
188,268,308133,1,0,0:0:0:0:
140,280,308216,1,0,0:0:0:0:
92,292,308299,6,0,L|56:244,5,59.9999981689454,8|0|0|0|0|0,0:0|0:0|0:0|0:0|0:0|0:0,0:0:0:0:
44,196,308799,5,8,0:0:0:0:
56,148,308883,1,0,0:0:0:0:
88,112,308966,1,0,0:0:0:0:
136,108,309049,1,0,0:0:0:0:
180,128,309133,1,0,0:0:0:0:
228,128,309216,1,8,0:0:0:0:
268,100,309299,1,8,0:0:0:0:
292,60,309383,1,8,0:0:0:0:
284,12,309466,6,0,B|196:4|196:4|112:40,1,179.999994506836,4|2,0:0|0:0,0:0:0:0:
256,192,309966,1,2,0:0:0:0:
400,344,310133,2,0,B|316:380|316:380|228:372,1,179.999994506836,4|2,0:0|0:0,0:0:0:0:
256,192,310633,1,2,0:0:0:0:
364,88,310799,6,0,P|400:124|404:172,1,100,4|8,0:0|0:0,0:0:0:0:
256,268,311133,1,0,0:0:0:0:
256,268,311216,1,0,0:0:0:0:
256,268,311299,1,8,0:0:0:0:
148,88,311466,2,0,P|112:124|108:172,1,100,0|8,0:0|0:0,0:0:0:0:
256,268,311799,1,0,0:0:0:0:
256,268,311883,1,0,0:0:0:0:
256,268,311966,1,8,0:0:0:0:
256,116,312133,5,0,0:0:0:0:
172,240,312299,1,8,0:0:0:0:
340,240,312466,1,0,0:0:0:0:
340,240,312549,1,0,0:0:0:0:
340,240,312633,1,8,0:0:0:0:
344,92,312799,2,0,P|320:48|276:28,1,100,0|8,0:0|0:0,0:0:0:0:
140,96,313133,1,0,0:0:0:0:
140,96,313216,1,0,0:0:0:0:
140,96,313299,1,8,0:0:0:0:
256,192,313466,5,0,0:0:0:0:
372,96,313633,1,8,0:0:0:0:
256,192,313799,1,0,0:0:0:0:
256,192,313883,1,0,0:0:0:0:
256,192,313966,1,8,0:0:0:0:
372,288,314133,1,0,0:0:0:0:
256,192,314299,1,8,0:0:0:0:
140,288,314466,1,0,0:0:0:0:
140,288,314549,1,0,0:0:0:0:
140,288,314633,1,8,0:0:0:0:
256,192,314799,5,0,0:0:0:0:
292,176,314883,1,0,0:0:0:0:
332,180,314966,1,8,0:0:0:0:
368,196,315049,1,0,0:0:0:0:
392,228,315133,1,0,0:0:0:0:
404,268,315216,1,0,0:0:0:0:
400,308,315299,1,8,0:0:0:0:
380,344,315383,1,0,0:0:0:0:
348,364,315466,6,0,L|300:348,1,50
256,276,315633,2,0,L|304:260,1,50,8|0,0:0|0:0,0:0:0:0:
348,188,315799,2,0,L|300:172,1,50
255,100,315966,2,0,L|303:84,1,50,8|0,0:0|0:0,0:0:0:0:
416,112,316133,6,0,L|448:208,1,100,4|8,0:0|0:0,0:0:0:0:
356,324,316466,1,0,0:0:0:0:
320,308,316549,1,0,0:0:0:0:
284,292,316633,1,8,0:0:0:0:
176,192,316799,1,0,0:0:0:0:
336,192,316966,1,8,0:0:0:0:
228,92,317133,1,0,0:0:0:0:
192,76,317217,1,0,0:0:0:0:
156,60,317300,1,8,0:0:0:0:
84,192,317466,5,0,0:0:0:0:
256,344,317633,1,8,0:0:0:0:
428,192,317799,1,0,0:0:0:0:
412,156,317883,1,0,0:0:0:0:
396,120,317966,1,8,0:0:0:0:
256,68,318133,1,0,0:0:0:0:
256,316,318299,1,8,0:0:0:0:
256,192,318466,1,0,0:0:0:0:
256,192,318549,1,0,0:0:0:0:
256,192,318633,1,8,0:0:0:0:
140,96,318799,6,0,P|104:136|104:180,1,100,0|8,0:0|0:0,0:0:0:0:
232,264,319133,1,0,0:0:0:0:
244,228,319216,1,0,0:0:0:0:
256,192,319299,1,8,0:0:0:0:
372,96,319466,6,0,P|408:136|408:180,1,100,0|8,0:0|0:0,0:0:0:0:
280,264,319799,1,0,0:0:0:0:
268,228,319883,1,0,0:0:0:0:
256,192,319966,1,8,0:0:0:0:
256,40,320133,5,0,0:0:0:0:
251,42,320216,1,0,0:0:0:0:
246,41,320299,1,8,0:0:0:0:
243,37,320383,1,0,0:0:0:0:
243,32,320466,1,0,0:0:0:0:
246,28,320549,1,0,0:0:0:0:
251,28,320633,1,8,0:0:0:0:
256,30,320716,1,0,0:0:0:0:
257,35,320799,6,0,L|232:80,1,50,0|0,0:1|0:1,0:1:0:0:
336,48,320966,2,0,L|361:3,1,50,8|0,0:0|0:0,0:0:0:0:
296,120,321133,2,0,L|288:172,3,50,8|8|8|8,0:0|0:0|0:0|0:0,0:0:0:0:
256,192,321466,5,4,0:0:0:0:
216,204,321549,1,0,0:0:0:0:
176,192,321633,1,8,0:0:0:0:
148,160,321716,1,0,0:0:0:0:
112,140,321799,2,0,L|64:160,3,50,0|0|8|0,0:0|0:0|0:0|0:0,0:0:0:0:
40,192,322133,1,0,0:0:0:0:
40,232,322216,1,0,0:0:0:0:
60,268,322299,1,8,0:0:0:0:
96,280,322383,1,0,0:0:0:0:
136,276,322466,2,0,L|180:248,3,50,0|0|8|0,0:0|0:0|0:0|0:0,0:0:0:0:
212,232,322799,5,0,0:0:0:0:
252,236,322883,1,0,0:0:0:0:
288,256,322966,1,8,0:0:0:0:
316,284,323049,1,0,0:0:0:0:
356,292,323133,1,0,0:0:0:0:
392,276,323216,1,0,0:0:0:0:
420,248,323299,1,8,0:0:0:0:
432,208,323383,1,0,0:0:0:0:
420,168,323466,2,0,L|396:124,1,50
272,24,323633,2,0,L|296:68,1,50,8|0,0:0|0:0,0:0:0:0:
328,196,323799,2,0,L|304:152,1,50
180,52,323966,2,0,L|204:96,1,50,8|0,0:0|0:0,0:0:0:0:
236,224,324133,5,0,0:0:0:0:
196,232,324216,1,0,0:0:0:0:
156,224,324299,1,8,0:0:0:0:
124,200,324383,1,0,0:0:0:0:
104,164,324466,2,0,L|108:112,3,50,0|0|8|0,0:0|0:0|0:0|0:0,0:0:0:0:
124,76,324799,1,0,0:0:0:0:
156,52,324883,1,0,0:0:0:0:
196,52,324966,1,8,0:0:0:0:
236,64,325049,1,0,0:0:0:0:
256,100,325133,2,0,L|260:152,3,50,0|0|8|0,0:0|0:0|0:0|0:0,0:0:0:0:
261,196,325466,5,0,0:0:0:0:
257,199,325549,1,0,0:0:0:0:
252,198,325633,1,8,0:0:0:0:
249,194,325716,1,0,0:0:0:0:
249,189,325799,1,0,0:0:0:0:
252,185,325883,1,0,0:0:0:0:
257,184,325966,1,8,0:0:0:0:
261,187,326049,1,0,0:0:0:0:
263,192,326133,6,0,L|300:228,1,50
248,192,326299,2,0,L|212:156,1,50,8|0,0:0|0:0,0:0:0:0:
261,186,326466,2,0,L|312:186,1,50
250,197,326632,2,0,L|199:197,1,50,8|0,0:0|0:0,0:0:0:0:
212,316,326799,5,4,0:0:0:0:
248,332,326883,1,0,0:0:0:0:
288,328,326966,1,8,0:0:0:0:
324,308,327049,1,0,0:0:0:0:
340,272,327133,2,0,L|348:220,3,50,0|0|8|0,0:0|0:0|0:0|0:0,0:0:0:0:
376,192,327466,1,0,0:0:0:0:
412,176,327549,1,0,0:0:0:0:
452,180,327633,1,8,0:0:0:0:
484,204,327716,1,0,0:0:0:0:
488,244,327799,2,0,L|480:296,3,50,0|0|8|0,0:0|0:0|0:0|0:0,0:0:0:0:
448,316,328133,5,0,0:0:0:0:
408,316,328216,1,0,0:0:0:0:
372,300,328299,1,8,0:0:0:0:
352,264,328383,1,0,0:0:0:0:
344,224,328466,1,0,0:0:0:0:
324,188,328549,1,0,0:0:0:0:
288,168,328633,1,8,0:0:0:0:
248,168,328716,1,0,0:0:0:0:
212,188,328799,2,0,L|224:240,1,50
156,96,328966,2,0,L|144:44,1,50,8|0,0:0|0:0,0:0:0:0:
136,248,329133,2,0,L|147:296,1,50
80,156,329300,2,0,L|68:107,1,50,8|0,0:0|0:0,0:0:0:0:
39,236,329466,5,0,0:0:0:0:
75,256,329549,1,0,0:0:0:0:
111,276,329633,1,8,0:0:0:0:
147,296,329716,1,0,0:0:0:0:
183,316,329799,2,0,L|228:296,3,50,0|0|8|0,0:0|0:0|0:0|0:0,0:0:0:0:
230,254,330133,1,0,0:0:0:0:
223,215,330216,1,0,0:0:0:0:
216,176,330299,1,8,0:0:0:0:
208,136,330383,1,0,0:0:0:0:
201,97,330466,2,0,L|238:61,3,50,0|0|8|0,0:0|0:0|0:0|0:0,0:0:0:0:
256,88,330799,5,0,0:0:0:0:
258,103,330883,1,0,0:0:0:0:
253,119,330966,1,8,0:0:0:0:
261,136,331049,1,0,0:0:0:0:
250,152,331133,1,0,0:0:0:0:
263,168,331216,1,0,0:0:0:0:
248,183,331299,1,8,0:0:0:0:
266,200,331383,1,0,0:0:0:0:
245,216,331466,1,0,0:0:0:0:
269,231,331549,1,0,0:0:0:0:
242,247,331633,1,8,0:0:0:0:
271,263,331716,1,0,0:0:0:0:
240,280,331799,1,8,0:0:0:0:
274,295,331883,1,8,0:0:0:0:
237,311,331966,1,8,0:0:0:0:
277,328,332049,1,8,0:0:0:0:
234,344,332133,6,0,B|152:356|112:268|155:192|256:192|256:192|357:192|400:116|360:28|278:40,1,552.000000842285,0|4,0:0|0:0,0:0:0:0:
256,192,333633,12,0,342799,0:0:0:0:
