osu file format v14

[General]
AudioFilename: audio.mp3
AudioLeadIn: 0
PreviewTime: 92110
Countdown: 0
SampleSet: Normal
StackLeniency: 0.6
Mode: 0
LetterboxInBreaks: 0
WidescreenStoryboard: 1

[Editor]
DistanceSpacing: 0.6
BeatDivisor: 8
GridSize: 4
TimelineZoom: 8

[Metadata]
Title:Astral Dogma
TitleUnicode:Astral Dogma
Artist:Yousei Teikoku
ArtistUnicode:妖精帝國
Creator:Net0
Version:Saten's Dogma
Source:
Tags:saten san kyshiro pax vesania yui itsuki 伊月ゆい lantis fairy empire gothic lolita rock metal Techno Trance Heavy Classic ゆい 橘 尭葉 Nanami 紫煉 Gight
BeatmapID:2109844
BeatmapSetID:1008085

[Difficulty]
HPDrainRate:6
CircleSize:4
OverallDifficulty:8.6
ApproachRate:9
SliderMultiplier:2
SliderTickRate:1

[Events]
//Background and Video events
0,0,"Astral Dogma.jpg",0,0
//Break Periods
2,204643,211510
//Storyboard Layer 0 (Background)
//Storyboard Layer 1 (Fail)
//Storyboard Layer 2 (Pass)
//Storyboard Layer 3 (Foreground)
//Storyboard Layer 4 (Overlay)
//Storyboard Sound Samples

[TimingPoints]
444,333.333333333333,4,2,1,30,1,0
444,-200,4,2,1,40,0,0
21778,-133.333333333333,4,1,1,70,0,0
32443,-100,4,1,1,80,0,0
71110,-133.333333333333,4,1,1,60,0,0
92443,-100,4,1,1,80,0,1
103110,-100,4,1,1,80,0,0
113777,-100,4,1,1,80,0,1
125777,-100,4,1,1,80,0,0
148443,-133.333333333333,4,1,1,60,0,0
169777,-100,4,1,1,80,0,1
180443,-100,4,1,1,80,0,0
191110,-100,4,1,1,80,0,1
203110,-133.333333333333,4,1,1,60,0,0
212443,333.333333333333,3,1,1,60,1,0
212443,-133.333333333333,3,1,1,60,0,0
228444,-200,3,2,1,50,0,0
232443,333.333333333333,4,2,1,50,1,0
232443,-200,4,2,1,50,0,0
242444,-100,4,1,1,70,0,0
243109,-83.3333333333333,4,1,1,80,0,1
253776,-83.3333333333333,4,1,1,80,0,0
264442,-83.3333333333333,4,1,1,80,0,1
276442,-100,4,1,1,80,0,0
297776,-144.927536231884,4,1,1,50,0,0
299110,-133.333333333333,4,2,1,80,0,0
299277,-133.333333333333,4,2,1,5,0,0

[Colours]
Combo1 : 255,255,102
Combo2 : 91,255,91
Combo3 : 255,108,182
Combo4 : 169,83,255

[HitObjects]
29,199,444,6,0,P|95:130|189:150,1,200,4|0,1:3|0:0,0:0:0:0:
264,284,1443,1,0,1:0:0:0:
124,227,1777,2,0,L|256:75,1,200,0|0,1:0|0:0,0:0:0:0:
368,176,2777,1,0,0:0:0:0:
255,276,3110,6,0,L|255:76,1,200,0|0,1:0|0:0,0:0:0:0:
108,44,4110,1,0,1:0:0:0:
92,192,4443,2,0,P|173:240|256:192,1,200,0|0,1:0|0:0,0:0:0:0:
256,191,5777,6,0,P|337:142|420:190,1,200,0|0,1:0|0:0,0:0:0:0:
464,332,6777,1,0,1:0:0:0:
348,240,7110,2,0,P|320:149|380:72,1,200,0|0,1:0|0:0,0:0:0:0:
256,8,8110,1,0,0:0:0:0:
132,72,8443,6,0,P|191:147|164:240,1,200,0|0,1:0|0:0,0:0:0:0:
256,360,9443,1,0,1:0:0:0:
256,192,9777,1,0,1:0:0:0:
256,192,11110,6,0,B|164:152|164:152|72:192,1,200,4|0,1:3|0:0,0:0:0:0:
88,340,12110,2,0,L|158:269,1,100,0|0,1:0|1:0,0:0:0:0:
424,340,13110,2,0,L|353:269,1,100
256,92,13777,6,0,L|256:292,1,200,0|0,1:0|0:0,0:0:0:0:
136,204,14777,1,0,1:0:0:0:
376,180,15110,1,0,1:0:0:0:
256,192,16443,6,0,B|216:100|216:100|256:8,1,200,0|0,1:0|0:0,0:0:0:0:
356,120,17443,1,0,1:0:0:0:
156,264,17777,2,0,P|76:208|72:112,1,200,0|0,1:0|0:0,0:0:0:0:
356,264,19110,6,0,P|436:208|440:112,1,200,0|0,1:0|0:0,0:0:0:0:
292,88,20110,1,0,1:0:0:0:
220,296,20443,1,0,1:0:0:0:
256,192,21777,5,4,1:2:0:0:
168,316,23110,5,8,0:0:0:0:
192,53,23443,1,8,0:0:0:0:
407,206,23777,1,8,0:0:0:0:
192,53,24110,1,8,0:0:0:0:
168,316,24443,1,4,0:0:0:0:
256,192,25777,5,8,0:0:0:0:
400,228,25943,2,0,L|420:264,4,37.5000014305115
256,192,26443,5,8,0:0:0:0:
112,156,26610,2,0,L|92:120,4,37.5000014305115
256,192,27110,5,4,0:0:0:0:
301,332,28443,5,12,0:0:0:0:
301,51,28777,1,8,0:0:0:0:
136,279,29110,1,8,0:0:0:0:
404,192,29443,1,8,0:0:0:0:
136,104,29777,1,4,0:0:0:0:
256,192,31110,5,8,0:0:0:0:
402,162,31277,1,0,0:0:0:0:
390,198,31360,1,0,0:0:0:0:
378,234,31443,2,0,L|400:264,2,37.5000014305115
256,192,31777,5,8,0:0:0:0:
110,162,31943,1,0,0:0:0:0:
122,198,32027,1,0,0:0:0:0:
134,234,32110,2,0,L|112:264,2,37.5000014305115
256,192,32443,6,0,P|264:144|248:97,1,100,4|8,0:0|0:0,0:0:0:0:
104,56,32777,1,0,0:0:0:0:
44,192,32943,1,8,0:0:0:0:
132,312,33110,2,0,P|181:290|206:254,1,100,0|8,0:0|0:0,0:0:0:0:
116,136,33443,1,0,0:0:0:0:
256,192,33610,1,8,0:0:0:0:
396,136,33777,6,0,L|348:48,1,100,0|8,0:0|0:0,0:0:0:0:
116,136,34110,2,0,L|164:48,1,100,0|8,0:0|0:0,0:0:0:0:
256,140,34443,1,0,0:0:0:0:
184,272,34610,1,8,0:0:0:0:
328,272,34777,2,0,P|326:325|296:359,1,100,0|8,0:0|0:0,0:0:0:0:
148,344,35110,5,0,0:0:0:0:
180,196,35277,1,8,0:0:0:0:
332,188,35443,2,0,P|379:199|405:240,1,100,0|8,0:0|0:0,0:0:0:0:
214,128,35777,2,0,P|200:81|223:37,1,100,0|8,0:0|0:0,0:0:0:0:
221,259,36110,2,0,P|188:295|138:297,1,100,0|8,0:0|0:0,0:0:0:0:
36,192,36443,5,0,0:0:0:0:
40,140,36527,1,0,0:0:0:0:
64,96,36610,1,8,0:0:0:0:
108,72,36693,1,0,0:0:0:0:
160,76,36777,2,0,L|200:108,3,50,0|0|8|0,0:0|0:0|0:0|0:0,0:0:0:0:
204,156,37110,5,0,0:0:0:0:
250,178,37193,1,0,0:0:0:0:
300,179,37277,1,8,0:0:0:0:
343,153,37360,1,0,0:0:0:0:
366,106,37443,2,0,L|358:55,3,50,0|0|8|0,0:0|0:0|0:0|0:0,0:0:0:0:
316,28,37777,6,0,P|277:51|256:100,1,100,4|8,0:0|0:0,0:0:0:0:
196,356,38110,2,0,P|235:333|256:284,1,100,0|8,0:0|0:0,0:0:0:0:
192,148,38443,1,0,0:0:0:0:
148,292,38610,1,8,0:0:0:0:
364,292,38777,1,0,0:0:0:0:
320,148,38943,1,8,0:0:0:0:
131,211,39110,6,0,P|105:170|111:121,1,100,0|8,0:0|0:0,0:0:0:0:
380,211,39443,2,0,P|406:170|400:121,1,100,0|8,0:0|0:0,0:0:0:0:
252,84,39777,1,0,0:0:0:0:
260,300,39943,1,8,0:0:0:0:
176,118,40110,1,0,0:0:0:0:
335,265,40277,1,8,0:0:0:0:
148,195,40443,6,0,P|108:168|96:120,1,100,0|8,0:0|0:0,0:0:0:0:
364,188,40777,2,0,P|404:216|416:264,1,100,0|8,0:0|0:0,0:0:0:0:
182,271,41110,2,0,P|134:279|91:254,1,100,0|8,0:0|0:0,0:0:0:0:
329,112,41443,2,0,P|377:104|420:129,1,100,0|8,0:0|0:0,0:0:0:0:
259,300,41777,6,0,L|212:321,3,50,0|0|8|0,0:0|0:0|0:0|0:0,0:0:0:0:
171,314,42110,1,0,0:0:0:0:
138,289,42193,1,0,0:0:0:0:
120,253,42277,1,8,0:0:0:0:
121,215,42360,1,0,0:0:0:0:
136,180,42443,6,0,L|161:135,3,50,0|0|8|0,0:0|0:0|0:0|0:0,0:0:0:0:
158,95,42777,1,8,0:0:0:0:
136,59,42860,1,0,0:0:0:0:
102,39,42943,1,8,0:0:0:0:
64,37,43027,1,0,0:0:0:0:
28,56,43110,6,0,L|16:104,2,50
256,72,43443,1,8,0:0:0:0:
136,180,43610,1,0,0:0:0:0:
136,59,43777,1,8,0:0:0:0:
332,120,43943,1,0,0:0:0:0:
180,120,44110,1,8,0:0:0:0:
376,59,44277,1,8,0:0:0:0:
256,24,44443,6,0,L|256:124,1,100,4|8,0:0|0:0,0:0:0:0:
256,360,44777,2,0,L|256:260,1,100,0|8,0:0|0:0,0:0:0:0:
124,168,45110,1,0,0:0:0:0:
124,168,45193,1,0,0:0:0:0:
124,168,45277,2,0,P|87:200|79:249,1,100,8|0,0:0|0:0,0:0:0:0:
256,192,45610,1,8,0:0:0:0:
176,76,45777,1,0,0:0:0:0:
156,236,45943,5,8,0:0:0:0:
356,148,46110,1,0,0:0:0:0:
216,293,46277,1,8,0:0:0:0:
295,90,46443,1,0,0:0:0:0:
295,90,46527,1,0,0:0:0:0:
295,90,46610,2,0,L|228:16,1,100,8|0,0:0|0:0,0:0:0:0:
140,140,46943,1,8,0:0:0:0:
256,236,47110,6,0,L|323:161,1,100,0|8,0:0|0:0,0:0:0:0:
163,95,47443,1,0,0:0:0:0:
218,319,47610,1,8,0:0:0:0:
385,159,47777,1,0,0:0:0:0:
385,159,47860,1,0,0:0:0:0:
385,159,47943,2,0,P|373:111|337:78,1,100,8|0,0:0|0:0,0:0:0:0:
188,160,48277,1,8,0:0:0:0:
324,224,48443,1,0,0:0:0:0:
254,100,48610,6,0,P|218:66|169:58,2,100,12|0|0,0:0|0:0|0:0,0:0:0:0:
257,283,49110,2,0,P|293:317|342:325,2,100,0|8|0,0:0|0:0|0:0,0:0:0:0:
256,192,49610,1,8,0:0:0:0:
392,128,49777,6,0,P|416:172|408:220,1,100,4|8,0:0|0:0,0:0:0:0:
120,256,50110,2,0,P|96:212|104:164,1,100,0|8,0:0|0:0,0:0:0:0:
216,32,50443,1,0,0:0:0:0:
256,32,50527,1,0,0:0:0:0:
296,32,50610,1,8,0:0:0:0:
344,184,50777,1,0,0:0:0:0:
168,200,50943,1,8,0:0:0:0:
248,104,51110,1,0,0:0:0:0:
264,280,51277,1,8,0:0:0:0:
128,340,51443,6,0,L|100:244,1,100,0|8,0:0|0:0,0:0:0:0:
256,192,51777,1,0,0:0:0:0:
256,192,51860,1,0,0:0:0:0:
256,192,51943,1,8,0:0:0:0:
412,140,52110,2,0,L|384:44,1,100,0|8,0:0|0:0,0:0:0:0:
236,80,52443,5,0,0:0:0:0:
276,304,52610,1,8,0:0:0:0:
162,126,52777,1,0,0:0:0:0:
349,257,52943,1,8,0:0:0:0:
256,192,53110,1,0,0:0:0:0:
256,192,53193,1,0,0:0:0:0:
256,192,53277,1,8,0:0:0:0:
144,212,53443,1,0,0:0:0:0:
368,172,53610,1,8,0:0:0:0:
191,286,53777,1,0,0:0:0:0:
320,98,53943,6,0,P|366:80|412:96,2,100,12|0|0,0:0|0:0|0:0,0:0:0:0:
191,285,54443,2,0,P|145:303|99:287,2,100,0|8|0,0:0|0:0|0:0,0:0:0:0:
256,192,54943,1,0,0:0:0:0:
137,106,55110,5,4,0:0:0:0:
300,329,55277,1,8,0:0:0:0:
300,329,55610,1,0,0:0:0:0:
300,53,55777,1,0,0:0:0:0:
300,53,56110,1,8,0:0:0:0:
137,276,56277,1,8,0:0:0:0:
137,276,56610,1,0,0:0:0:0:
400,192,56777,1,0,0:0:0:0:
400,192,57110,5,0,0:0:0:0:
137,276,57277,1,8,0:0:0:0:
300,53,57443,1,8,0:0:0:0:
300,329,57610,1,8,0:0:0:0:
137,106,57777,5,4,0:0:0:0:
375,278,57943,1,8,0:0:0:0:
400,168,58277,5,0,0:0:0:0:
111,215,58443,1,0,0:0:0:0:
170,311,58777,5,8,0:0:0:0:
342,72,58943,1,8,0:0:0:0:
232,47,59277,5,0,0:0:0:0:
279,336,59443,1,0,0:0:0:0:
375,278,59777,5,0,0:0:0:0:
137,106,59943,1,8,0:0:0:0:
401,169,60110,1,8,0:0:0:0:
112,216,60277,1,8,0:0:0:0:
256,192,60443,6,0,P|279:148|275:99,1,100,4|8,0:0|0:0,0:0:0:0:
112,216,60777,2,0,P|108:265|131:308,1,100,0|8,0:0|0:0,0:0:0:0:
276,352,61110,1,0,0:0:0:0:
276,352,61193,1,0,0:0:0:0:
276,352,61277,1,8,0:0:0:0:
364,232,61443,1,0,0:0:0:0:
256,128,61610,1,8,0:0:0:0:
140,220,61777,1,0,0:0:0:0:
284,264,61943,1,8,0:0:0:0:
344,124,62110,6,0,P|336:75|298:44,1,100,0|8,0:0|0:0,0:0:0:0:
160,104,62443,1,0,0:0:0:0:
160,104,62527,1,0,0:0:0:0:
160,104,62610,1,8,0:0:0:0:
352,280,62777,1,0,0:0:0:0:
256,192,62943,2,0,P|206:188|163:212,1,100,8|0,0:0|0:0,0:0:0:0:
188,360,63277,5,8,0:0:0:0:
296,256,63443,1,0,0:0:0:0:
188,152,63610,1,8,0:0:0:0:
296,48,63777,1,0,0:0:0:0:
296,48,63860,1,0,0:0:0:0:
296,48,63943,1,8,0:0:0:0:
344,192,64110,1,0,0:0:0:0:
196,224,64277,2,0,P|153:252|140:298,1,100,8|0,0:0|0:0,0:0:0:0:
292,288,64610,6,0,L|388:260,1,100,12|0,0:0|0:0,0:0:0:0:
420,112,64943,1,0,0:0:0:0:
292,288,65110,2,0,L|372:228,1,100,0|8,0:0|0:0,0:0:0:0:
352,78,65443,1,0,0:0:0:0:
256,192,65610,1,8,0:0:0:0:
160,78,65777,6,0,P|120:104|104:152,1,100,4|8,0:0|0:0,0:0:0:0:
80,300,66110,2,0,P|40:274|24:226,1,100,0|8,0:0|0:0,0:0:0:0:
172,192,66443,1,0,0:0:0:0:
208,228,66527,1,0,0:0:0:0:
244,264,66610,2,0,P|296:264|336:240,1,100,8|0,0:0|0:0,0:0:0:0:
256,112,66943,1,8,0:0:0:0:
140,264,67110,1,0,0:0:0:0:
276,196,67277,1,8,0:0:0:0:
180,80,67443,6,0,L|80:56,1,100,0|8,0:0|0:0,0:0:0:0:
20,192,67777,1,0,0:0:0:0:
20,192,67860,1,0,0:0:0:0:
20,192,67943,1,8,0:0:0:0:
82,327,68110,1,0,0:0:0:0:
148,192,68277,1,8,0:0:0:0:
256,292,68443,1,0,0:0:0:0:
364,192,68610,1,8,0:0:0:0:
429,327,68777,6,0,P|379:327|342:297,1,100,0|8,0:0|0:0,0:0:0:0:
256,172,69110,1,0,0:0:0:0:
256,124,69193,1,0,0:0:0:0:
256,76,69277,2,0,P|210:57|163:72,1,100,8|0,0:0|0:0,0:0:0:0:
72,192,69610,1,8,0:0:0:0:
163,311,69777,1,0,0:0:0:0:
256,76,69943,6,0,P|295:46|343:48,1,100,12|0,0:0|0:0,0:0:0:0:
376,312,70277,1,0,0:0:0:0:
256,192,70443,2,0,P|216:162|168:164,1,100,8|8,0:0|0:0,0:0:0:0:
136,312,70777,1,0,0:0:0:0:
256,224,70943,5,8,0:0:0:0:
256,192,71027,1,0,0:0:0:0:
256,160,71110,2,0,P|304:104|376:100,1,150.000005722046,4|0,0:0|0:0,0:0:0:0:
436,240,71777,1,8,0:0:0:0:
320,336,72110,1,0,0:0:0:0:
320,336,72277,2,0,P|256:303|192:336,2,150.000005722046,12|0|0,0:0|0:0|0:0,0:0:0:0:
396,348,73110,2,0,L|436:284,1,75.0000028610231,8|0,0:0|0:0,0:0:0:0:
276,224,73443,2,0,L|236:160,1,75.0000028610231,0|8,0:0|0:0,0:0:0:0:
108,117,73777,6,0,L|108:267,1,150.000005722046,4|0,0:0|0:0,0:0:0:0:
256,300,74443,1,8,0:0:0:0:
360,192,74777,1,0,0:0:0:0:
360,192,74943,2,0,P|366:120|310:76,2,150.000005722046,12|0|0,0:0|0:0|0:0,0:0:0:0:
284,192,75777,2,0,L|224:148,1,75.0000028610231,8|0,0:0|0:0,0:0:0:0:
256,300,76110,2,0,L|316:344,1,75.0000028610231,8|0,0:0|0:0,0:0:0:0:
448,264,76443,6,0,B|468:192|468:192|448:120,1,150.000005722046,4|0,0:0|0:0,0:0:0:0:
316,48,77110,1,8,0:0:0:0:
204,148,77443,1,0,0:0:0:0:
204,148,77610,2,0,P|168:148|136:128,1,75.0000028610231,12|0,0:0|0:0,0:0:0:0:
68,200,77943,2,0,P|116:260|184:260,1,150.000005722046
256,192,78443,2,0,L|296:128,1,75.0000028610231,8|0,0:0|0:0,0:0:0:0:
424,192,78777,2,0,L|464:256,1,75.0000028610231
324,348,79110,6,0,B|292:329|292:329|256:340|256:340|220:329|220:329|188:348,1,150.000005722046,4|0,0:0|0:0,0:0:0:0:
84,240,79777,1,8,0:0:0:0:
188,132,80110,1,0,0:0:0:0:
188,132,80277,2,0,B|224:100|256:112|256:112|288:124|324:92,2,150.000005722046,12|0|0,0:0|0:0|0:0,0:0:0:0:
300,232,81110,2,0,L|360:276,1,75.0000028610231,8|0,0:0|0:0,0:0:0:0:
212,232,81443,2,0,L|152:276,1,75.0000028610231,8|0,0:0|0:0,0:0:0:0:
256,304,81777,6,0,L|256:152,1,150.000005722046,4|0,0:0|0:0,0:0:0:0:
256,56,82277,1,0,0:0:0:0:
160,40,82443,2,0,P|135:67|131:103,2,75.0000028610231,8|0|0,0:0|0:0|0:0,0:0:0:0:
352,40,82943,2,0,P|379:104|327:152,2,150.000005722046,12|0|0,0:0|0:0|0:0,0:0:0:0:
256,100,83777,2,0,L|196:144,1,75.0000028610231,8|0,0:0|0:0,0:0:0:0:
256,284,84110,2,0,L|316:240,1,75.0000028610231
380,168,84443,6,0,P|416:230|392:299,1,150.000005722046,4|0,0:0|0:0,0:0:0:0:
296,318,84943,1,0,0:0:0:0:
256,229,85110,2,0,L|256:153,1,75.0000028610231,8|0,0:0|0:0,0:0:0:0:
216,66,85443,1,0,0:0:0:0:
119,84,85610,2,0,P|95:153|131:215,2,150.000005722046,12|0|0,0:0|0:0|0:0,0:0:0:0:
216,66,86443,2,0,L|288:86,1,75.0000028610231,8|0,0:0|0:0,0:0:0:0:
296,318,86777,2,0,L|224:298,1,75.0000028610231,8|0,0:0|0:0,0:0:0:0:
202,138,87110,6,0,L|309:245,1,150.000005722046,4|0,0:0|0:0,0:0:0:0:
408,192,87610,1,0,0:0:0:0:
309,139,87777,1,8,0:0:0:0:
203,245,87943,1,0,0:0:0:0:
104,192,88110,2,0,L|136:124,1,75.0000028610231,0|12,0:0|0:0,0:0:0:0:
256,42,88443,6,0,L|256:192,1,150.000005722046
320,284,88943,1,0,0:0:0:0:
416,224,89110,2,0,P|438:195|440:158,2,75.0000028610231,8|0|0,0:0|0:0|0:0,0:0:0:0:
320,284,89610,2,0,B|280:280|256:249|256:249|232:280|192:284,2,150.000005722046,12|0|0,0:0|0:0|0:0,0:0:0:0:
316,160,90443,2,0,P|256:122|196:160,1,150.000005722046,8|0,0:0|0:0,0:0:0:0:
256,256,90943,1,0,0:0:0:0:
364,224,91110,5,8,0:0:0:0:
384,192,91193,1,0,0:0:0:0:
404,160,91277,1,0,0:0:0:0:
424,128,91360,1,0,0:0:0:0:
444,96,91443,2,0,L|428:60,3,37.5000014305115
400,36,91777,1,0,0:0:0:0:
364,40,91860,1,0,0:0:0:0:
328,44,91943,1,0,0:0:0:0:
292,48,92027,1,0,0:0:0:0:
256,52,92110,2,0,L|256:92,3,37.5000014305115,0|8|8|8,0:0|0:0|0:0|0:0,0:0:0:0:
256,140,92443,6,0,P|229:178|180:192,1,100,4|8,0:0|0:0,0:0:0:0:
76,80,92777,2,0,P|121:72|166:96,1,100,0|8,0:0|0:0,0:0:0:0:
120,240,93110,1,0,0:0:0:0:
256,140,93277,1,8,0:0:0:0:
392,240,93443,2,0,L|344:328,1,100,0|8,0:0|0:0,0:0:0:0:
168,328,93777,6,0,L|120:240,1,100,4|8,0:0|0:0,0:0:0:0:
192,108,94110,1,0,0:0:0:0:
256,244,94277,1,8,0:0:0:0:
320,108,94443,2,0,L|408:60,1,100,0|8,0:0|0:0,0:0:0:0:
192,108,94777,2,0,L|104:60,1,100,0|8,0:0|0:0,0:0:0:0:
52,200,95110,5,4,0:0:0:0:
180,276,95277,1,8,0:0:0:0:
256,142,95443,2,0,L|256:42,1,100,0|8,0:0|0:0,0:0:0:0:
256,242,95777,2,0,L|256:342,1,100,0|8,0:0|0:0,0:0:0:0:
404,320,96110,1,0,0:0:0:0:
328,192,96277,1,8,0:0:0:0:
404,64,96443,6,0,P|440:100|448:148,1,100,4|8,0:0|0:0,0:0:0:0:
256,242,96777,2,0,L|256:142,1,100,0|8,0:0|0:0,0:0:0:0:
108,64,97110,2,0,P|72:100|64:148,1,100,0|8,0:0|0:0,0:0:0:0:
160,264,97443,1,8,0:0:0:0:
352,120,97610,1,8,0:0:0:0:
226,106,97777,6,0,P|224:154|256:192,1,100,4|8,0:0|0:0,0:0:0:0:
283,278,98110,2,0,P|287:229|256:192,1,100,0|8,0:0|0:0,0:0:0:0:
152,288,98443,1,0,0:0:0:0:
360,288,98610,1,8,0:0:0:0:
152,96,98777,1,0,0:0:0:0:
360,96,98943,1,8,0:0:0:0:
256,192,99110,6,0,L|157:221,1,100,4|8,0:0|0:0,0:0:0:0:
256,192,99443,2,0,L|352:220,1,100,0|8,0:0|0:0,0:0:0:0:
236,316,99777,1,0,0:0:0:0:
158,112,99943,1,8,0:0:0:0:
373,147,100110,1,0,0:0:0:0:
256,192,100277,1,8,0:0:0:0:
276,67,100443,6,0,P|316:36|364:36,1,100,4|8,0:0|0:0,0:0:0:0:
137,236,100777,2,0,P|90:218|66:176,1,100,0|8,0:0|0:0,0:0:0:0:
354,272,101110,2,0,P|361:321|337:363,1,100,0|8,0:0|0:0,0:0:0:0:
192,328,101443,1,0,0:0:0:0:
256,192,101610,1,0,0:0:0:0:
320,56,101777,2,0,L|412:96,1,100,4|8,0:0|0:0,0:0:0:0:
192,328,102110,2,0,L|100:288,1,100,0|8,0:0|0:0,0:0:0:0:
36,152,102443,5,8,0:0:0:0:
256,192,102693,5,8,0:0:0:0:
476,232,102943,5,8,0:0:0:0:
256,192,103110,6,0,P|236:144|248:100,1,100,4|8,0:0|0:0,0:0:0:0:
384,36,103443,2,0,L|424:68,1,50
416,144,103610,2,0,L|316:140,1,100,8|0,0:0|0:0,0:0:0:0:
204,36,103943,1,8,0:0:0:0:
112,156,104110,6,0,L|128:204,1,50
204,216,104277,2,0,L|239:122,1,100,8|0,0:0|0:0,0:0:0:0:
372,192,104610,2,0,L|336:285,1,100,8|0,0:0|0:0,0:0:0:0:
264,308,104860,2,0,L|216:288,1,50,0|8,0:0|0:0,0:0:0:0:
104,192,105110,6,0,L|72:152,2,50,0|0|8,0:0|0:0|0:0,0:0:0:0:
256,40,105443,1,0,0:0:0:0:
408,192,105610,1,8,0:0:0:0:
256,192,105777,6,0,L|300:100,1,100,4|8,0:0|0:0,0:0:0:0:
444,64,106110,1,0,0:0:0:0:
444,64,106193,1,0,0:0:0:0:
444,64,106277,2,0,L|488:156,1,100,8|0,0:0|0:0,0:0:0:0:
468,304,106610,1,8,0:0:0:0:
324,264,106777,5,0,0:0:0:0:
324,264,106860,1,0,0:0:0:0:
324,264,106943,1,8,0:0:0:0:
256,132,107110,2,0,L|316:52,1,100,0|8,0:0|0:0,0:0:0:0:
400,176,107443,1,0,0:0:0:0:
400,176,107527,1,0,0:0:0:0:
400,176,107610,1,8,0:0:0:0:
256,224,107777,5,0,0:0:0:0:
112,176,107943,1,8,0:0:0:0:
256,224,108110,1,0,0:0:0:0:
400,176,108277,1,8,0:0:0:0:
256,224,108443,6,0,P|219:195|208:144,1,100,4|8,0:0|0:0,0:0:0:0:
300,24,108777,2,0,L|344:48,1,50
396,100,108943,2,0,L|304:144,1,100,8|0,0:0|0:0,0:0:0:0:
184,52,109277,1,8,0:0:0:0:
92,172,109443,6,0,L|76:220,1,50
116,284,109610,2,0,L|208:240,1,100,8|0,0:0|0:0,0:0:0:0:
244,96,109943,1,8,0:0:0:0:
268,288,110110,6,0,L|304:324,2,50,0|0|8,0:0|0:0|0:0,0:0:0:0:
244,96,110443,6,0,L|208:60,2,50,0|0|8,0:0|0:0|0:0,0:0:0:0:
392,56,110777,1,0,0:0:0:0:
256,192,110943,1,8,0:0:0:0:
120,56,111110,6,0,P|72:76|48:116,1,100,4|8,0:0|0:0,0:0:0:0:
148,228,111443,1,0,0:0:0:0:
148,228,111527,1,0,0:0:0:0:
148,228,111610,1,8,0:0:0:0:
256,112,111777,1,0,0:0:0:0:
364,228,111943,1,8,0:0:0:0:
256,112,112110,5,0,0:0:0:0:
256,112,112193,1,0,0:0:0:0:
256,112,112277,1,8,0:0:0:0:
256,272,112443,2,0,L|256:372,1,100,0|8,0:0|0:0,0:0:0:0:
364,228,112777,1,0,0:0:0:0:
364,228,112860,1,0,0:0:0:0:
364,228,112943,1,8,0:0:0:0:
148,228,113110,1,8,0:0:0:0:
460,48,113443,1,8,0:0:0:0:
52,48,113777,5,12,0:0:0:0:
152,128,113943,1,0,0:0:0:0:
256,48,114110,1,0,0:0:0:0:
360,128,114277,1,8,0:0:0:0:
460,48,114443,1,0,0:0:0:0:
360,128,114610,1,0,0:0:0:0:
256,48,114777,2,0,P|228:92|236:136,1,100,8|0,0:0|0:0,0:0:0:0:
256,336,115110,2,0,P|284:292|276:248,1,100,0|8,0:0|0:0,0:0:0:0:
44,124,115610,1,0,0:0:0:0:
44,260,115777,1,8,0:0:0:0:
256,192,116110,1,8,0:0:0:0:
468,124,116443,5,12,0:0:0:0:
360,232,116610,1,0,0:0:0:0:
256,124,116777,1,0,0:0:0:0:
360,232,116943,5,8,0:0:0:0:
256,124,117110,1,0,0:0:0:0:
152,232,117277,1,0,0:0:0:0:
256,124,117443,5,8,0:0:0:0:
152,232,117610,1,0,0:0:0:0:
44,124,117777,1,0,0:0:0:0:
152,232,117943,5,8,0:0:0:0:
256,124,118110,1,0,0:0:0:0:
360,232,118277,1,0,0:0:0:0:
256,340,118443,5,0,0:0:0:0:
220,333,118527,1,0,0:0:0:0:
187,331,118610,1,0,0:0:0:0:
154,328,118693,1,0,0:0:0:0:
121,325,118777,1,0,0:0:0:0:
99,299,118860,1,0,0:0:0:0:
79,273,118943,1,0,0:0:0:0:
57,248,119027,1,0,0:0:0:0:
60,212,119110,6,0,L|96:119,2,100,12|0|0,0:0|0:0|0:0,0:0:0:0:
452,212,119610,2,0,L|416:119,2,100,8|0|0,0:0|0:0|0:0,0:0:0:0:
332,328,120110,1,8,0:0:0:0:
180,56,120443,1,0,0:0:0:0:
256,192,120610,1,8,0:0:0:0:
168,312,120777,1,0,0:0:0:0:
344,72,120943,1,0,0:0:0:0:
408,208,121110,1,8,0:0:0:0:
104,176,121443,1,8,0:0:0:0:
256,192,121777,6,0,L|272:92,1,100,12|0,0:0|0:0,0:0:0:0:
132,40,122110,1,0,0:0:0:0:
256,192,122277,6,0,L|334:255,1,100,8|0,0:0|0:0,0:0:0:0:
449,160,122610,1,0,0:0:0:0:
256,192,122777,6,0,L|161:228,1,100,8|0,0:0|0:0,0:0:0:0:
186,375,123110,1,0,0:0:0:0:
328,324,123277,5,8,0:0:0:0:
105,188,123443,1,0,0:0:0:0:
334,63,123610,1,0,0:0:0:0:
256,192,123777,6,0,L|208:204,3,50,8|0|0|0,0:0|0:0|0:0|0:0,0:0:0:0:
184,172,124110,1,0,0:0:0:0:
160,140,124193,1,8,0:0:0:0:
136,108,124277,1,8,0:0:0:0:
112,76,124360,1,8,0:0:0:0:
88,44,124443,6,0,B|152:8|152:8|228:16,1,150,6|2,0:0|0:0,0:0:0:0:
256,192,124943,1,2,0:0:0:0:
284,368,125110,2,0,B|360:376|360:376|424:340,1,150,6|2,0:0|0:0,0:0:0:0:
356,124,125610,1,2,0:0:0:0:
156,260,125777,6,0,P|124:220|120:172,1,100,4|8,0:0|0:0,0:0:0:0:
256,104,126110,1,0,0:0:0:0:
256,104,126193,1,0,0:0:0:0:
256,104,126277,1,8,0:0:0:0:
256,280,126443,1,0,0:0:0:0:
188,148,126610,1,8,0:0:0:0:
324,236,126777,5,0,0:0:0:0:
324,236,126860,1,0,0:0:0:0:
324,236,126943,2,0,P|372:216|396:176,1,100,8|0,0:0|0:0,0:0:0:0:
316,48,127277,1,8,0:0:0:0:
188,148,127443,1,0,0:0:0:0:
188,148,127527,1,0,0:0:0:0:
188,148,127610,1,8,0:0:0:0:
256,284,127777,1,0,0:0:0:0:
304,140,127943,1,8,0:0:0:0:
184,232,128110,5,0,0:0:0:0:
184,232,128193,1,0,0:0:0:0:
184,232,128277,2,0,P|136:220|108:180,1,100,8|0,0:0|0:0,0:0:0:0:
180,48,128610,1,8,0:0:0:0:
332,48,128777,2,0,L|372:16,2,50,0|0|8,0:0|0:0|0:0,0:0:0:0:
256,192,129110,1,0,0:0:0:0:
332,336,129277,1,8,0:0:0:0:
180,336,129443,2,0,L|140:368,2,50,0|0|8,0:0|0:0|0:0,0:0:0:0:
321,144,129777,5,0,0:0:0:0:
281,115,129860,1,0,0:0:0:0:
231,115,129943,1,8,0:0:0:0:
190,144,130027,1,0,0:0:0:0:
175,192,130110,1,0,0:0:0:0:
190,239,130193,1,0,0:0:0:0:
231,268,130277,1,8,0:0:0:0:
281,268,130360,1,0,0:0:0:0:
321,239,130443,6,0,L|336:192,1,50
428,44,130610,2,0,L|413:91,1,50,8|0,0:0|0:0,0:0:0:0:
360,251,130777,2,0,L|357:201,1,50,8|0,0:0|0:0,0:0:0:0:
389,32,130943,2,0,L|391:81,1,50,8|0,0:0|0:0,0:0:0:0:
400,249,131110,6,0,L|361:156,1,100,4|8,0:0|0:0,0:0:0:0:
256,48,131443,1,0,0:0:0:0:
224,64,131527,1,0,0:0:0:0:
192,80,131610,1,8,0:0:0:0:
108,204,131777,1,0,0:0:0:0:
256,192,131943,1,8,0:0:0:0:
404,204,132110,1,0,0:0:0:0:
420,236,132193,1,0,0:0:0:0:
436,268,132277,1,8,0:0:0:0:
308,348,132443,6,0,P|260:332|236:292,1,100,0|8,0:0|0:0,0:0:0:0:
296,152,132777,1,0,0:0:0:0:
324,132,132860,1,0,0:0:0:0:
352,112,132943,2,0,P|400:96|448:108,1,100,8|0,0:0|0:0,0:0:0:0:
500,248,133277,1,8,0:0:0:0:
352,236,133443,1,0,0:0:0:0:
316,232,133527,1,0,0:0:0:0:
280,228,133610,2,0,P|237:207|217:161,1,100,8|0,0:0|0:0,0:0:0:0:
328,60,133943,5,8,0:0:0:0:
464,120,134110,2,0,L|476:168,2,50,0|0|8,0:0|0:0|0:0,0:0:0:0:
328,60,134443,1,0,0:0:0:0:
184,60,134610,1,8,0:0:0:0:
48,120,134777,2,0,L|36:168,2,50,0|0|8,0:0|0:0|0:0,0:0:0:0:
256,192,135110,5,0,0:0:0:0:
284,212,135193,1,0,0:0:0:0:
312,232,135277,1,8,0:0:0:0:
340,252,135360,1,0,0:0:0:0:
368,272,135443,1,0,0:0:0:0:
388,244,135527,1,0,0:0:0:0:
408,216,135610,1,8,0:0:0:0:
428,188,135693,1,0,0:0:0:0:
448,160,135777,6,0,L|436:112,1,50
456,276,135943,2,0,L|468:324,1,50,8|0,0:0|0:0,0:0:0:0:
468,162,136110,2,0,L|473:112,1,50
435,273,136277,2,0,L|430:323,1,50,8|0,0:0|0:0,0:0:0:0:
256,192,136443,5,8,0:0:0:0:
232,163,136527,1,8,0:0:0:0:
225,130,136610,1,8,0:0:0:0:
238,100,136693,1,8,0:0:0:0:
266,76,136777,1,4,0:0:0:0:
301,81,136860,1,0,0:0:0:0:
337,87,136943,1,0,0:0:0:0:
371,78,137027,1,0,0:0:0:0:
406,71,137110,1,4,0:0:0:0:
436,93,137193,1,8,0:0:0:0:
451,123,137277,1,8,0:0:0:0:
446,157,137360,1,8,0:0:0:0:
428,188,137443,1,0,0:0:0:0:
408,216,137527,1,0,0:0:0:0:
388,244,137610,1,8,0:0:0:0:
368,272,137693,1,0,0:0:0:0:
392,308,137777,6,0,L|484:268,1,100,4|8,0:0|0:0,0:0:0:0:
256,192,138110,2,0,L|164:232,1,100,0|8,0:0|0:0,0:0:0:0:
256,352,138443,1,0,0:0:0:0:
256,352,138527,1,0,0:0:0:0:
256,352,138610,2,0,P|303:331|328:292,1,100,8|0,0:0|0:0,0:0:0:0:
380,152,138943,1,8,0:0:0:0:
256,68,139110,1,0,0:0:0:0:
132,152,139277,5,8,0:0:0:0:
256,68,139443,1,0,0:0:0:0:
380,152,139610,1,8,0:0:0:0:
256,240,139777,1,0,0:0:0:0:
256,240,139860,1,0,0:0:0:0:
256,240,139943,2,0,P|216:212|207:164,1,100,8|0,0:0|0:0,0:0:0:0:
336,84,140277,1,8,0:0:0:0:
440,192,140443,1,0,0:0:0:0:
336,300,140610,5,8,0:0:0:0:
176,84,140777,2,0,P|134:110|119:156,1,100,0|8,0:0|0:0,0:0:0:0:
176,300,141110,1,0,0:0:0:0:
176,300,141193,1,0,0:0:0:0:
176,300,141277,2,0,L|256:240,1,100,8|0,0:0|0:0,0:0:0:0:
336,84,141610,2,0,L|256:144,1,100,8|0,0:0|0:0,0:0:0:0:
380,276,141943,6,0,B|404:232|404:232|396:182,2,100,12|0|0,0:0|0:0|0:0,0:0:0:0:
132,108,142443,2,0,B|108:152|108:152|115:201,2,100,0|8|0,0:0|0:0|0:0,0:0:0:0:
256,192,142943,1,8,0:0:0:0:
196,328,143110,6,0,L|104:288,1,100,4|8,0:0|0:0,0:0:0:0:
316,328,143443,2,0,L|408:288,1,100,0|8,0:0|0:0,0:0:0:0:
468,148,143777,1,0,0:0:0:0:
444,116,143860,1,0,0:0:0:0:
420,84,143943,2,0,L|328:124,1,100,8|0,0:0|0:0,0:0:0:0:
92,84,144277,2,0,L|184:124,1,100,8|0,0:0|0:0,0:0:0:0:
256,256,144610,5,8,0:0:0:0:
256,256,144693,1,0,0:0:0:0:
256,256,144777,2,0,P|224:296|180:312,1,100,0|8,0:0|0:0,0:0:0:0:
88,192,145110,1,0,0:0:0:0:
108,156,145193,1,0,0:0:0:0:
128,120,145277,1,8,0:0:0:0:
256,40,145443,2,0,L|348:80,1,100,0|8,0:0|0:0,0:0:0:0:
348,232,145777,6,0,L|256:192,1,100,0|8,0:0|0:0,0:0:0:0:
164,304,146110,1,0,0:0:0:0:
348,80,146277,1,8,0:0:0:0:
428,208,146443,1,0,0:0:0:0:
408,244,146527,1,0,0:0:0:0:
388,280,146610,1,8,0:0:0:0:
256,348,146777,1,0,0:0:0:0:
132,192,146943,1,8,0:0:0:0:
256,36,147110,1,0,0:0:0:0:
132,192,147277,6,0,B|94:156|94:156|88:108,2,100,12|0|0,0:0|0:0|0:0,0:0:0:0:
380,192,147777,2,0,B|417:227|417:227|424:276,2,100,0|8|0,0:0|0:0|0:0,0:0:0:0:
256,192,148277,5,0,0:0:0:0:
256,232,148360,1,0,0:0:0:0:
256,272,148443,2,0,P|184:296|124:260,1,150.000005722046,4|0,0:0|0:0,0:0:0:0:
72,160,148943,1,0,0:0:0:0:
160,88,149110,2,0,L|236:80,1,75.0000028610231,8|0,0:0|0:0,0:0:0:0:
256,192,149443,1,0,0:0:0:0:
277,303,149610,2,0,B|352:296|352:296|408:244,2,150.000005722046,12|0|0,0:0|0:0|0:0,0:0:0:0:
196,228,150443,2,0,P|184:192|192:156,1,75.0000028610231,8|0,0:0|0:0,0:0:0:0:
316,156,150777,2,0,P|328:192|320:228,1,75.0000028610231
168,260,151110,6,0,P|140:191|163:122,1,150.000005722046,4|0,0:0|0:0,0:0:0:0:
280,84,151610,1,0,0:0:0:0:
380,152,151777,2,0,L|387:226,1,75.0000028610231,8|0,0:0|0:0,0:0:0:0:
256,192,152110,1,0,0:0:0:0:
132,152,152277,2,0,B|124:227|124:227|168:285,2,150.000005722046,12|0|0,0:0|0:0|0:0,0:0:0:0:
216,68,153110,2,0,L|288:48,1,75.0000028610231,8|0,0:0|0:0,0:0:0:0:
328,160,153443,2,0,L|256:140,1,75.0000028610231,8|0,0:0|0:0,0:0:0:0:
296,252,153777,6,0,B|368:232|368:232|416:172,1,150.000005722046,4|0,0:0|0:0,0:0:0:0:
372,68,154277,1,0,0:0:0:0:
264,36,154443,2,0,L|228:104,1,75.0000028610231,8|0,0:0|0:0,0:0:0:0:
156,192,154777,2,0,L|120:124,1,75.0000028610231,0|12,0:0|0:0,0:0:0:0:
28,192,155110,1,0,0:0:0:0:
104,276,155277,2,0,P|174:293|234:253,1,150.000005722046
272,148,155777,2,0,L|292:76,1,75.0000028610231,8|0,0:0|0:0,0:0:0:0:
404,92,156110,2,0,L|424:164,1,75.0000028610231
408,276,156443,6,0,P|337:293|277:253,1,150.000005722046,4|0,0:0|0:0,0:0:0:0:
220,156,156943,1,0,0:0:0:0:
112,192,157110,2,0,P|91:222|86:259,1,75.0000028610231,8|0,0:0|0:0,0:0:0:0:
152,352,157443,1,0,0:0:0:0:
256,308,157610,2,0,B|276:260|256:236|256:236|235:213|256:166,2,150.000005722046,12|0|0,0:0|0:0|0:0,0:0:0:0:
152,352,158443,2,0,L|80:328,1,75.0000028610231,8|0,0:0|0:0,0:0:0:0:
360,352,158777,2,0,L|432:328,1,75.0000028610231,8|0,0:0|0:0,0:0:0:0:
328,248,159110,6,0,B|256:268|256:268|184:248,1,150.000005722046,4|0,0:0|0:0,0:0:0:0:
112,160,159610,1,0,0:0:0:0:
164,60,159777,1,8,0:0:0:0:
256,124,159943,1,0,0:0:0:0:
348,60,160110,1,0,0:0:0:0:
400,160,160277,2,0,B|417:204|417:204|390:252|390:252|408:296,2,150.000005722046,12|0|0,0:0|0:0|0:0,0:0:0:0:
348,60,161110,1,8,0:0:0:0:
256,124,161277,1,0,0:0:0:0:
164,60,161443,1,8,0:0:0:0:
112,160,161610,1,0,0:0:0:0:
184,248,161777,6,0,B|256:268|256:268|328:248,1,150.000005722046,4|0,0:0|0:0,0:0:0:0:
400,160,162277,1,0,0:0:0:0:
310,93,162443,1,8,0:0:0:0:
256,192,162610,1,0,0:0:0:0:
202,291,162777,1,0,0:0:0:0:
112,224,162943,2,0,B|95:180|95:180|122:132|122:132|104:88,2,150.000005722046,12|0|0,0:0|0:0|0:0,0:0:0:0:
202,291,163777,2,0,L|274:315,1,75.0000028610231,8|0,0:0|0:0,0:0:0:0:
310,93,164110,2,0,L|238:69,1,75.0000028610231,8|0,0:0|0:0,0:0:0:0:
256,192,164443,6,0,B|328:212|328:212|396:180,1,150.000005722046,4|0,0:0|0:0,0:0:0:0:
456,276,164943,1,0,0:0:0:0:
364,340,165110,1,8,0:0:0:0:
256,304,165277,1,0,0:0:0:0:
148,340,165443,1,0,0:0:0:0:
56,276,165610,1,12,0:0:0:0:
116,180,165777,6,0,B|184:212|184:212|256:192,1,150.000005722046
316,96,166277,2,0,L|256:52,1,75.0000028610231,0|8,0:0|0:0,0:0:0:0:
144,52,166610,2,0,L|84:96,1,75.0000028610231
76,208,166943,5,12,0:0:0:0:
256,344,167277,1,0,0:0:0:0:
436,208,167610,1,0,0:0:0:0:
352,136,167777,1,8,0:0:0:0:
256,192,167943,1,0,0:0:0:0:
256,192,168443,5,0,0:0:0:0:
232,164,168527,1,0,0:0:0:0:
208,136,168610,1,0,0:0:0:0:
172,136,168693,1,8,0:0:0:0:
148,164,168777,1,0,0:0:0:0:
124,192,168860,1,0,0:0:0:0:
100,220,168943,1,0,0:0:0:0:
64,220,169027,1,8,0:0:0:0:
40,192,169110,1,0,0:0:0:0:
256,48,169443,5,8,0:0:0:0:
256,84,169527,1,8,0:0:0:0:
256,120,169610,1,8,0:0:0:0:
256,156,169693,1,8,0:0:0:0:
256,192,169777,2,0,P|304:212|352:208,1,100,4|8,0:0|0:0,0:0:0:0:
380,60,170110,1,0,0:0:0:0:
380,60,170193,1,0,0:0:0:0:
380,60,170277,1,8,0:0:0:0:
256,192,170443,2,0,P|208:212|160:208,1,100,0|8,0:0|0:0,0:0:0:0:
132,60,170777,1,0,0:0:0:0:
132,60,170860,1,0,0:0:0:0:
132,60,170943,1,8,0:0:0:0:
276,104,171110,5,4,0:0:0:0:
322,253,171277,1,8,0:0:0:0:
169,218,171443,1,0,0:0:0:0:
169,218,171527,1,0,0:0:0:0:
169,218,171610,2,0,L|192:120,1,100,8|0,0:0|0:0,0:0:0:0:
328,60,171943,1,8,0:0:0:0:
380,200,172110,1,0,0:0:0:0:
380,200,172193,1,0,0:0:0:0:
380,200,172277,1,8,0:0:0:0:
256,284,172443,5,4,0:0:0:0:
132,200,172610,1,8,0:0:0:0:
256,284,172777,1,0,0:0:0:0:
256,284,172860,1,0,0:0:0:0:
256,284,172943,1,8,0:0:0:0:
328,152,173110,2,0,P|327:102|296:64,1,100,0|8,0:0|0:0,0:0:0:0:
148,64,173443,1,0,0:0:0:0:
148,64,173527,1,0,0:0:0:0:
148,64,173610,1,8,0:0:0:0:
68,192,173777,5,4,0:0:0:0:
148,320,173943,1,8,0:0:0:0:
68,192,174110,1,0,0:0:0:0:
68,192,174193,1,0,0:0:0:0:
68,192,174277,1,8,0:0:0:0:
196,116,174443,2,0,L|288:76,1,100,0|8,0:0|0:0,0:0:0:0:
288,308,174777,2,0,L|196:268,1,100,8|8,0:0|0:0,0:0:0:0:
324,192,175110,6,0,L|424:192,1,100,4|8,0:0|0:0,0:0:0:0:
444,340,175443,1,0,0:0:0:0:
404,352,175527,1,0,0:0:0:0:
364,364,175610,1,8,0:0:0:0:
248,268,175777,1,0,0:0:0:0:
264,116,175943,1,8,0:0:0:0:
148,20,176110,1,0,0:0:0:0:
108,32,176193,1,0,0:0:0:0:
68,44,176277,1,8,0:0:0:0:
140,176,176443,5,4,0:0:0:0:
372,208,176610,1,8,0:0:0:0:
256,192,176777,1,0,0:0:0:0:
256,192,176860,1,0,0:0:0:0:
256,192,176943,1,8,0:0:0:0:
216,48,177110,1,0,0:0:0:0:
296,336,177277,1,8,0:0:0:0:
256,192,177443,1,0,0:0:0:0:
256,192,177527,1,0,0:0:0:0:
256,192,177610,1,8,0:0:0:0:
348,72,177777,6,0,P|396:92|420:132,1,100,4|8,0:0|0:0,0:0:0:0:
328,252,178110,1,0,0:0:0:0:
292,268,178193,1,0,0:0:0:0:
256,284,178277,1,8,0:0:0:0:
164,72,178443,2,0,P|116:92|92:132,1,100,0|8,0:0|0:0,0:0:0:0:
184,252,178777,1,0,0:0:0:0:
220,268,178860,1,0,0:0:0:0:
256,284,178943,1,8,0:0:0:0:
256,132,179110,6,0,L|256:32,1,100,4|8,0:0|0:0,0:0:0:0:
256,284,179443,6,0,L|256:336,2,50,0|0|8,0:0|0:0|0:0,0:0:0:0:
426,211,179777,5,8,0:0:0:0:
188,34,180027,5,8,0:0:0:0:
153,329,180277,5,8,0:0:0:0:
256,192,180443,6,0,P|220:164|168:164,1,100,4|8,0:0|0:0,0:0:0:0:
30,225,180777,1,0,0:0:0:0:
45,261,180860,1,0,0:0:0:0:
59,298,180943,2,0,L|153:329,1,100,8|0,0:0|0:0,0:0:0:0:
256,192,181277,1,8,0:0:0:0:
256,44,181443,5,0,0:0:0:0:
256,44,181527,1,0,0:0:0:0:
256,44,181610,1,8,0:0:0:0:
128,124,181777,1,0,0:0:0:0:
256,44,181943,1,8,0:0:0:0:
384,124,182110,1,0,0:0:0:0:
400,160,182193,1,0,0:0:0:0:
416,196,182277,1,8,0:0:0:0:
288,264,182443,5,0,0:0:0:0:
272,228,182527,1,0,0:0:0:0:
256,192,182610,1,8,0:0:0:0:
128,260,182777,1,8,0:0:0:0:
384,260,182943,1,8,0:0:0:0:
256,40,183110,6,0,L|172:96,1,100,4|8,0:0|0:0,0:0:0:0:
56,192,183443,1,0,0:0:0:0:
56,232,183527,1,0,0:0:0:0:
56,272,183610,2,0,L|136:332,1,100,8|0,0:0|0:0,0:0:0:0:
256,240,183943,1,8,0:0:0:0:
456,192,184110,5,0,0:0:0:0:
456,232,184193,1,0,0:0:0:0:
456,272,184277,2,0,L|376:332,1,100,8|0,0:0|0:0,0:0:0:0:
256,240,184610,1,8,0:0:0:0:
256,88,184777,1,0,0:0:0:0:
256,88,184860,1,0,0:0:0:0:
256,88,184943,1,8,0:0:0:0:
404,64,185110,5,0,0:0:0:0:
352,204,185277,1,8,0:0:0:0:
256,88,185443,1,0,0:0:0:0:
160,204,185610,1,8,0:0:0:0:
108,64,185777,6,0,L|200:24,1,100,4|8,0:0|0:0,0:0:0:0:
256,164,186110,1,0,0:0:0:0:
256,204,186193,1,0,0:0:0:0:
256,244,186277,2,0,L|348:284,1,100,8|0,0:0|0:0,0:0:0:0:
468,192,186610,1,8,0:0:0:0:
392,64,186777,5,0,0:0:0:0:
356,80,186860,1,0,0:0:0:0:
320,96,186943,1,8,0:0:0:0:
188,164,187110,1,0,0:0:0:0:
324,220,187277,1,8,0:0:0:0:
240,96,187443,2,0,L|208:56,2,50,0|0|8,0:0|0:0|0:0,0:0:0:0:
272,288,187777,2,0,L|304:328,2,50,0|0|8,0:0|0:0|0:0,0:0:0:0:
164,184,188110,2,0,L|76:136,1,100,0|8,0:0|0:0,0:0:0:0:
348,184,188443,6,0,L|436:136,1,100,4|8,0:0|0:0,0:0:0:0:
324,36,188777,2,0,L|292:76,1,50
244,132,188943,2,0,L|144:116,1,100,8|0,0:0|0:0,0:0:0:0:
145,267,189277,2,0,L|244:252,1,100,8|0,0:0|0:0,0:0:0:0:
292,308,189527,2,0,L|324:348,1,50,0|8,0:0|0:0,0:0:0:0:
404,220,189777,1,0,0:0:0:0:
256,192,189943,1,8,0:0:0:0:
108,164,190110,1,0,0:0:0:0:
108,164,190193,1,0,0:0:0:0:
108,164,190277,1,8,0:0:0:0:
184,36,190443,1,8,0:0:0:0:
328,348,190777,1,8,0:0:0:0:
156,104,191110,5,12,0:0:0:0:
356,104,191277,1,0,0:0:0:0:
156,104,191443,1,0,0:0:0:0:
356,104,191610,1,8,0:0:0:0:
156,104,191777,1,0,0:0:0:0:
356,104,191943,1,0,0:0:0:0:
156,104,192110,2,0,P|136:152|144:200,1,100,8|0,0:0|0:0,0:0:0:0:
356,104,192443,2,0,P|376:152|368:200,1,100,0|8,0:0|0:0,0:0:0:0:
120,364,192943,1,0,0:0:0:0:
40,236,193110,1,8,0:0:0:0:
256,28,193443,1,8,0:0:0:0:
472,236,193777,5,12,0:0:0:0:
392,364,193943,1,0,0:0:0:0:
472,236,194110,1,0,0:0:0:0:
320,244,194277,5,8,0:0:0:0:
358,101,194443,1,0,0:0:0:0:
320,244,194610,1,0,0:0:0:0:
192,140,194777,5,8,0:0:0:0:
154,283,194943,1,0,0:0:0:0:
192,140,195110,1,0,0:0:0:0:
40,148,195277,5,8,0:0:0:0:
120,20,195443,1,0,0:0:0:0:
40,148,195610,1,0,0:0:0:0:
256,192,195777,5,0,0:0:0:0:
295,194,195860,1,0,0:0:0:0:
331,177,195943,1,0,0:0:0:0:
357,146,196027,1,0,0:0:0:0:
369,107,196110,1,0,0:0:0:0:
357,70,196193,1,0,0:0:0:0:
332,39,196277,1,0,0:0:0:0:
295,25,196360,1,0,0:0:0:0:
257,23,196443,6,0,L|168:68,2,100,12|0|0,0:0|0:0|0:0,0:0:0:0:
256,192,196943,2,0,L|167:237,2,100,8|0|0,0:0|0:0|0:0,0:0:0:0:
468,192,197443,1,8,0:0:0:0:
132,312,197777,1,0,0:0:0:0:
44,192,197943,1,8,0:0:0:0:
132,72,198110,1,0,0:0:0:0:
256,192,198277,1,0,0:0:0:0:
380,312,198443,1,8,0:0:0:0:
380,72,198777,1,8,0:0:0:0:
132,312,199110,6,0,L|108:212,1,100,12|0,0:0|0:0,0:0:0:0:
256,192,199443,1,0,0:0:0:0:
421,239,199610,6,0,L|347:310,1,100,8|0,0:0|0:0,0:0:0:0:
256,192,199943,1,0,0:0:0:0:
214,24,200110,6,0,L|312:53,1,100,8|0,0:0|0:0,0:0:0:0:
256,192,200443,1,0,0:0:0:0:
128,112,200610,5,8,0:0:0:0:
389,121,200777,1,0,0:0:0:0:
250,342,200943,1,0,0:0:0:0:
244,182,201110,5,8,0:0:0:0:
253,177,201193,1,8,0:0:0:0:
263,179,201277,1,0,0:0:0:0:
269,187,201360,1,0,0:0:0:0:
269,197,201443,1,0,0:0:0:0:
263,204,201527,1,8,0:0:0:0:
253,206,201610,1,0,0:0:0:0:
244,201,201693,1,8,0:0:0:0:
241,191,201777,6,0,P|192:137|122:151,1,150,6|0,0:0|0:0,0:0:0:0:
196,364,202277,1,2,0:0:0:0:
270,191,202443,2,0,P|319:137|389:151,1,150,6|2,0:0|0:0,0:0:0:0:
316,364,202943,1,2,0:0:0:0:
256,192,203110,12,4,204443,0:0:0:0:
44,56,212110,5,8,0:0:0:0:
44,56,212277,1,8,0:0:0:0:
44,56,212443,2,0,L|120:36,1,75.0000028610231
220,84,212776,1,0,2:1:0:0:
292,300,213109,1,8,2:1:0:0:
68,284,213443,6,0,L|72:208,1,75.0000028610231
156,132,213776,1,0,2:0:0:0:
356,252,214109,1,8,2:1:0:0:
428,40,214443,6,0,L|352:56,1,75.0000028610231
244,76,214776,1,0,2:0:0:0:
268,308,215109,1,8,2:1:0:0:
476,224,215443,6,0,L|420:172,1,75.0000028610231
336,100,215776,1,0,2:0:0:0:
176,284,216109,1,8,2:1:0:0:
20,120,216443,6,0,L|52:52,1,75.0000028610231
160,88,216776,1,0,2:0:0:0:
352,296,217109,1,8,2:1:0:0:
128,316,217443,6,0,L|80:256,1,75.0000028610231
92,144,217776,1,0,2:0:0:0:
420,240,218109,1,8,2:1:0:0:
328,36,218443,2,0,L|252:48,1,75.0000028610231
144,68,218776,1,0,2:0:0:0:
368,316,219109,1,8,2:1:0:0:
504,136,219443,6,0,L|476:64,1,75.0000028610231
364,68,219776,1,0,2:0:0:0:
148,316,220109,1,8,2:1:0:0:
20,132,220443,6,0,P|39:100|70:80,1,75.0000028610231
184,104,220776,1,0,2:0:0:0:
256,192,220943,1,0,2:0:0:0:
328,280,221109,1,8,2:1:0:0:
492,132,221443,6,0,P|472:100|441:80,1,75.0000028610231
328,104,221776,1,0,2:0:0:0:
184,280,222109,1,8,2:1:0:0:
388,376,222443,6,0,P|417:354|432:320,1,75.0000028610231
360,232,222776,1,0,2:0:0:0:
256,192,222943,1,0,2:0:0:0:
152,152,223109,1,8,2:1:0:0:
124,376,223443,6,0,P|94:354|79:320,1,75.0000028610231
256,192,223943,1,0,2:0:0:0:
360,152,224109,1,8,2:1:0:0:
172,32,224443,6,0,P|143:55|131:90,1,75.0000028610231
144,204,224776,1,0,2:0:0:0:
256,192,224943,1,0,2:0:0:0:
368,180,225109,1,8,2:1:0:0:
340,352,225443,6,0,P|368:328|380:293,1,75.0000028610231
368,180,225776,1,0,2:0:0:0:
144,204,226109,1,8,2:1:0:0:
296,40,226443,6,0,P|332:31|367:43,1,75.0000028610231
432,136,226776,1,0,2:0:0:0:
372,228,226942,1,0,2:0:0:0:
312,320,227109,1,8,2:1:0:0:
216,40,227442,6,0,P|179:31|144:43,1,75.0000028610231
80,136,227776,1,8,2:3:0:0:
200,320,228109,1,8,2:1:0:0:
164,320,232443,6,0,P|256:353|348:320,1,200,4|2,0:0|0:0,0:0:0:0:
256,32,233776,1,2,0:0:0:0:
128,112,234109,1,0,0:0:0:0:
256,192,234443,1,2,0:0:0:0:
384,112,234776,1,0,0:0:0:0:
128,112,235109,6,0,P|77:191|127:271,1,200,2|2,0:0|0:0,0:0:0:0:
384,112,236443,2,0,P|434:191|384:271,1,200,2|2,0:0|0:0,0:0:0:0:
256,192,237443,1,0,0:0:0:0:
156,80,237776,6,0,P|104:96|76:132,1,100,4|0,0:0|0:0,0:0:0:0:
152,260,238443,2,0,L|152:160,1,100,2|0,0:0|0:0,0:0:0:0:
256,52,239109,1,2,0:0:0:0:
360,160,239443,2,0,L|360:260,1,100,0|2,0:0|0:0,0:0:0:0:
435,130,240109,2,0,P|403:92|356:80,1,100,0|2,0:0|0:0,0:0:0:0:
256,192,240776,5,0,0:0:0:0:
168,312,241109,2,0,P|256:353|344:312,2,200,2|2|8,0:0|0:0|0:0,0:0:0:0:
44,124,242693,5,8,0:0:0:0:
240,12,242943,5,8,0:0:0:0:
256,192,243109,6,0,P|212:232|152:236,1,119.999996337891,4|8,0:0|0:0,0:0:0:0:
164,56,243443,1,0,0:0:0:0:
164,56,243526,1,0,0:0:0:0:
164,56,243609,1,8,0:0:0:0:
348,56,243776,2,0,P|400:84|424:140,1,119.999996337891,0|8,0:0|0:0,0:0:0:0:
304,272,244109,1,0,0:0:0:0:
304,272,244193,1,0,0:0:0:0:
304,272,244276,1,8,0:0:0:0:
208,112,244443,5,4,0:0:0:0:
372,188,244609,1,8,0:0:0:0:
224,288,244776,1,0,0:0:0:0:
224,288,244859,1,0,0:0:0:0:
224,288,244943,1,8,0:0:0:0:
304,128,245109,2,0,P|304:67|262:28,1,119.999996337891,0|8,0:0|0:0,0:0:0:0:
96,100,245443,1,0,0:0:0:0:
96,100,245526,1,0,0:0:0:0:
96,100,245609,1,8,0:0:0:0:
156,268,245776,5,4,0:0:0:0:
256,120,245943,1,8,0:0:0:0:
356,268,246109,1,0,0:0:0:0:
356,268,246193,1,0,0:0:0:0:
356,268,246276,1,8,0:0:0:0:
196,192,246443,2,0,P|156:149|166:91,1,119.999996337891,0|8,0:0|0:0,0:0:0:0:
348,96,246776,1,0,0:0:0:0:
348,96,246859,1,0,0:0:0:0:
348,96,246942,1,8,0:0:0:0:
196,192,247109,6,0,P|156:234|166:292,1,119.999996337891,4|8,0:0|0:0,0:0:0:0:
348,288,247442,1,0,0:0:0:0:
348,288,247526,1,0,0:0:0:0:
348,288,247609,1,8,0:0:0:0:
237,60,247776,1,0,0:0:0:0:
193,309,247942,1,8,0:0:0:0:
375,134,248109,1,8,0:0:0:0:
125,168,248276,1,8,0:0:0:0:
256,192,248442,6,0,P|300:154|303:95,1,119.999996337891,4|8,0:0|0:0,0:0:0:0:
132,32,248776,1,0,0:0:0:0:
96,64,248859,1,0,0:0:0:0:
60,96,248942,1,8,0:0:0:0:
92,272,249109,1,0,0:0:0:0:
256,192,249276,1,8,0:0:0:0:
420,272,249442,1,0,0:0:0:0:
384,304,249526,1,0,0:0:0:0:
348,336,249609,1,8,0:0:0:0:
188,256,249776,5,4,0:0:0:0:
324,128,249942,1,8,0:0:0:0:
148,84,250109,1,0,0:0:0:0:
132,128,250192,1,0,0:0:0:0:
116,172,250276,1,8,0:0:0:0:
396,212,250442,1,0,0:0:0:0:
256,100,250609,1,8,0:0:0:0:
256,284,250776,1,0,0:0:0:0:
292,316,250859,1,0,0:0:0:0:
328,348,250942,1,8,0:0:0:0:
464,228,251109,5,4,0:0:0:0:
384,68,251276,1,8,0:0:0:0:
256,192,251442,1,0,0:0:0:0:
256,192,251526,1,0,0:0:0:0:
256,192,251609,1,8,0:0:0:0:
128,68,251776,1,0,0:0:0:0:
48,228,251942,1,8,0:0:0:0:
168,364,252109,1,0,0:0:0:0:
212,348,252192,1,0,0:0:0:0:
256,332,252276,1,8,0:0:0:0:
148,192,252442,5,4,0:0:0:0:
364,192,252609,1,8,0:0:0:0:
344,20,252776,1,0,0:0:0:0:
300,36,252859,1,0,0:0:0:0:
256,52,252942,1,8,0:0:0:0:
256,192,253109,5,8,0:0:0:0:
256,240,253359,5,8,0:0:0:0:
256,288,253609,5,8,0:0:0:0:
256,336,253776,6,0,L|148:284,1,119.999996337891,4|8,0:0|0:0,0:0:0:0:
112,108,254109,1,0,0:0:0:0:
112,108,254192,1,0,0:0:0:0:
112,108,254276,1,8,0:0:0:0:
256,216,254442,1,0,0:0:0:0:
400,108,254609,1,8,0:0:0:0:
256,216,254776,5,0,0:0:0:0:
256,216,254859,1,0,0:0:0:0:
256,216,254942,1,8,0:0:0:0:
112,108,255109,1,0,0:0:0:0:
256,216,255276,1,8,0:0:0:0:
400,108,255442,1,0,0:0:0:0:
400,108,255526,1,0,0:0:0:0:
400,108,255609,1,8,0:0:0:0:
112,276,255776,5,0,0:0:0:0:
112,276,255859,1,0,0:0:0:0:
112,276,255942,1,8,0:0:0:0:
256,168,256109,1,0,0:0:0:0:
400,276,256276,1,8,0:0:0:0:
224,248,256442,6,0,P|179:210|171:152,1,119.999996337891,0|8,0:0|0:0,0:0:0:0:
324,27,256776,1,0,0:0:0:0:
344,71,256859,1,0,0:0:0:0:
364,115,256942,2,0,L|256:167,1,119.999996337891,8|0,0:0|0:0,0:0:0:0:
76,192,257276,1,8,0:0:0:0:
164,36,257442,5,0,0:0:0:0:
164,36,257526,1,0,0:0:0:0:
164,36,257609,1,8,0:0:0:0:
256,192,257776,1,0,0:0:0:0:
164,348,257942,1,8,0:0:0:0:
24,232,258109,1,0,0:0:0:0:
48,192,258192,1,0,0:0:0:0:
72,152,258276,1,8,0:0:0:0:
256,24,258442,5,0,0:0:0:0:
440,152,258609,1,8,0:0:0:0:
256,48,258776,1,0,0:0:0:0:
72,152,258942,1,8,0:0:0:0:
256,72,259109,6,0,L|256:192,1,119.999996337891,0|8,0:0|0:0,0:0:0:0:
164,348,259442,1,0,0:0:0:0:
164,348,259526,1,0,0:0:0:0:
164,348,259609,1,8,0:0:0:0:
24,232,259776,1,0,0:0:0:0:
116,80,259942,1,8,0:0:0:0:
256,192,260109,5,0,0:0:0:0:
256,240,260192,1,0,0:0:0:0:
256,288,260276,1,8,0:0:0:0:
96,208,260442,1,0,0:0:0:0:
416,176,260609,1,8,0:0:0:0:
256,96,260776,1,0,0:0:0:0:
256,144,260859,1,0,0:0:0:0:
256,192,260942,1,8,0:0:0:0:
140,328,261109,2,0,L|92:292,1,59.9999981689454
44,216,261276,2,0,L|148:156,1,119.999996337891,8|0,0:0|0:0,0:0:0:0:
364,227,261609,1,8,0:0:0:0:
256,372,261776,6,0,P|208:330|200:275,1,119.999996337891,0|8,0:0|0:0,0:0:0:0:
320,140,262109,1,0,0:0:0:0:
364,116,262192,1,0,0:0:0:0:
408,92,262276,2,0,L|476:192,1,119.999996337891,8|0,0:0|0:0,0:0:0:0:
256,308,262609,1,8,0:0:0:0:
192,140,262776,5,0,0:0:0:0:
148,116,262859,1,0,0:0:0:0:
104,92,262942,2,0,L|36:192,1,119.999996337891,8|0,0:0|0:0,0:0:0:0:
256,308,263276,1,8,0:0:0:0:
256,308,263359,1,0,0:0:0:0:
256,308,263442,1,0,0:0:0:0:
256,76,263609,1,8,0:0:0:0:
256,192,263776,1,8,0:0:0:0:
256,192,264109,1,8,0:0:0:0:
256,192,264442,5,12,0:0:0:0:
128,64,264609,1,0,0:0:0:0:
256,196,264776,1,0,0:0:0:0:
384,64,264942,5,8,0:0:0:0:
256,200,265109,1,0,0:0:0:0:
124,64,265276,1,0,0:0:0:0:
256,204,265442,5,8,0:0:0:0:
388,64,265609,1,0,0:0:0:0:
256,208,265776,1,0,0:0:0:0:
120,64,265942,5,8,0:0:0:0:
412,244,266276,1,0,0:0:0:0:
392,64,266442,1,8,0:0:0:0:
100,244,266776,1,8,0:0:0:0:
256,16,267109,5,12,0:0:0:0:
348,172,267276,1,0,0:0:0:0:
164,172,267442,1,0,0:0:0:0:
256,16,267609,5,8,0:0:0:0:
164,172,267776,1,0,0:0:0:0:
348,172,267942,1,0,0:0:0:0:
256,16,268109,5,8,0:0:0:0:
348,172,268276,1,0,0:0:0:0:
164,172,268442,1,0,0:0:0:0:
256,16,268609,5,8,0:0:0:0:
164,172,268776,1,0,0:0:0:0:
348,172,268942,1,0,0:0:0:0:
256,328,269109,5,0,0:0:0:0:
208,336,269192,1,0,0:0:0:0:
160,332,269276,1,0,0:0:0:0:
116,312,269359,1,0,0:0:0:0:
88,272,269442,1,0,0:0:0:0:
72,228,269526,1,0,0:0:0:0:
76,180,269609,1,0,0:0:0:0:
96,136,269692,1,0,0:0:0:0:
136,108,269776,6,0,L|192:128,5,59.9999981689454,12|0|0|0|0|0,0:0|0:0|0:0|0:0|0:0|0:0,0:0:0:0:
240,128,270276,2,0,L|296:108,5,59.9999981689454,8|0|0|0|0|0,0:0|0:0|0:0|0:0|0:0|0:0,0:0:0:0:
344,116,270776,1,8,0:0:0:0:
384,140,270859,1,0,0:0:0:0:
396,188,270942,1,0,0:0:0:0:
380,236,271026,1,0,0:0:0:0:
348,272,271109,1,0,0:0:0:0:
300,280,271192,1,0,0:0:0:0:
256,264,271276,1,8,0:0:0:0:
212,280,271359,1,0,0:0:0:0:
164,272,271442,1,0,0:0:0:0:
132,236,271526,1,0,0:0:0:0:
116,188,271609,1,0,0:0:0:0:
128,140,271692,1,0,0:0:0:0:
168,116,271776,6,0,L|228:136,1,59.9999981689454,8|0,0:0|0:0,0:0:0:0:
344,116,271942,2,0,L|284:136,1,59.9999981689454
168,136,272109,2,0,L|228:156,1,59.9999981689454,8|0,0:0|0:0,0:0:0:0:
344,136,272276,2,0,L|284:156,1,59.9999981689454
256,116,272442,5,12,0:0:0:0:
260,68,272526,1,0,0:0:0:0:
292,32,272609,1,0,0:0:0:0:
340,28,272692,1,0,0:0:0:0:
388,40,272776,1,0,0:0:0:0:
420,76,272859,1,0,0:0:0:0:
428,124,272942,6,0,L|404:180,5,59.9999981689454,8|0|0|0|0|0,0:0|0:0|0:0|0:0|0:0|0:0,0:0:0:0:
380,220,273442,5,8,0:0:0:0:
332,232,273526,1,0,0:0:0:0:
284,244,273609,1,0,0:0:0:0:
236,256,273692,1,0,0:0:0:0:
188,268,273776,1,0,0:0:0:0:
140,280,273859,1,0,0:0:0:0:
92,292,273942,6,0,L|56:244,5,59.9999981689454,8|0|0|0|0|0,0:0|0:0|0:0|0:0|0:0|0:0,0:0:0:0:
44,196,274442,5,8,0:0:0:0:
56,148,274526,1,0,0:0:0:0:
88,112,274609,1,0,0:0:0:0:
136,108,274692,1,0,0:0:0:0:
180,128,274776,1,0,0:0:0:0:
228,128,274859,1,8,0:0:0:0:
268,100,274942,1,8,0:0:0:0:
292,60,275026,1,8,0:0:0:0:
284,12,275109,6,0,B|196:4|196:4|112:40,1,179.999994506836,4|2,0:0|0:0,0:0:0:0:
256,192,275609,1,2,0:0:0:0:
400,344,275776,2,0,B|316:380|316:380|228:372,1,179.999994506836,4|2,0:0|0:0,0:0:0:0:
256,192,276276,1,2,0:0:0:0:
364,88,276442,6,0,P|400:124|404:172,1,100,4|8,0:0|0:0,0:0:0:0:
256,268,276776,1,0,0:0:0:0:
256,268,276859,1,0,0:0:0:0:
256,268,276942,1,8,0:0:0:0:
148,88,277109,2,0,P|112:124|108:172,1,100,0|8,0:0|0:0,0:0:0:0:
256,268,277442,1,0,0:0:0:0:
256,268,277526,1,0,0:0:0:0:
256,268,277609,1,8,0:0:0:0:
256,116,277776,5,0,0:0:0:0:
172,240,277942,1,8,0:0:0:0:
340,240,278109,1,0,0:0:0:0:
340,240,278192,1,0,0:0:0:0:
340,240,278276,1,8,0:0:0:0:
344,92,278442,2,0,P|320:48|276:28,1,100,0|8,0:0|0:0,0:0:0:0:
140,96,278776,1,0,0:0:0:0:
140,96,278859,1,0,0:0:0:0:
140,96,278942,1,8,0:0:0:0:
256,192,279109,5,0,0:0:0:0:
372,96,279276,1,8,0:0:0:0:
256,192,279442,1,0,0:0:0:0:
256,192,279526,1,0,0:0:0:0:
256,192,279609,1,8,0:0:0:0:
372,288,279776,1,0,0:0:0:0:
256,192,279942,1,8,0:0:0:0:
140,288,280109,1,0,0:0:0:0:
140,288,280192,1,0,0:0:0:0:
140,288,280276,1,8,0:0:0:0:
256,192,280442,5,0,0:0:0:0:
292,176,280526,1,0,0:0:0:0:
332,180,280609,1,8,0:0:0:0:
368,196,280692,1,0,0:0:0:0:
392,228,280776,1,0,0:0:0:0:
404,268,280859,1,0,0:0:0:0:
400,308,280942,1,8,0:0:0:0:
380,344,281026,1,0,0:0:0:0:
348,364,281109,6,0,L|300:348,1,50
256,276,281276,2,0,L|304:260,1,50,8|0,0:0|0:0,0:0:0:0:
348,188,281442,2,0,L|300:172,1,50
255,100,281609,2,0,L|303:84,1,50,8|0,0:0|0:0,0:0:0:0:
416,112,281776,6,0,L|448:208,1,100,4|8,0:0|0:0,0:0:0:0:
356,324,282109,1,0,0:0:0:0:
320,308,282192,1,0,0:0:0:0:
284,292,282276,1,8,0:0:0:0:
176,192,282442,1,0,0:0:0:0:
336,192,282609,1,8,0:0:0:0:
228,92,282776,1,0,0:0:0:0:
192,76,282859,1,0,0:0:0:0:
156,60,282942,1,8,0:0:0:0:
84,192,283109,5,0,0:0:0:0:
256,344,283276,1,8,0:0:0:0:
428,192,283442,1,0,0:0:0:0:
412,156,283526,1,0,0:0:0:0:
396,120,283609,1,8,0:0:0:0:
256,68,283776,1,0,0:0:0:0:
256,316,283942,1,8,0:0:0:0:
256,192,284109,1,0,0:0:0:0:
256,192,284192,1,0,0:0:0:0:
256,192,284276,1,8,0:0:0:0:
140,96,284442,6,0,P|104:136|104:180,1,100,0|8,0:0|0:0,0:0:0:0:
232,264,284776,1,0,0:0:0:0:
244,228,284859,1,0,0:0:0:0:
256,192,284942,1,8,0:0:0:0:
372,96,285109,6,0,P|408:136|408:180,1,100,0|8,0:0|0:0,0:0:0:0:
280,264,285442,1,0,0:0:0:0:
268,228,285526,1,0,0:0:0:0:
256,192,285609,1,8,0:0:0:0:
256,40,285776,5,0,0:0:0:0:
251,42,285859,1,0,0:0:0:0:
246,41,285942,1,8,0:0:0:0:
243,37,286026,1,0,0:0:0:0:
243,32,286109,1,0,0:0:0:0:
246,28,286192,1,0,0:0:0:0:
251,28,286276,1,8,0:0:0:0:
256,30,286359,1,0,0:0:0:0:
257,35,286442,6,0,L|232:80,1,50,0|0,0:1|0:1,0:1:0:0:
336,48,286609,2,0,L|361:3,1,50,8|0,0:0|0:0,0:0:0:0:
296,120,286776,2,0,L|288:172,3,50,8|8|8|8,0:0|0:0|0:0|0:0,0:0:0:0:
256,192,287109,5,4,0:0:0:0:
216,204,287192,1,0,0:0:0:0:
176,192,287276,1,8,0:0:0:0:
148,160,287359,1,0,0:0:0:0:
112,140,287442,2,0,L|64:160,3,50,0|0|8|0,0:0|0:0|0:0|0:0,0:0:0:0:
40,192,287776,1,0,0:0:0:0:
40,232,287859,1,0,0:0:0:0:
60,268,287942,1,8,0:0:0:0:
96,280,288026,1,0,0:0:0:0:
136,276,288109,2,0,L|180:248,3,50,0|0|8|0,0:0|0:0|0:0|0:0,0:0:0:0:
212,232,288442,5,0,0:0:0:0:
252,236,288526,1,0,0:0:0:0:
288,256,288609,1,8,0:0:0:0:
316,284,288692,1,0,0:0:0:0:
356,292,288776,1,0,0:0:0:0:
392,276,288859,1,0,0:0:0:0:
420,248,288942,1,8,0:0:0:0:
432,208,289026,1,0,0:0:0:0:
420,168,289109,2,0,L|396:124,1,50
272,24,289276,2,0,L|296:68,1,50,8|0,0:0|0:0,0:0:0:0:
328,196,289442,2,0,L|304:152,1,50
180,52,289609,2,0,L|204:96,1,50,8|0,0:0|0:0,0:0:0:0:
236,224,289776,5,0,0:0:0:0:
196,232,289859,1,0,0:0:0:0:
156,224,289942,1,8,0:0:0:0:
124,200,290026,1,0,0:0:0:0:
104,164,290109,2,0,L|108:112,3,50,0|0|8|0,0:0|0:0|0:0|0:0,0:0:0:0:
124,76,290442,1,0,0:0:0:0:
156,52,290526,1,0,0:0:0:0:
196,52,290609,1,8,0:0:0:0:
236,64,290692,1,0,0:0:0:0:
256,100,290776,2,0,L|260:152,3,50,0|0|8|0,0:0|0:0|0:0|0:0,0:0:0:0:
261,196,291109,5,0,0:0:0:0:
257,199,291192,1,0,0:0:0:0:
252,198,291276,1,8,0:0:0:0:
249,194,291359,1,0,0:0:0:0:
249,189,291442,1,0,0:0:0:0:
252,185,291526,1,0,0:0:0:0:
257,184,291609,1,8,0:0:0:0:
261,187,291692,1,0,0:0:0:0:
263,192,291776,6,0,L|300:228,1,50
248,192,291942,2,0,L|212:156,1,50,8|0,0:0|0:0,0:0:0:0:
261,186,292109,2,0,L|312:186,1,50
250,197,292276,2,0,L|199:197,1,50,8|0,0:0|0:0,0:0:0:0:
212,316,292442,5,4,0:0:0:0:
248,332,292526,1,0,0:0:0:0:
288,328,292609,1,8,0:0:0:0:
324,308,292692,1,0,0:0:0:0:
340,272,292776,2,0,L|348:220,3,50,0|0|8|0,0:0|0:0|0:0|0:0,0:0:0:0:
376,192,293109,1,0,0:0:0:0:
412,176,293192,1,0,0:0:0:0:
452,180,293276,1,8,0:0:0:0:
484,204,293359,1,0,0:0:0:0:
488,244,293442,2,0,L|480:296,3,50,0|0|8|0,0:0|0:0|0:0|0:0,0:0:0:0:
448,316,293776,5,0,0:0:0:0:
408,316,293859,1,0,0:0:0:0:
372,300,293942,1,8,0:0:0:0:
352,264,294026,5,0,0:0:0:0:
344,224,294109,1,0,0:0:0:0:
324,188,294192,1,0,0:0:0:0:
288,168,294276,1,8,0:0:0:0:
248,168,294359,1,0,0:0:0:0:
212,188,294442,2,0,L|224:240,1,50
156,96,294609,2,0,L|144:44,1,50,8|0,0:0|0:0,0:0:0:0:
136,248,294776,2,0,L|147:296,1,50
80,156,294942,2,0,L|68:107,1,50,8|0,0:0|0:0,0:0:0:0:
39,236,295109,5,0,0:0:0:0:
75,256,295192,1,0,0:0:0:0:
111,276,295276,1,8,0:0:0:0:
147,296,295359,1,0,0:0:0:0:
183,316,295442,2,0,L|228:296,3,50,0|0|8|0,0:0|0:0|0:0|0:0,0:0:0:0:
230,254,295776,1,0,0:0:0:0:
223,215,295859,1,0,0:0:0:0:
216,176,295942,1,8,0:0:0:0:
208,136,296026,1,0,0:0:0:0:
201,97,296109,2,0,L|238:61,3,50,0|0|8|0,0:0|0:0|0:0|0:0,0:0:0:0:
256,88,296442,5,0,0:0:0:0:
258,103,296526,1,0,0:0:0:0:
253,119,296609,1,8,0:0:0:0:
261,136,296692,1,0,0:0:0:0:
250,152,296776,1,0,0:0:0:0:
263,168,296859,1,0,0:0:0:0:
248,183,296942,1,8,0:0:0:0:
266,200,297026,1,0,0:0:0:0:
245,216,297109,1,0,0:0:0:0:
269,231,297192,1,0,0:0:0:0:
242,247,297276,1,8,0:0:0:0:
271,263,297359,1,0,0:0:0:0:
240,280,297442,1,8,0:0:0:0:
274,295,297526,1,8,0:0:0:0:
237,311,297609,1,8,0:0:0:0:
277,328,297692,1,8,0:0:0:0:
234,344,297776,6,0,B|152:356|112:268|155:192|256:192|256:192|357:192|400:116|360:28|278:40,1,552.000000842285,0|4,0:0|0:0,0:0:0:0:
256,192,299276,12,0,308442,0:0:0:0:
