osu file format v14

[General]
AudioFilename: Yousei Teikoku - 02 Astral Dogma.mp3
AudioLeadIn: 0
PreviewTime: 92046
Countdown: 0
SampleSet: Soft
StackLeniency: 0.7
Mode: 0
LetterboxInBreaks: 1
WidescreenStoryboard: 0

[Editor]
DistanceSpacing: 0.7
BeatDivisor: 4
GridSize: 4
TimelineZoom: 1

[Metadata]
Title:Astral Dogma
TitleUnicode:Astral Dogma
Artist:Yousei Teikoku
ArtistUnicode:Yousei Teikoku
Creator:Kyshiro
Version:The Ending World
Source:
Tags:rock metal
BeatmapID:1492725
BeatmapSetID:705828

[Difficulty]
HPDrainRate:5
CircleSize:4.2
OverallDifficulty:9
ApproachRate:9.5
SliderMultiplier:1.8
SliderTickRate:1

[Events]
//Background and Video events
0,0,"maxresdefault.jpg",0,0
//Break Periods
//Storyboard Layer 0 (Background)
//Storyboard Layer 1 (Fail)
//Storyboard Layer 2 (Pass)
//Storyboard Layer 3 (Foreground)
//Storyboard Sound Samples

[TimingPoints]
380,333.333333333333,4,2,0,50,1,0
380,-285.714285714286,4,2,0,50,0,0
15046,-222.222222222222,4,2,0,50,0,0
19046,-200,4,2,0,50,0,0
21713,-117.647058823529,4,2,0,50,0,0
32379,-100,4,2,0,50,0,1
43046,-100,4,2,0,50,0,0
71046,-125,4,2,0,50,0,0
92046,-83.3333333333333,4,2,0,50,0,0
92379,-83.3333333333333,4,2,0,50,0,1
102379,-133.333333333333,4,2,0,50,0,1
103046,-83.3333333333333,4,2,0,50,0,0
113713,-83.3333333333333,4,2,0,50,0,1
115713,-83.3333333333333,4,2,0,50,0,0
116379,-83.3333333333333,4,2,0,50,0,1
118379,-83.3333333333333,4,2,0,50,0,0
119046,-83.3333333333333,4,2,0,50,0,1
121046,-83.3333333333333,4,2,0,50,0,0
121713,-83.3333333333333,4,2,0,50,0,1
124379,-100,4,2,0,50,0,0
125713,-71.4285714285714,4,2,0,50,0,1
136379,-100,4,2,0,50,0,0
148379,-125,4,2,0,50,0,0
169713,-83.3333333333333,4,2,0,50,0,1
179713,-133.333333333333,4,2,0,50,0,1
180379,-83.3333333333333,4,2,0,50,0,0
190379,-71.4285714285714,4,2,0,50,0,0
191046,-83.3333333333333,4,2,0,50,0,1
193046,-83.3333333333333,4,2,0,50,0,0
193713,-83.3333333333333,4,2,0,50,0,1
195713,-83.3333333333333,4,2,0,50,0,0
196379,-83.3333333333333,4,2,0,50,0,1
198379,-83.3333333333333,4,2,0,50,0,0
199046,-83.3333333333333,4,2,0,50,0,1
201713,-100,4,2,0,50,0,0
204213,-100,4,2,0,5,0,0
204379,-133.333333333333,4,2,0,50,0,0
229046,-200,4,2,0,50,0,0
232379,-133.333333333333,4,2,0,50,0,0
241713,-200,4,2,0,50,0,0
242379,-100,4,2,0,50,0,0
242879,-83.3333333333333,4,2,0,50,0,0
243046,-83.3333333333333,4,2,0,50,0,1
253046,-100,4,2,0,50,0,1
253713,-83.3333333333333,4,2,0,50,0,0
263713,-71.4285714285714,4,2,0,50,0,0
264379,-83.3333333333333,4,2,0,50,0,1
266379,-83.3333333333333,4,2,0,50,0,0
267046,-83.3333333333333,4,2,0,50,0,1
269046,-83.3333333333333,4,2,0,50,0,0
269713,-83.3333333333333,4,2,0,50,0,1
271713,-83.3333333333333,4,2,0,50,0,0
272379,-83.3333333333333,4,2,0,50,0,1
275046,-100,4,2,0,50,0,0
276379,-66.6666666666667,4,2,0,50,0,1
285713,-66.6666666666667,4,2,0,50,0,0
287046,-66.6666666666667,4,2,0,50,0,1
297713,-66.6666666666667,4,2,0,50,0,0
299046,-303.030303030303,4,2,0,50,0,1
299129,-303.030303030303,4,2,0,50,0,0
300379,-303.030303030303,4,2,0,40,0,0
301713,-303.030303030303,4,2,0,30,0,0
304379,-303.030303030303,4,2,0,20,0,0
307046,-303.030303030303,4,2,0,10,0,0
309046,-303.030303030303,4,2,0,5,0,0

[Colours]
Combo1 : 199,220,218
Combo2 : 185,191,253
Combo3 : 230,162,162

[HitObjects]
45,111,380,6,0,P|137:93|125:152,1,188.999994232178
39,229,1713,2,0,P|37:272|82:342,1,125.999996154785
184,268,2713,1,0,0:0:0:0:
285,345,3046,2,0,B|375:299|375:390|465:345,1,188.999994232178
429,151,4379,2,0,L|417:283,1,125.999996154785
140,92,5713,6,0,B|185:77|185:77|270:117|270:117|320:100,1,188.999994232178
438,35,7046,2,0,P|466:83|455:154,1,125.999996154785
346,226,8046,1,0,0:0:0:0:
190,83,8379,2,0,L|329:103,1,125.999996154785
460,264,9379,1,0,0:0:0:0:
306,331,9713,2,0,B|291:252|291:252|311:203,1,125.999996154785
110,29,11046,6,0,P|143:62|135:198,1,188.999994232178
48,126,12379,2,0,P|26:176|38:249,1,125.999996154785
250,192,13379,1,0,0:0:0:0:
132,45,13713,2,0,L|5:37,1,125.999996154785
258,53,14713,1,0,0:0:0:0:
78,157,15046,6,0,B|109:117|159:113|198:134|206:164|205:189|239:214|285:208,1,242.999992584229
430,99,16379,2,0,P|375:87|278:129,1,161.999995056153
377,216,17379,1,0,0:0:0:0:
106,229,17713,2,0,P|161:217|258:259,1,161.999995056153
467,238,19046,6,0,B|417:259|374:229|374:229|343:206|289:145|281:61|361:21|425:52|458:122|413:184|312:181|265:155|265:155|211:130|155:134|106:181,1,675
96,190,21713,6,0,P|119:252|121:285,1,76.5000014591217
160,93,22046,1,0,0:0:0:0:
281,215,22213,1,0,0:0:0:0:
281,215,22296,1,0,0:0:0:0:
281,215,22379,2,0,P|230:209|198:197,1,76.5000014591217
340,111,22713,2,0,P|376:99|414:96,1,76.5000014591217
485,250,23046,5,0,0:0:0:0:
480,219,23129,1,0,0:0:0:0:
475,188,23213,1,0,0:0:0:0:
382,278,23379,1,0,0:0:0:0:
362,253,23462,1,0,0:0:0:0:
342,229,23546,1,0,0:0:0:0:
223,114,23713,1,0,0:0:0:0:
218,145,23796,1,0,0:0:0:0:
213,176,23880,1,0,0:0:0:0:
120,86,24046,1,0,0:0:0:0:
100,111,24129,1,0,0:0:0:0:
80,135,24213,1,0,0:0:0:0:
311,56,24379,6,0,P|375:44|411:44,1,76.5000014591217
485,121,24713,1,0,0:0:0:0:
295,193,24879,1,0,0:0:0:0:
417,294,25046,1,0,0:0:0:0:
420,263,25129,1,0,0:0:0:0:
424,232,25213,1,0,0:0:0:0:
279,43,25379,1,0,0:0:0:0:
283,74,25463,1,0,0:0:0:0:
286,105,25546,1,0,0:0:0:0:
198,252,25713,5,0,0:0:0:0:
156,255,25796,1,0,0:0:0:0:
114,248,25879,1,0,0:0:0:0:
77,226,25963,1,0,0:0:0:0:
54,190,26046,1,0,0:0:0:0:
39,150,26129,1,0,0:0:0:0:
42,107,26213,1,0,0:0:0:0:
314,252,26379,5,0,0:0:0:0:
356,255,26462,1,0,0:0:0:0:
398,248,26545,1,0,0:0:0:0:
435,226,26629,1,0,0:0:0:0:
458,190,26712,1,0,0:0:0:0:
473,150,26795,1,0,0:0:0:0:
470,107,26879,1,0,0:0:0:0:
209,44,27046,6,0,L|192:129,1,76.5000014591217
281,206,27379,1,0,0:0:0:0:
346,56,27546,1,0,0:0:0:0:
91,117,27713,1,0,0:0:0:0:
96,146,27796,1,0,0:0:0:0:
102,175,27879,1,0,0:0:0:0:
226,116,28046,1,0,0:0:0:0:
21,66,28213,1,0,0:0:0:0:
98,264,28379,5,0,0:0:0:0:
136,264,28463,1,0,0:0:0:0:
171,251,28546,1,0,0:0:0:0:
306,264,28713,1,0,0:0:0:0:
306,226,28797,1,0,0:0:0:0:
293,191,28880,1,0,0:0:0:0:
308,66,29046,1,0,0:0:0:0:
270,66,29130,1,0,0:0:0:0:
235,79,29213,1,0,0:0:0:0:
100,66,29380,1,0,0:0:0:0:
100,104,29464,1,0,0:0:0:0:
113,139,29547,1,0,0:0:0:0:
395,113,29713,6,0,L|419:20,1,76.5000014591217
285,165,30046,1,0,0:0:0:0:
473,257,30213,1,0,0:0:0:0:
302,293,30379,1,0,0:0:0:0:
271,289,30463,1,0,0:0:0:0:
240,285,30546,1,0,0:0:0:0:
389,92,30713,2,0,P|404:155|399:179,1,76.5000014591217
186,63,31046,5,0,0:0:0:0:
147,60,31129,1,0,0:0:0:0:
109,70,31213,1,0,0:0:0:0:
79,94,31296,1,0,0:0:0:0:
53,122,31379,1,0,0:0:0:0:
37,157,31463,1,0,0:0:0:0:
31,194,31546,1,0,0:0:0:0:
326,63,31713,5,0,0:0:0:0:
365,60,31796,1,0,0:0:0:0:
403,70,31880,1,0,0:0:0:0:
433,94,31963,1,0,0:0:0:0:
459,122,32046,1,0,0:0:0:0:
475,157,32130,1,0,0:0:0:0:
481,194,32213,1,0,0:0:0:0:
400,303,32379,5,0,0:0:0:0:
165,188,32546,2,0,B|253:154|253:221|342:188,1,180
297,88,33046,1,0,0:0:0:0:
210,274,33213,2,0,L|203:369,1,90
86,289,33546,1,0,0:0:0:0:
202,131,33713,5,0,0:0:0:0:
315,229,33879,2,0,B|252:254|252:254|129:219,1,180
426,176,34379,2,0,B|446:216|446:216|443:266,1,90
318,117,34713,2,0,B|315:71|315:71|335:31,1,90
169,217,35046,6,0,P|255:210|332:277,1,180
221,327,35546,1,0,0:0:0:0:
471,160,35713,2,0,P|413:183|363:183,1,90
170,82,36046,2,0,P|214:88|255:107,1,90
429,305,36379,5,0,0:0:0:0:
400,290,36463,1,0,0:0:0:0:
369,283,36546,1,0,0:0:0:0:
337,281,36629,1,0,0:0:0:0:
305,287,36713,1,0,0:0:0:0:
275,298,36796,1,0,0:0:0:0:
247,313,36879,1,0,0:0:0:0:
223,333,36963,1,0,0:0:0:0:
205,358,37046,5,0,0:0:0:0:
244,352,37129,1,0,0:0:0:0:
276,327,37213,1,0,0:0:0:0:
299,294,37296,1,0,0:0:0:0:
312,256,37379,1,0,0:0:0:0:
317,215,37463,1,0,0:0:0:0:
315,174,37546,1,0,0:0:0:0:
300,136,37629,1,0,0:0:0:0:
274,104,37713,6,0,L|212:101,1,45
397,170,37879,2,0,P|416:115|410:66,1,90
216,195,38213,1,0,0:0:0:0:
216,195,38296,1,0,0:0:0:0:
216,195,38379,2,0,L|231:308,1,90
14,265,38713,2,0,L|127:250,1,90
358,321,39046,5,0,0:0:0:0:
153,341,39213,2,0,B|127:273|127:273|138:230|138:230|113:140,1,180
263,41,39713,1,0,0:0:0:0:
260,58,39796,1,0,0:0:0:0:
257,75,39879,1,0,0:0:0:0:
254,92,39963,1,0,0:0:0:0:
291,109,40046,1,0,0:0:0:0:
294,126,40129,1,0,0:0:0:0:
297,143,40212,1,0,0:0:0:0:
300,160,40296,1,0,0:0:0:0:
303,177,40379,6,0,P|341:173|360:165,1,45
508,231,40546,2,0,B|474:222|450:206|450:206|414:250|350:262,1,180
197,179,41046,1,0,0:0:0:0:
325,49,41213,2,0,L|347:154,1,90
224,303,41546,1,0,0:0:0:0:
66,53,41713,5,0,0:0:0:0:
88,65,41796,1,0,0:0:0:0:
108,82,41879,1,0,0:0:0:0:
126,102,41963,1,0,0:0:0:0:
140,124,42046,1,0,0:0:0:0:
152,147,42129,1,0,0:0:0:0:
160,173,42213,1,0,0:0:0:0:
162,199,42296,1,0,0:0:0:0:
162,225,42379,1,0,0:0:0:0:
175,191,42463,1,0,0:0:0:0:
198,163,42546,1,0,0:0:0:0:
226,140,42629,1,0,0:0:0:0:
259,125,42713,1,0,0:0:0:0:
293,117,42796,1,0,0:0:0:0:
328,115,42879,1,0,0:0:0:0:
363,121,42963,1,0,0:0:0:0:
395,135,43046,6,0,L|406:193,1,45
489,271,43213,1,0,0:0:0:0:
476,78,43379,1,0,0:0:0:0:
340,301,43546,1,0,0:0:0:0:
211,160,43713,2,0,L|238:164,6,22.5
155,223,44046,2,0,P|129:226|91:223,1,45
303,121,44213,2,0,P|325:120|347:123,1,45
294,237,44379,5,0,0:0:0:0:
146,99,44546,1,0,0:0:0:0:
146,99,44629,1,0,0:0:0:0:
146,99,44713,2,0,P|122:47|120:4,1,90
378,27,45046,1,0,0:0:0:0:
378,27,45129,1,0,0:0:0:0:
378,27,45213,2,0,P|333:33|293:53,1,90
256,200,45546,1,0,0:0:0:0:
387,154,45713,5,0,0:0:0:0:
387,154,45796,1,0,0:0:0:0:
387,154,45879,1,0,0:0:0:0:
155,130,46046,1,0,0:0:0:0:
155,130,46129,1,0,0:0:0:0:
155,130,46213,1,0,0:0:0:0:
370,284,46379,1,0,0:0:0:0:
414,277,46463,1,0,0:0:0:0:
458,270,46546,1,0,0:0:0:0:
269,103,46713,1,0,0:0:0:0:
165,242,46879,2,0,L|176:342,1,90
51,130,47213,5,0,0:0:0:0:
51,130,47296,1,0,0:0:0:0:
51,130,47379,1,0,0:0:0:0:
260,199,47546,1,0,0:0:0:0:
77,230,47713,1,0,0:0:0:0:
77,230,47796,1,0,0:0:0:0:
77,230,47879,1,0,0:0:0:0:
23,39,48046,1,0,0:0:0:0:
171,220,48213,2,0,L|164:314,1,90
405,265,48546,6,0,P|350:253|311:256,1,90
484,182,48879,1,0,0:0:0:0:
259,93,49046,2,0,L|253:127,3,30
193,313,49379,2,0,L|187:283,3,30
71,148,49713,5,0,0:0:0:0:
293,225,49879,1,0,0:0:0:0:
97,271,50046,2,0,L|9:257,1,90
224,97,50379,1,0,0:0:0:0:
228,123,50463,1,0,0:0:0:0:
232,149,50546,1,0,0:0:0:0:
108,47,50713,1,0,0:0:0:0:
329,193,50879,1,0,0:0:0:0:
126,176,51046,5,0,0:0:0:0:
126,176,51129,1,0,0:0:0:0:
126,176,51213,1,0,0:0:0:0:
356,68,51379,1,0,0:0:0:0:
356,68,51463,1,0,0:0:0:0:
356,68,51546,1,0,0:0:0:0:
84,42,51713,1,0,0:0:0:0:
84,42,51796,1,0,0:0:0:0:
84,42,51879,1,0,0:0:0:0:
241,139,52046,1,0,0:0:0:0:
28,200,52213,2,0,P|28:249|46:297,1,90
211,243,52546,5,0,0:0:0:0:
180,234,52629,1,0,0:0:0:0:
149,225,52713,1,0,0:0:0:0:
311,345,52879,1,0,0:0:0:0:
360,214,53046,1,0,0:0:0:0:
369,183,53129,1,0,0:0:0:0:
378,152,53213,1,0,0:0:0:0:
244,121,53379,1,0,0:0:0:0:
423,317,53546,2,0,L|520:303,1,90
413,59,53879,5,0,0:0:0:0:
301,250,54046,1,0,0:0:0:0:
454,209,54213,1,0,0:0:0:0:
183,176,54379,2,0,L|140:169,3,30
266,365,54713,1,0,0:0:0:0:
298,111,54879,1,0,0:0:0:0:
52,214,55046,5,0,0:0:0:0:
66,328,55213,1,0,0:0:0:0:
50,192,55546,5,0,0:0:0:0:
52,307,55713,1,0,0:0:0:0:
51,171,56046,5,0,0:0:0:0:
41,285,56213,1,0,0:0:0:0:
55,149,56546,5,0,0:0:0:0:
33,262,56713,1,0,0:0:0:0:
38,276,57046,5,0,0:0:0:0:
292,180,57213,1,0,0:0:0:0:
163,97,57379,1,0,0:0:0:0:
161,368,57546,1,0,0:0:0:0:
384,253,57713,5,0,0:0:0:0:
183,211,57879,1,0,0:0:0:0:
162,224,58213,5,0,0:0:0:0:
403,229,58379,1,0,0:0:0:0:
424,250,58713,5,0,0:0:0:0:
141,198,58879,1,0,0:0:0:0:
118,222,59213,5,0,0:0:0:0:
447,227,59379,1,0,0:0:0:0:
470,248,59713,5,0,0:0:0:0:
245,315,59879,1,0,0:0:0:0:
295,95,60046,1,0,0:0:0:0:
379,361,60213,1,0,0:0:0:0:
129,287,60379,5,0,0:0:0:0:
316,98,60546,1,0,0:0:0:0:
316,98,60629,1,0,0:0:0:0:
316,98,60713,2,0,P|333:160|331:196,1,90
106,176,61046,1,0,0:0:0:0:
106,176,61129,1,0,0:0:0:0:
106,176,61213,2,0,P|150:174|193:159,1,90
123,33,61546,1,0,0:0:0:0:
78,266,61713,5,0,0:0:0:0:
72,296,61796,1,0,0:0:0:0:
66,326,61879,1,0,0:0:0:0:
214,245,62046,1,0,0:0:0:0:
228,271,62129,1,0,0:0:0:0:
243,298,62212,1,0,0:0:0:0:
301,158,62379,1,0,0:0:0:0:
328,168,62462,1,0,0:0:0:0:
357,179,62545,1,0,0:0:0:0:
222,80,62713,1,0,0:0:0:0:
451,120,62879,2,0,P|471:176|467:215,1,90
279,300,63213,5,0,0:0:0:0:
279,300,63296,1,0,0:0:0:0:
279,300,63379,1,0,0:0:0:0:
360,71,63546,1,0,0:0:0:0:
398,255,63713,1,0,0:0:0:0:
398,255,63796,1,0,0:0:0:0:
398,255,63879,1,0,0:0:0:0:
171,224,64046,1,0,0:0:0:0:
459,56,64213,2,0,L|444:152,1,90
261,305,64546,5,0,0:0:0:0:
184,86,64713,1,0,0:0:0:0:
124,345,64879,1,0,0:0:0:0:
378,272,65046,2,0,L|416:275,3,30
151,209,65379,2,0,L|113:212,3,30
478,171,65713,5,0,0:0:0:0:
247,126,65879,1,0,0:0:0:0:
247,126,65963,1,0,0:0:0:0:
247,126,66046,2,0,P|239:201|247:230,1,90
464,153,66379,1,0,0:0:0:0:
464,153,66463,1,0,0:0:0:0:
464,153,66546,2,0,P|389:161|360:153,1,90
142,67,66879,1,0,0:0:0:0:
291,36,67046,5,0,0:0:0:0:
291,36,67129,1,0,0:0:0:0:
291,36,67213,1,0,0:0:0:0:
213,207,67379,1,0,0:0:0:0:
42,162,67546,1,0,0:0:0:0:
344,154,67713,1,0,0:0:0:0:
344,154,67796,1,0,0:0:0:0:
344,154,67879,1,0,0:0:0:0:
269,352,68046,1,0,0:0:0:0:
186,114,68213,2,0,P|171:67|172:22,1,90
451,187,68546,5,0,0:0:0:0:
447,218,68629,1,0,0:0:0:0:
443,249,68713,1,0,0:0:0:0:
365,78,68879,1,0,0:0:0:0:
256,187,69046,1,0,0:0:0:0:
287,191,69129,1,0,0:0:0:0:
318,195,69213,1,0,0:0:0:0:
492,74,69379,1,0,0:0:0:0:
149,158,69546,2,0,P|153:222|174:261,1,90
249,72,69879,5,0,0:0:0:0:
46,179,70046,1,0,0:0:0:0:
346,198,70213,1,0,0:0:0:0:
31,184,70379,2,0,L|-3:197,3,30
80,34,70713,1,0,0:0:0:0:
174,278,70879,1,0,0:0:0:0:
170,309,70963,1,0,0:0:0:0:
167,341,71046,6,0,P|119:339|76:323,1,72
167,117,71379,2,0,P|158:151|158:187,1,72
293,168,71713,1,0,0:0:0:0:
61,82,71879,1,0,0:0:0:0:
219,284,72046,2,0,L|228:235,1,36
158,187,72213,6,0,B|87:160|87:215|15:187,1,144
194,32,72713,2,0,L|202:114,1,72
299,322,73046,2,0,L|305:250,1,72
385,62,73379,2,0,P|439:68|471:95,1,72
185,145,73713,6,0,B|178:101|200:48|283:27|358:90|315:175|315:175|293:206|300:244|336:269|379:254|389:218,1,432
404,52,74879,2,0,B|354:40|307:52|273:83|254:132|254:132|230:84|174:77,1,288
140,248,75713,2,0,P|162:208|165:176,1,72
48,51,76046,2,0,P|54:86|73:116,1,72
249,259,76379,6,0,L|416:244,1,144
303,140,76879,1,0,0:0:0:0:
499,160,77046,2,0,L|422:151,1,72
184,127,77379,1,0,0:0:0:0:
377,51,77546,1,0,0:0:0:0:
227,231,77713,6,0,P|142:232|84:179,1,144
287,120,78213,1,0,0:0:0:0:
363,227,78379,2,0,B|375:263|375:263|367:315,1,72
182,145,78713,2,0,B|176:111|176:111|188:75,1,72
479,204,79046,6,0,L|468:365,1,144
292,196,79546,1,0,0:0:0:0:
419,101,79713,2,0,L|497:107,1,72
279,42,80046,2,0,L|201:48,1,72
69,216,80379,6,0,P|102:263|126:164,1,216
39,94,81046,1,0,0:0:0:0:
21,314,81213,1,0,0:0:0:0:
221,217,81379,1,0,0:0:0:0:
0,199,81546,1,0,0:0:0:0:
260,352,81713,6,0,L|355:340,1,72
298,139,82046,2,0,L|310:234,1,72
475,278,82379,2,0,P|499:210|491:133,1,144
231,157,82879,6,0,B|314:197|314:197|379:186,1,144
331,19,83379,2,0,L|325:97,1,72
216,258,83713,2,0,L|130:247,1,72
270,348,84046,1,0,0:0:0:0:
324,166,84213,1,0,0:0:0:0:
114,182,84379,6,0,L|135:339,1,144
8,282,84879,1,0,0:0:0:0:
236,167,85046,2,0,P|286:179|323:201,1,72
376,299,85379,1,0,0:0:0:0:
511,60,85546,6,0,P|483:99|323:104,1,216
400,10,86213,1,0,0:0:0:0:
512,207,86379,1,0,0:0:0:0:
263,25,86546,1,0,0:0:0:0:
497,76,86713,1,0,0:0:0:0:
169,284,87046,6,0,B|275:243|275:324|382:284,1,216
343,124,87713,2,0,P|325:177|326:209,1,72
147,122,88046,2,0,P|182:126|215:140,1,72
60,238,88379,6,0,B|19:118|19:118|53:35,1,216
281,100,89046,2,0,P|219:130|135:116,1,144
0,241,89546,6,0,B|51:222|93:234|132:268|145:315|145:315|182:271|236:274,1,288
407,348,90379,2,0,P|369:311|348:279,1,72
486,145,90713,2,0,P|463:173|436:197,1,72
93,98,91046,5,0,0:0:0:0:
116,66,91129,1,0,0:0:0:0:
152,49,91213,1,0,0:0:0:0:
191,44,91296,1,0,0:0:0:0:
229,52,91379,1,0,0:0:0:0:
261,75,91463,1,0,0:0:0:0:
280,109,91546,1,0,0:0:0:0:
289,147,91629,1,0,0:0:0:0:
309,181,91713,1,0,0:0:0:0:
343,199,91796,1,0,0:0:0:0:
381,205,91879,1,0,0:0:0:0:
419,196,91963,1,0,0:0:0:0:
448,170,92046,2,0,P|461:144|467:115,1,53.9999983520508
352,277,92213,2,0,P|358:303|370:327,1,53.9999983520508
375,112,92379,5,0,0:0:0:0:
233,233,92546,1,0,0:0:0:0:
486,303,92713,2,0,L|479:240,1,53.9999983520508
328,190,92879,1,0,0:0:0:0:
265,350,93046,2,0,L|387:342,1,107.999996704102
138,276,93379,2,0,L|63:267,1,53.9999983520508
248,239,93546,1,0,0:0:0:0:
22,140,93713,6,0,P|88:131|133:104,1,107.999996704102
386,55,94046,2,0,P|352:42|324:35,1,53.9999983520508
233,67,94213,1,0,0:0:0:0:
367,246,94379,1,0,0:0:0:0:
491,74,94546,1,0,0:0:0:0:
234,196,94713,2,0,L|225:253,1,53.9999983520508
368,136,94879,1,0,0:0:0:0:
84,249,95046,6,0,P|117:296|134:353,1,107.999996704102
172,91,95379,2,0,P|160:115|150:149,1,53.9999983520508
73,25,95546,1,0,0:0:0:0:
273,162,95713,1,0,0:0:0:0:
266,18,95879,1,0,0:0:0:0:
62,157,96046,2,0,L|71:216,1,53.9999983520508
171,65,96213,1,0,0:0:0:0:
25,288,96379,5,0,0:0:0:0:
57,308,96463,1,0,0:0:0:0:
94,314,96546,1,0,0:0:0:0:
131,307,96629,1,0,0:0:0:0:
164,289,96713,1,0,0:0:0:0:
189,260,96796,1,0,0:0:0:0:
201,224,96879,1,0,0:0:0:0:
203,185,96963,1,0,0:0:0:0:
190,149,97046,1,0,0:0:0:0:
165,184,97129,1,0,0:0:0:0:
140,220,97213,1,0,0:0:0:0:
115,255,97296,1,0,0:0:0:0:
91,290,97379,1,0,0:0:0:0:
134,287,97463,1,0,0:0:0:0:
176,284,97546,1,0,0:0:0:0:
218,281,97629,1,0,0:0:0:0:
261,279,97713,6,0,P|284:317|301:382,1,107.999996704102
377,226,98046,2,0,P|392:181|406:157,1,53.9999983520508
462,335,98213,1,0,0:0:0:0:
274,167,98379,1,0,0:0:0:0:
503,222,98546,1,0,0:0:0:0:
235,277,98713,2,0,L|162:265,1,53.9999983520508
342,333,98879,1,0,0:0:0:0:
321,73,99046,5,0,0:0:0:0:
180,166,99213,1,0,0:0:0:0:
398,156,99379,2,0,P|441:148|463:137,1,53.9999983520508
204,56,99546,1,0,0:0:0:0:
288,234,99713,1,0,0:0:0:0:
392,29,99879,1,0,0:0:0:0:
156,178,100046,2,0,P|144:222|148:253,1,53.9999983520508
39,44,100213,1,0,0:0:0:0:
95,331,100379,6,0,L|220:320,1,107.999996704102
359,236,100713,2,0,L|282:224,1,53.9999983520508
443,338,100879,1,0,0:0:0:0:
382,134,101046,1,0,0:0:0:0:
285,365,101213,1,0,0:0:0:0:
509,232,101379,2,0,L|450:219,1,53.9999983520508
213,264,101546,1,0,0:0:0:0:
461,328,101713,5,0,0:0:0:0:
472,292,101796,1,0,0:0:0:0:
477,254,101879,1,0,0:0:0:0:
476,215,101963,1,0,0:0:0:0:
467,178,102046,1,0,0:0:0:0:
449,144,102129,1,0,0:0:0:0:
424,114,102213,1,0,0:0:0:0:
393,91,102296,1,0,0:0:0:0:
358,76,102379,6,0,L|272:85,1,67.5000025749208
227,137,102629,2,0,L|139:121,1,67.5000025749208
84,167,102879,1,0,0:0:0:0:
388,242,103046,5,0,0:0:0:0:
208,43,103213,1,0,0:0:0:0:
260,221,103379,1,0,0:0:0:0:
382,19,103546,1,0,0:0:0:0:
99,73,103713,1,0,0:0:0:0:
308,111,103879,1,0,0:0:0:0:
39,194,104046,5,0,0:0:0:0:
39,194,104129,1,0,0:0:0:0:
39,194,104213,1,0,0:0:0:0:
216,25,104379,1,0,0:0:0:0:
138,304,104546,1,0,0:0:0:0:
112,85,104713,1,0,0:0:0:0:
268,127,104879,1,0,0:0:0:0:
19,336,105046,5,0,0:0:0:0:
19,336,105129,1,0,0:0:0:0:
19,336,105213,2,0,P|5:288|4:265,1,53.9999983520508
169,165,105379,2,0,L|162:232,1,53.9999983520508
4,89,105546,1,0,0:0:0:0:
360,49,105713,5,0,0:0:0:0:
269,156,105879,1,0,0:0:0:0:
470,194,106046,1,0,0:0:0:0:
470,194,106129,1,0,0:0:0:0:
470,194,106213,2,0,P|490:242|486:304,1,107.999996704102
362,258,106546,1,0,0:0:0:0:
178,350,106713,5,0,0:0:0:0:
140,344,106796,1,0,0:0:0:0:
102,339,106879,1,0,0:0:0:0:
243,256,107046,1,0,0:0:0:0:
64,160,107213,1,0,0:0:0:0:
214,78,107379,1,0,0:0:0:0:
214,78,107463,1,0,0:0:0:0:
214,78,107546,1,0,0:0:0:0:
278,346,107713,5,0,0:0:0:0:
129,251,107879,1,0,0:0:0:0:
454,145,108046,1,0,0:0:0:0:
417,295,108213,1,0,0:0:0:0:
273,28,108379,5,0,0:0:0:0:
209,177,108546,1,0,0:0:0:0:
370,157,108713,1,0,0:0:0:0:
76,272,108879,1,0,0:0:0:0:
231,315,109046,1,0,0:0:0:0:
189,158,109213,1,0,0:0:0:0:
478,269,109379,5,0,0:0:0:0:
325,338,109546,1,0,0:0:0:0:
484,171,109713,1,0,0:0:0:0:
167,171,109879,1,0,0:0:0:0:
386,115,110046,1,0,0:0:0:0:
126,71,110213,1,0,0:0:0:0:
387,237,110379,6,0,P|386:282|382:297,1,53.9999983520508
263,101,110546,2,0,P|258:74|259:47,1,53.9999983520508
487,86,110713,1,0,0:0:0:0:
266,216,110879,1,0,0:0:0:0:
376,19,111046,6,0,L|374:93,1,53.9999983520508
376,261,111213,1,0,0:0:0:0:
131,116,111379,1,0,0:0:0:0:
131,116,111463,1,0,0:0:0:0:
131,116,111546,2,0,P|203:96|245:96,1,107.999996704102
254,318,111879,1,0,0:0:0:0:
15,184,112046,6,0,L|21:115,1,53.9999983520508
248,200,112213,1,0,0:0:0:0:
125,324,112379,1,0,0:0:0:0:
391,253,112546,1,0,0:0:0:0:
245,363,112713,2,0,L|245:298,1,53.9999983520508
251,120,112879,1,0,0:0:0:0:
58,242,113046,5,0,0:0:0:0:
495,312,113379,5,0,0:0:0:0:
140,304,113713,5,0,0:0:0:0:
205,92,113879,1,0,0:0:0:0:
262,341,114046,1,0,0:0:0:0:
0,270,114213,5,0,0:0:0:0:
342,236,114379,1,0,0:0:0:0:
150,333,114546,1,0,0:0:0:0:
208,58,114713,5,0,0:0:0:0:
357,261,114879,1,0,0:0:0:0:
188,215,115046,1,0,0:0:0:0:
510,174,115213,5,0,0:0:0:0:
256,298,115379,1,0,0:0:0:0:
362,140,115546,1,0,0:0:0:0:
68,101,115713,5,0,0:0:0:0:
495,276,116046,5,0,0:0:0:0:
69,288,116379,5,0,0:0:0:0:
283,179,116546,1,0,0:0:0:0:
129,136,116713,1,0,0:0:0:0:
392,358,116879,5,0,0:0:0:0:
364,98,117046,1,0,0:0:0:0:
210,263,117213,1,0,0:0:0:0:
512,205,117379,5,0,0:0:0:0:
269,95,117546,1,0,0:0:0:0:
324,281,117713,1,0,0:0:0:0:
453,19,117879,5,0,0:0:0:0:
188,151,118046,1,0,0:0:0:0:
402,204,118213,1,0,0:0:0:0:
85,49,118379,5,0,0:0:0:0:
73,67,118463,1,0,0:0:0:0:
63,86,118546,1,0,0:0:0:0:
54,105,118629,1,0,0:0:0:0:
47,125,118713,1,0,0:0:0:0:
40,145,118796,1,0,0:0:0:0:
35,166,118879,1,0,0:0:0:0:
31,187,118963,1,0,0:0:0:0:
29,208,119046,5,0,0:0:0:0:
284,174,119213,1,0,0:0:0:0:
176,321,119379,1,0,0:0:0:0:
230,32,119546,5,0,0:0:0:0:
330,269,119713,1,0,0:0:0:0:
156,151,119879,1,0,0:0:0:0:
490,107,120046,5,0,0:0:0:0:
240,266,120213,1,0,0:0:0:0:
301,87,120379,1,0,0:0:0:0:
401,370,120546,5,0,0:0:0:0:
235,167,120713,1,0,0:0:0:0:
398,194,120879,1,0,0:0:0:0:
55,333,121046,5,0,0:0:0:0:
504,244,121379,5,0,0:0:0:0:
38,100,121713,5,0,0:0:0:0:
242,199,121879,1,0,0:0:0:0:
244,51,122046,1,0,0:0:0:0:
0,262,122213,5,0,0:0:0:0:
230,323,122379,1,0,0:0:0:0:
188,119,122546,1,0,0:0:0:0:
38,364,122713,5,0,0:0:0:0:
211,217,122879,1,0,0:0:0:0:
51,166,123046,1,0,0:0:0:0:
318,365,123213,5,0,0:0:0:0:
331,127,123379,1,0,0:0:0:0:
118,235,123546,1,0,0:0:0:0:
474,261,123713,5,0,0:0:0:0:
492,234,123796,1,0,0:0:0:0:
500,202,123879,1,0,0:0:0:0:
502,169,123963,1,0,0:0:0:0:
500,136,124046,1,0,0:0:0:0:
491,104,124129,1,0,0:0:0:0:
477,74,124213,1,0,0:0:0:0:
456,48,124296,1,0,0:0:0:0:
430,27,124379,6,0,B|388:50|388:50|343:46|343:46|300:69,2,135
155,58,125046,2,0,B|196:80|196:80|241:76|241:76|284:99,2,135
393,164,125713,5,0,0:0:0:0:
123,225,125879,2,0,B|171:179|171:179|285:202|285:202|315:269,1,251.999992309571
203,331,126379,1,0,0:0:0:0:
431,230,126546,2,0,L|444:89,1,125.999996154785
399,347,126879,1,0,0:0:0:0:
347,60,127046,6,0,B|284:45|284:45|226:78,1,125.999996154785
53,194,127379,2,0,B|106:224|106:224|169:210,1,125.999996154785
306,155,127713,1,0,0:0:0:0:
120,83,127879,1,0,0:0:0:0:
240,294,128046,1,0,0:0:0:0:
426,222,128212,1,0,0:0:0:0:
247,72,128379,6,0,B|126:11|126:132|5:72,1,251.999992309571
187,161,128879,1,0,0:0:0:0:
30,218,129046,2,0,L|45:365,1,125.999996154785
323,243,129379,2,0,L|261:234,1,62.9999980773926
136,311,129546,2,0,L|198:302,1,62.9999980773926
376,335,129713,5,0,0:0:0:0:
398,312,129796,1,0,0:0:0:0:
417,287,129879,1,0,0:0:0:0:
431,258,129963,1,0,0:0:0:0:
441,228,130046,1,0,0:0:0:0:
448,197,130129,1,0,0:0:0:0:
452,165,130213,1,0,0:0:0:0:
449,133,130296,1,0,0:0:0:0:
440,102,130379,5,0,0:0:0:0:
406,131,130463,1,0,0:0:0:0:
365,148,130546,1,0,0:0:0:0:
321,147,130629,1,0,0:0:0:0:
279,130,130713,1,0,0:0:0:0:
249,97,130796,1,0,0:0:0:0:
206,87,130879,1,0,0:0:0:0:
163,98,130963,1,0,0:0:0:0:
128,124,131046,6,0,L|135:205,1,62.9999980773926
195,279,131213,2,0,L|54:267,1,125.999996154785
307,360,131546,1,0,0:0:0:0:
307,360,131629,1,0,0:0:0:0:
307,360,131713,2,0,P|329:284|310:219,1,125.999996154785
215,117,132046,1,0,0:0:0:0:
179,307,132213,1,0,0:0:0:0:
397,174,132379,5,0,0:0:0:0:
127,155,132546,1,0,0:0:0:0:
346,61,132713,1,0,0:0:0:0:
331,271,132879,1,0,0:0:0:0:
189,43,133046,1,0,0:0:0:0:
204,62,133129,1,0,0:0:0:0:
217,83,133213,1,0,0:0:0:0:
226,106,133296,1,0,0:0:0:0:
269,119,133379,1,0,0:0:0:0:
254,138,133462,1,0,0:0:0:0:
241,159,133546,1,0,0:0:0:0:
232,182,133629,1,0,0:0:0:0:
227,206,133713,6,0,P|224:258|229:285,1,62.9999980773926
383,285,133879,2,0,B|300:262|300:262|138:311,1,251.999992309571
307,368,134379,1,0,0:0:0:0:
136,216,134546,1,0,0:0:0:0:
333,169,134713,1,0,0:0:0:0:
149,356,134879,1,0,0:0:0:0:
38,92,135046,5,0,0:0:0:0:
66,78,135129,1,0,0:0:0:0:
97,72,135213,1,0,0:0:0:0:
128,75,135296,1,0,0:0:0:0:
157,86,135379,1,0,0:0:0:0:
183,103,135463,1,0,0:0:0:0:
203,126,135546,1,0,0:0:0:0:
218,153,135629,1,0,0:0:0:0:
192,180,135713,1,0,0:0:0:0:
212,218,135796,1,0,0:0:0:0:
246,245,135879,1,0,0:0:0:0:
287,261,135963,1,0,0:0:0:0:
330,264,136046,1,0,0:0:0:0:
372,252,136129,1,0,0:0:0:0:
406,224,136213,1,0,0:0:0:0:
432,188,136296,1,0,0:0:0:0:
444,145,136379,5,0,0:0:0:0:
447,170,136463,1,0,0:0:0:0:
453,194,136546,1,0,0:0:0:0:
460,217,136629,1,0,0:0:0:0:
469,240,136713,2,0,L|464:288,1,45
356,146,136879,2,0,L|351:98,1,45
335,294,137046,2,0,L|330:342,1,45
234,193,137213,1,0,0:0:0:0:
211,214,137296,1,0,0:0:0:0:
179,214,137379,1,0,0:0:0:0:
140,186,137463,1,0,0:0:0:0:
112,201,137546,1,0,0:0:0:0:
88,221,137629,1,0,0:0:0:0:
70,247,137713,1,0,0:0:0:0:
227,319,137879,5,0,0:0:0:0:
227,319,137963,1,0,0:0:0:0:
227,319,138046,1,0,0:0:0:0:
187,105,138213,1,0,0:0:0:0:
10,204,138379,1,0,0:0:0:0:
40,211,138463,1,0,0:0:0:0:
70,218,138546,1,0,0:0:0:0:
276,197,138713,1,0,0:0:0:0:
77,111,138879,1,0,0:0:0:0:
184,289,139046,5,0,0:0:0:0:
184,289,139129,1,0,0:0:0:0:
184,289,139213,1,0,0:0:0:0:
249,84,139379,1,0,0:0:0:0:
249,84,139463,1,0,0:0:0:0:
249,84,139546,1,0,0:0:0:0:
386,232,139713,1,0,0:0:0:0:
386,232,139796,1,0,0:0:0:0:
386,232,139879,1,0,0:0:0:0:
164,188,140046,1,0,0:0:0:0:
351,25,140213,2,0,L|369:129,1,90
256,264,140546,5,0,0:0:0:0:
450,152,140713,1,0,0:0:0:0:
175,154,140879,1,0,0:0:0:0:
387,302,141046,1,0,0:0:0:0:
391,270,141129,1,0,0:0:0:0:
395,238,141213,1,0,0:0:0:0:
312,109,141379,1,0,0:0:0:0:
169,256,141546,2,0,L|275:240,1,90
75,176,141879,5,0,0:0:0:0:
308,315,142046,1,0,0:0:0:0:
12,303,142213,1,0,0:0:0:0:
229,103,142379,2,0,L|233:156,2,45
137,295,142713,2,0,L|141:250,3,30
430,294,143046,5,0,0:0:0:0:
161,186,143213,1,0,0:0:0:0:
324,80,143379,2,0,L|334:193,1,90
184,316,143713,1,0,0:0:0:0:
184,316,143796,1,0,0:0:0:0:
184,316,143879,1,0,0:0:0:0:
60,204,144046,1,0,0:0:0:0:
312,262,144213,1,0,0:0:0:0:
61,331,144379,5,0,0:0:0:0:
61,331,144463,1,0,0:0:0:0:
61,331,144546,1,0,0:0:0:0:
180,147,144713,1,0,0:0:0:0:
180,147,144796,1,0,0:0:0:0:
180,147,144879,1,0,0:0:0:0:
389,266,145046,2,0,L|328:278,1,45
231,242,145213,1,0,0:0:0:0:
395,129,145379,1,0,0:0:0:0:
266,351,145546,2,0,L|168:336,1,90
30,232,145879,5,0,0:0:0:0:
30,232,145963,1,0,0:0:0:0:
30,232,146046,1,0,0:0:0:0:
237,174,146213,1,0,0:0:0:0:
117,56,146379,1,0,0:0:0:0:
112,87,146463,1,0,0:0:0:0:
107,118,146546,1,0,0:0:0:0:
166,271,146713,1,0,0:0:0:0:
351,183,146879,2,0,P|310:165|248:159,1,90
480,119,147213,5,0,0:0:0:0:
176,187,147379,1,0,0:0:0:0:
362,272,147546,1,0,0:0:0:0:
310,32,147713,2,0,L|304:65,3,30
126,76,148046,1,0,0:0:0:0:
143,101,148129,1,0,0:0:0:0:
158,128,148213,1,0,0:0:0:0:
169,157,148296,1,0,0:0:0:0:
176,187,148379,6,0,L|83:180,1,72
275,277,148713,2,0,L|368:270,1,72
292,72,149046,2,0,L|299:165,1,72
478,135,149379,2,0,L|486:94,1,36
408,45,149546,6,0,B|337:18|337:73|265:45,1,144
87,137,150046,2,0,P|145:141|176:149,1,72
268,230,150379,1,0,0:0:0:0:
72,295,150546,1,0,0:0:0:0:
249,56,150713,2,0,L|261:150,1,72
11,205,151046,6,0,B|58:219|111:203|141:162|141:162|117:235|173:309|241:253|297:276|319:350,1,432
486,254,152213,2,0,B|431:253|378:287|378:287|348:235|294:203|234:198,1,288
401,157,153046,1,0,0:0:0:0:
457,335,153213,1,0,0:0:0:0:
164,232,153379,1,0,0:0:0:0:
164,232,153713,6,0,P|104:239|22:285,1,144
241,353,154213,1,0,0:0:0:0:
308,231,154379,2,0,P|322:194|326:155,1,72
417,39,154713,2,0,P|421:74|435:108,1,72
184,20,155046,6,0,P|228:53|327:62,1,144
131,114,155546,1,0,0:0:0:0:
272,167,155713,2,0,L|286:259,1,72
304,359,156046,1,0,0:0:0:0:
160,268,156213,1,0,0:0:0:0:
465,197,156379,6,0,B|433:207|407:235|407:235|396:202|396:202|356:186|356:186|370:150|356:119|356:119|315:136|260:127,1,288
302,18,157213,1,0,0:0:0:0:
443,115,157379,1,0,0:0:0:0:
274,211,157546,6,0,B|203:238|203:183|131:211,1,144
335,335,158046,2,0,P|354:291|356:260,1,72
216,71,158379,2,0,P|221:106|237:138,1,72
483,157,158713,1,0,0:0:0:0:
483,157,159046,6,0,P|410:127|335:132,1,144
238,248,159546,1,0,0:0:0:0:
376,333,159713,2,0,L|393:240,1,72
154,65,160046,2,0,L|155:112,1,36
236,149,160213,6,0,B|286:141|286:141|326:147|326:147|384:136,1,144
334,33,160713,1,0,0:0:0:0:
291,238,160879,1,0,0:0:0:0:
482,191,161046,2,0,P|494:127|489:106,1,72
254,119,161379,1,0,0:0:0:0:
420,279,161546,1,0,0:0:0:0:
163,206,161713,6,0,B|195:136|286:131|333:194|312:263|312:263|300:309|338:351|412:348|421:271,1,432
414,141,162879,2,0,B|372:143|339:170|339:170|311:121|251:105|204:124|204:124|164:89|137:95,1,288
245,223,163713,1,0,0:0:0:0:
354,70,163879,1,0,0:0:0:0:
134,186,164046,1,0,0:0:0:0:
134,186,164379,6,0,P|119:267|129:334,1,144
261,294,164879,1,0,0:0:0:0:
28,205,165046,2,0,P|8:150|4:123,1,72
227,45,165379,2,0,P|218:79|204:113,1,72
330,257,165713,6,0,P|332:199|444:235,1,216
247,329,166379,2,0,L|90:312,1,144
21,166,166879,2,0,B|61:168|99:190|99:190|109:152|146:132|146:132|108:63|153:2,1,288
304,88,167713,2,0,P|258:83|230:72,1,72
377,175,168046,2,0,P|423:170|451:159,1,72
307,302,168379,5,0,0:0:0:0:
285,282,168463,1,0,0:0:0:0:
260,267,168546,1,0,0:0:0:0:
233,256,168629,1,0,0:0:0:0:
205,247,168713,1,0,0:0:0:0:
176,241,168796,1,0,0:0:0:0:
147,240,168879,1,0,0:0:0:0:
118,244,168963,1,0,0:0:0:0:
90,253,169046,1,0,0:0:0:0:
10,95,169213,5,0,0:0:0:0:
45,125,169296,1,0,0:0:0:0:
89,137,169379,1,0,0:0:0:0:
133,122,169463,1,0,0:0:0:0:
169,93,169546,1,0,0:0:0:0:
215,94,169629,1,0,0:0:0:0:
254,120,169713,6,0,L|266:235,1,107.999996704102
512,144,170046,2,0,P|491:130|463:121,1,53.9999983520508
352,188,170213,1,0,0:0:0:0:
217,319,170379,2,0,L|335:319,1,107.999996704102
67,205,170713,2,0,P|46:235|36:268,1,53.9999983520508
98,363,170879,1,0,0:0:0:0:
203,212,171046,6,0,P|218:151|215:99,1,107.999996704102
386,233,171379,2,0,P|378:258|366:283,1,53.9999983520508
338,125,171546,1,0,0:0:0:0:
480,31,171713,2,0,L|462:154,1,107.999996704102
224,189,172046,2,0,L|217:123,1,53.9999983520508
195,304,172213,1,0,0:0:0:0:
43,184,172379,6,0,P|17:249|15:306,1,107.999996704102
249,313,172713,2,0,L|183:302,1,53.9999983520508
93,363,172879,1,0,0:0:0:0:
349,365,173046,2,0,L|462:349,1,107.999996704102
358,197,173379,2,0,P|341:237|337:274,1,53.9999983520508
488,243,173546,1,0,0:0:0:0:
450,83,173713,5,0,0:0:0:0:
420,59,173796,1,0,0:0:0:0:
383,49,173879,1,0,0:0:0:0:
344,50,173963,1,0,0:0:0:0:
309,63,174046,1,0,0:0:0:0:
282,89,174129,1,0,0:0:0:0:
264,123,174213,1,0,0:0:0:0:
260,160,174296,1,0,0:0:0:0:
229,137,174379,1,0,0:0:0:0:
198,114,174463,1,0,0:0:0:0:
167,91,174546,1,0,0:0:0:0:
136,68,174629,1,0,0:0:0:0:
105,45,174713,1,0,0:0:0:0:
95,81,174796,1,0,0:0:0:0:
86,117,174879,1,0,0:0:0:0:
77,154,174963,1,0,0:0:0:0:
68,190,175046,6,0,P|30:137|11:89,1,107.999996704102
182,223,175379,2,0,P|176:265|162:301,1,53.9999983520508
73,354,175546,1,0,0:0:0:0:
156,113,175713,2,0,P|211:101|269:107,1,107.999996704102
350,240,176046,2,0,P|318:215|298:190,1,53.9999983520508
417,111,176213,1,0,0:0:0:0:
502,219,176379,6,0,L|488:359,1,107.999996704102
185,272,176713,2,0,L|248:262,1,53.9999983520508
352,354,176879,1,0,0:0:0:0:
63,324,177046,2,0,P|58:246|81:203,1,107.999996704102
219,140,177379,2,0,P|186:176|159:187,1,53.9999983520508
77,92,177546,1,0,0:0:0:0:
316,67,177713,6,0,L|331:199,1,107.999996704102
204,281,178046,2,0,L|279:275,1,53.9999983520508
373,333,178213,1,0,0:0:0:0:
118,357,178379,2,0,P|50:341|12:318,1,107.999996704102
37,81,178713,2,0,P|60:111|74:144,1,53.9999983520508
104,231,178879,1,0,0:0:0:0:
211,84,179046,5,0,0:0:0:0:
244,66,179129,1,0,0:0:0:0:
281,61,179213,1,0,0:0:0:0:
318,64,179296,1,0,0:0:0:0:
353,75,179379,1,0,0:0:0:0:
384,95,179463,1,0,0:0:0:0:
406,125,179546,1,0,0:0:0:0:
421,159,179629,1,0,0:0:0:0:
429,196,179713,6,0,L|508:182,1,67.5000025749208
361,255,179963,2,0,L|282:241,1,67.5000025749208
439,305,180213,1,0,0:0:0:0:
191,308,180379,5,0,0:0:0:0:
275,163,180546,1,0,0:0:0:0:
78,259,180713,1,0,0:0:0:0:
78,259,180796,1,0,0:0:0:0:
78,259,180879,1,0,0:0:0:0:
290,348,181046,1,0,0:0:0:0:
181,205,181213,1,0,0:0:0:0:
26,340,181379,5,0,0:0:0:0:
275,248,181546,1,0,0:0:0:0:
153,108,181713,1,0,0:0:0:0:
171,313,181879,1,0,0:0:0:0:
371,219,182046,1,0,0:0:0:0:
163,206,182213,1,0,0:0:0:0:
356,322,182379,5,0,0:0:0:0:
356,322,182463,1,0,0:0:0:0:
356,322,182546,2,0,L|436:312,1,53.9999983520508
469,174,182713,2,0,L|479:254,1,53.9999983520508
351,198,182879,1,0,0:0:0:0:
461,59,183046,5,0,0:0:0:0:
470,263,183213,1,0,0:0:0:0:
297,83,183379,1,0,0:0:0:0:
297,83,183463,1,0,0:0:0:0:
297,83,183546,1,0,0:0:0:0:
434,160,183713,1,0,0:0:0:0:
320,311,183879,1,0,0:0:0:0:
186,132,184046,5,0,0:0:0:0:
186,132,184129,1,0,0:0:0:0:
186,132,184213,1,0,0:0:0:0:
380,234,184379,1,0,0:0:0:0:
127,244,184546,1,0,0:0:0:0:
271,197,184713,1,0,0:0:0:0:
271,197,184796,1,0,0:0:0:0:
271,197,184879,1,0,0:0:0:0:
218,357,185046,6,0,L|159:351,1,53.9999983520508
61,338,185213,1,0,0:0:0:0:
146,87,185379,2,0,L|140:146,1,53.9999983520508
127,244,185546,1,0,0:0:0:0:
245,109,185713,5,0,0:0:0:0:
61,177,185879,1,0,0:0:0:0:
316,214,186046,1,0,0:0:0:0:
316,214,186129,1,0,0:0:0:0:
316,214,186213,1,0,0:0:0:0:
309,30,186379,1,0,0:0:0:0:
191,228,186546,1,0,0:0:0:0:
376,295,186713,5,0,0:0:0:0:
415,128,186879,1,0,0:0:0:0:
257,318,187046,1,0,0:0:0:0:
479,283,187213,1,0,0:0:0:0:
211,203,187379,1,0,0:0:0:0:
211,203,187463,1,0,0:0:0:0:
211,203,187546,1,0,0:0:0:0:
376,322,187713,6,0,P|391:288|398:257,1,53.9999983520508
402,171,187879,1,0,0:0:0:0:
273,26,188046,2,0,L|285:98,1,53.9999983520508
301,181,188213,1,0,0:0:0:0:
164,82,188379,5,0,0:0:0:0:
386,71,188546,1,0,0:0:0:0:
155,206,188713,1,0,0:0:0:0:
155,206,188796,1,0,0:0:0:0:
155,206,188879,2,0,P|97:195|46:167,1,107.999996704102
281,79,189213,1,0,0:0:0:0:
296,252,189379,6,0,L|285:369,1,107.999996704102
417,302,189713,1,0,0:0:0:0:
176,236,189879,1,0,0:0:0:0:
332,159,190046,1,0,0:0:0:0:
332,159,190129,1,0,0:0:0:0:
332,159,190213,1,0,0:0:0:0:
177,342,190379,6,0,B|116:329|116:329|75:281,1,125.999996154785
376,235,190713,2,0,B|436:247|436:247|477:295,1,125.999996154785
229,199,191046,5,0,0:0:0:0:
433,137,191213,1,0,0:0:0:0:
313,326,191379,1,0,0:0:0:0:
123,172,191546,5,0,0:0:0:0:
383,235,191713,1,0,0:0:0:0:
102,315,191879,1,0,0:0:0:0:
136,69,192046,5,0,0:0:0:0:
233,249,192213,1,0,0:0:0:0:
14,136,192379,1,0,0:0:0:0:
331,176,192546,5,0,0:0:0:0:
194,357,192713,1,0,0:0:0:0:
214,108,192879,1,0,0:0:0:0:
462,236,193046,5,0,0:0:0:0:
39,319,193379,5,0,0:0:0:0:
347,350,193713,5,0,0:0:0:0:
167,215,193879,1,0,0:0:0:0:
413,218,194046,1,0,0:0:0:0:
170,353,194213,5,0,0:0:0:0:
125,112,194379,1,0,0:0:0:0:
287,271,194546,1,0,0:0:0:0:
35,284,194713,5,0,0:0:0:0:
252,112,194879,1,0,0:0:0:0:
350,358,195046,1,0,0:0:0:0:
152,172,195213,5,0,0:0:0:0:
454,238,195379,1,0,0:0:0:0:
180,338,195546,1,0,0:0:0:0:
342,88,195713,5,0,0:0:0:0:
340,109,195796,1,0,0:0:0:0:
337,130,195879,1,0,0:0:0:0:
332,151,195963,1,0,0:0:0:0:
326,171,196046,1,0,0:0:0:0:
317,190,196129,1,0,0:0:0:0:
306,209,196213,1,0,0:0:0:0:
294,227,196296,1,0,0:0:0:0:
280,243,196379,5,0,0:0:0:0:
125,209,196546,1,0,0:0:0:0:
318,349,196713,1,0,0:0:0:0:
411,180,196879,5,0,0:0:0:0:
124,325,197046,1,0,0:0:0:0:
401,269,197213,1,0,0:0:0:0:
291,71,197379,5,0,0:0:0:0:
246,272,197546,1,0,0:0:0:0:
465,86,197713,1,0,0:0:0:0:
166,153,197879,5,0,0:0:0:0:
356,190,198046,1,0,0:0:0:0:
132,32,198213,1,0,0:0:0:0:
484,182,198379,5,0,0:0:0:0:
51,248,198713,5,0,0:0:0:0:
376,302,199046,5,0,0:0:0:0:
179,196,199213,1,0,0:0:0:0:
396,131,199379,1,0,0:0:0:0:
181,313,199546,5,0,0:0:0:0:
86,120,199713,1,0,0:0:0:0:
346,215,199879,1,0,0:0:0:0:
52,222,200046,5,0,0:0:0:0:
207,48,200213,1,0,0:0:0:0:
295,309,200379,1,0,0:0:0:0:
165,156,200546,5,0,0:0:0:0:
444,226,200713,1,0,0:0:0:0:
150,305,200879,1,0,0:0:0:0:
314,53,201046,5,0,0:0:0:0:
335,54,201129,1,0,0:0:0:0:
356,57,201213,1,0,0:0:0:0:
376,62,201296,1,0,0:0:0:0:
396,68,201379,1,0,0:0:0:0:
415,76,201463,1,0,0:0:0:0:
433,86,201546,1,0,0:0:0:0:
450,98,201629,1,0,0:0:0:0:
468,110,201713,6,0,B|467:159|467:159|444:194|444:194|444:243,2,135
371,337,202379,2,0,B|371:291|371:291|348:256|348:256|348:208,2,135
256,192,202963,12,0,204213,0:0:0:0:
102,108,204379,5,0,0:0:0:0:
66,297,204546,1,0,0:0:0:0:
201,203,204713,2,0,L|127:214,1,67.5000025749208
270,285,205046,2,0,L|344:296,1,67.5000025749208
474,182,205379,5,0,0:0:0:0:
251,97,205546,1,0,0:0:0:0:
365,21,205713,2,0,P|381:60|383:94,1,67.5000025749208
313,265,206046,2,0,P|317:231|331:201,1,67.5000025749208
437,284,206379,5,0,0:0:0:0:
215,326,206546,1,0,0:0:0:0:
218,132,206713,2,0,L|232:213,1,67.5000025749208
97,318,207046,2,0,L|108:251,1,67.5000025749208
132,75,207379,5,0,0:0:0:0:
202,288,207546,1,0,0:0:0:0:
282,127,207713,2,0,L|293:48,1,67.5000025749208
347,208,208046,2,0,L|356:274,1,67.5000025749208
206,183,208379,5,0,0:0:0:0:
428,134,208546,1,0,0:0:0:0:
270,53,208713,2,0,P|229:46|196:47,1,67.5000025749208
59,126,209046,2,0,P|92:125|125:119,1,67.5000025749208
328,237,209379,5,0,0:0:0:0:
103,217,209546,1,0,0:0:0:0:
171,321,209713,2,0,L|244:309,1,67.5000025749208
394,247,210046,2,0,L|327:236,1,67.5000025749208
135,140,210379,5,0,0:0:0:0:
381,105,210546,1,0,0:0:0:0:
260,20,210713,2,0,P|252:57|254:96,1,67.5000025749208
157,233,211046,2,0,P|157:199|149:166,1,67.5000025749208
31,56,211379,5,0,0:0:0:0:
74,295,211546,1,0,0:0:0:0:
247,255,211713,2,0,L|175:236,1,67.5000025749208
314,347,212046,1,0,0:0:0:0:
436,202,212213,1,0,0:0:0:0:
319,52,212379,6,0,P|303:114|304:141,1,67.5000025749208
196,126,212713,2,0,P|257:108|280:94,1,67.5000025749208
322,200,213046,2,0,P|276:155|252:142,1,67.5000025749208
76,229,213379,1,0,0:0:0:0:
76,229,213546,1,0,0:0:0:0:
76,229,214046,6,0,L|152:221,1,67.5000025749208
345,305,214379,1,0,0:0:0:0:
345,305,214546,1,0,0:0:0:0:
345,305,215046,2,0,P|366:261|371:229,1,67.5000025749208
332,70,215379,1,0,0:0:0:0:
332,70,215546,1,0,0:0:0:0:
332,70,216046,2,0,L|259:60,1,67.5000025749208
65,174,216379,6,0,B|95:195|95:195|135:201,1,67.5000025749208
286,180,216713,2,0,B|252:195|252:195|227:227,1,67.5000025749208
174,357,217046,2,0,B|177:320|177:320|162:282,1,67.5000025749208
196,103,217379,1,0,0:0:0:0:
196,103,217546,1,0,0:0:0:0:
196,103,218046,6,0,P|249:114|276:113,1,67.5000025749208
37,130,218379,1,0,0:0:0:0:
37,130,218546,1,0,0:0:0:0:
37,130,219046,2,0,P|83:116|114:115,1,67.5000025749208
321,177,219379,1,0,0:0:0:0:
321,177,219546,1,0,0:0:0:0:
321,177,220046,2,0,L|308:254,1,67.5000025749208
434,93,220379,5,0,0:0:0:0:
434,93,220546,1,0,0:0:0:0:
247,51,220713,2,0,L|329:42,1,67.5000025749208
199,132,221046,2,0,L|117:123,1,67.5000025749208
29,227,221379,1,0,0:0:0:0:
29,227,221546,1,0,0:0:0:0:
159,307,221713,6,0,P|206:291|238:271,1,67.5000025749208
325,209,222046,2,0,P|372:225|404:245,1,67.5000025749208
472,339,222379,1,0,0:0:0:0:
472,339,222546,1,0,0:0:0:0:
215,182,222713,6,0,P|200:131|200:94,1,67.5000025749208
341,40,223046,2,0,P|336:73|324:105,1,67.5000025749208
101,182,223379,1,0,0:0:0:0:
101,182,223546,1,0,0:0:0:0:
174,270,223879,1,0,0:0:0:0:
174,270,224046,2,0,L|249:257,1,67.5000025749208
417,292,224379,5,0,0:0:0:0:
417,292,224546,1,0,0:0:0:0:
484,178,224713,2,0,P|489:135|485:90,1,67.5000025749208
350,33,225046,2,0,P|349:66|354:100,1,67.5000025749208
261,199,225379,1,0,0:0:0:0:
261,199,225546,1,0,0:0:0:0:
109,112,225713,6,0,P|163:101|195:104,1,67.5000025749208
74,229,226046,2,0,P|40:227|7:218,1,67.5000025749208
28,44,226379,1,0,0:0:0:0:
28,44,226546,1,0,0:0:0:0:
183,230,226713,2,0,P|183:277|176:310,1,67.5000025749208
70,341,227046,5,0,0:0:0:0:
366,218,227379,1,0,0:0:0:0:
366,218,227546,1,0,0:0:0:0:
225,149,227713,1,0,0:0:0:0:
473,116,228046,1,0,0:0:0:0:
473,116,229046,5,0,0:0:0:0:
402,168,229213,1,0,0:0:0:0:
323,119,229379,2,0,P|268:106|222:110,1,90
86,232,230046,1,0,0:0:0:0:
262,334,230379,2,0,L|253:231,1,90
136,69,231046,6,0,L|133:111,4,22.5
199,181,231713,1,0,0:0:0:0:
65,329,232046,1,0,0:0:0:0:
145,316,232213,1,0,0:0:0:0:
224,303,232379,6,0,P|262:311|293:325,1,67.5000025749208
398,215,232713,2,0,P|360:223|329:237,1,67.5000025749208
504,249,233046,2,0,P|512:190|500:114,1,135.000005149842
253,29,233713,6,0,P|237:66|234:100,1,67.5000025749208
179,204,234046,2,0,P|174:170|159:140,1,67.5000025749208
62,197,234379,1,0,0:0:0:0:
51,270,234546,1,0,0:0:0:0:
41,343,234713,1,0,0:0:0:0:
41,343,235046,6,0,L|132:329,1,67.5000025749208
270,273,235379,2,0,L|179:259,1,67.5000025749208
343,179,235713,2,0,P|416:182|475:214,1,135.000005149842
373,289,236213,1,0,0:0:0:0:
248,154,236379,6,0,P|305:109|371:95,1,135.000005149842
273,253,236879,1,0,0:0:0:0:
156,198,237045,2,0,P|171:126|213:74,1,135.000005149842
208,78,237713,6,0,P|144:78|123:70,1,67.5000025749208
11,155,238046,2,0,P|75:155|96:163,1,67.5000025749208
192,288,238379,2,0,P|174:323|107:274,1,135.000005149842
104,289,239046,6,0,L|33:305,1,67.5000025749208
188,205,239379,2,0,L|259:221,1,67.5000025749208
382,294,239713,1,0,0:0:0:0:
406,224,239879,1,0,0:0:0:0:
431,154,240046,1,0,0:0:0:0:
478,211,240213,1,0,0:0:0:0:
358,166,240379,6,0,P|334:130|324:101,1,67.5000025749208
264,229,240713,2,0,P|251:260|231:287,1,67.5000025749208
94,101,241046,2,0,P|184:97|224:135,1,135.000005149842
142,183,241546,1,0,0:0:0:0:
195,262,241713,2,0,P|154:278|70:246,1,135
267,203,242379,6,0,P|317:225|357:273,1,90
456,227,242629,6,0,P|411:259|350:269,1,90
347,346,242879,6,0,P|335:290|340:264,1,53.9999983520508
384,166,243046,5,0,0:0:0:0:
450,333,243213,1,0,0:0:0:0:
248,307,243379,2,0,L|191:296,1,53.9999983520508
69,273,243546,1,0,0:0:0:0:
231,85,243713,2,0,P|252:161|244:210,1,107.999996704102
24,92,244046,2,0,L|88:100,1,53.9999983520508
147,191,244213,1,0,0:0:0:0:
54,328,244379,6,0,L|43:205,1,107.999996704102
261,327,244713,2,0,P|219:340|188:344,1,53.9999983520508
356,231,244879,1,0,0:0:0:0:
200,230,245046,1,0,0:0:0:0:
430,349,245213,1,0,0:0:0:0:
488,177,245379,2,0,L|493:122,1,53.9999983520508
365,49,245546,1,0,0:0:0:0:
195,145,245713,6,0,P|267:174|307:175,1,107.999996704102
146,39,246046,2,0,L|76:49,1,53.9999983520508
0,146,246213,1,0,0:0:0:0:
188,232,246379,1,0,0:0:0:0:
272,64,246546,1,0,0:0:0:0:
84,134,246713,2,0,P|79:171|83:206,1,53.9999983520508
121,335,246879,1,0,0:0:0:0:
302,326,247046,5,0,0:0:0:0:
324,295,247129,1,0,0:0:0:0:
339,260,247213,1,0,0:0:0:0:
346,223,247296,1,0,0:0:0:0:
344,185,247379,1,0,0:0:0:0:
334,147,247463,1,0,0:0:0:0:
317,113,247546,1,0,0:0:0:0:
292,84,247629,1,0,0:0:0:0:
259,64,247713,1,0,0:0:0:0:
259,101,247796,1,0,0:0:0:0:
259,138,247879,1,0,0:0:0:0:
259,176,247963,1,0,0:0:0:0:
259,213,248046,1,0,0:0:0:0:
295,204,248129,1,0,0:0:0:0:
332,195,248213,1,0,0:0:0:0:
368,187,248296,1,0,0:0:0:0:
404,179,248379,6,0,P|426:245|422:300,1,107.999996704102
161,251,248713,2,0,L|166:188,1,53.9999983520508
261,328,248879,1,0,0:0:0:0:
37,316,249046,2,0,L|20:198,1,107.999996704102
173,20,249379,2,0,P|158:77|139:105,1,53.9999983520508
99,172,249546,1,0,0:0:0:0:
20,55,249713,5,0,0:0:0:0:
261,132,249879,1,0,0:0:0:0:
96,259,250046,2,0,P|85:218|86:190,1,53.9999983520508
160,72,250213,1,0,0:0:0:0:
235,254,250379,2,0,P|226:331|208:372,1,107.999996704102
411,227,250713,2,0,L|344:213,1,53.9999983520508
302,82,250879,1,0,0:0:0:0:
492,172,251046,5,0,0:0:0:0:
339,313,251213,1,0,0:0:0:0:
229,149,251379,2,0,L|300:158,1,53.9999983520508
391,214,251546,1,0,0:0:0:0:
462,39,251713,2,0,P|400:54|355:80,1,107.999996704102
224,294,252046,2,0,P|238:247|239:206,1,53.9999983520508
165,112,252213,1,0,0:0:0:0:
29,176,252379,5,0,0:0:0:0:
22,196,252463,1,0,0:0:0:0:
19,217,252546,1,0,0:0:0:0:
18,238,252629,1,0,0:0:0:0:
18,259,252713,1,0,0:0:0:0:
21,280,252796,1,0,0:0:0:0:
26,300,252879,1,0,0:0:0:0:
32,320,252963,1,0,0:0:0:0:
42,339,253046,6,0,B|113:333|113:333|141:345,1,90
165,261,253296,2,0,B|182:268|182:268|253:262,1,90
329,319,253546,1,0,0:0:0:0:
299,148,253713,5,0,0:0:0:0:
226,354,253879,1,0,0:0:0:0:
416,220,254046,1,0,0:0:0:0:
416,220,254129,1,0,0:0:0:0:
416,220,254213,1,0,0:0:0:0:
194,166,254379,1,0,0:0:0:0:
319,279,254546,1,0,0:0:0:0:
278,82,254713,5,0,0:0:0:0:
278,82,254796,1,0,0:0:0:0:
278,82,254879,1,0,0:0:0:0:
92,163,255046,1,0,0:0:0:0:
373,155,255213,2,0,P|416:108|435:68,1,107.999996704102
220,22,255546,1,0,0:0:0:0:
181,216,255713,6,0,L|188:278,1,53.9999983520508
276,343,255879,2,0,L|282:289,1,53.9999983520508
297,195,256046,1,0,0:0:0:0:
410,286,256213,1,0,0:0:0:0:
171,362,256379,6,0,P|99:353|65:336,1,107.999996704102
118,134,256713,1,0,0:0:0:0:
118,134,256796,1,0,0:0:0:0:
118,134,256879,2,0,P|144:191|150:244,1,107.999996704102
21,220,257213,1,0,0:0:0:0:
173,50,257379,5,0,0:0:0:0:
239,182,257546,1,0,0:0:0:0:
29,73,257713,1,0,0:0:0:0:
341,139,257879,2,0,L|322:259,1,107.999996704102
127,146,258213,1,0,0:0:0:0:
321,27,258379,6,0,P|389:38|426:67,1,107.999996704102
127,146,258713,2,0,P|73:141|28:112,1,107.999996704102
210,40,259046,5,0,0:0:0:0:
254,238,259213,1,0,0:0:0:0:
383,182,259379,1,0,0:0:0:0:
383,182,259463,1,0,0:0:0:0:
383,182,259546,1,0,0:0:0:0:
144,233,259713,1,0,0:0:0:0:
264,340,259879,1,0,0:0:0:0:
240,140,260046,5,0,0:0:0:0:
66,163,260213,1,0,0:0:0:0:
293,251,260379,1,0,0:0:0:0:
339,62,260546,1,0,0:0:0:0:
161,236,260713,1,0,0:0:0:0:
161,236,260796,1,0,0:0:0:0:
161,236,260879,1,0,0:0:0:0:
375,170,261046,6,0,L|306:155,1,53.9999983520508
399,258,261213,2,0,L|451:246,1,53.9999983520508
500,171,261379,1,0,0:0:0:0:
308,247,261546,1,0,0:0:0:0:
182,143,261713,6,0,P|159:80|165:29,1,107.999996704102
90,258,262046,1,0,0:0:0:0:
90,258,262129,1,0,0:0:0:0:
90,258,262213,2,0,P|165:246|209:255,1,107.999996704102
299,340,262546,1,0,0:0:0:0:
168,163,262713,5,0,0:0:0:0:
168,163,262796,1,0,0:0:0:0:
168,163,262879,1,0,0:0:0:0:
372,229,263046,1,0,0:0:0:0:
161,293,263213,2,0,L|47:268,1,107.999996704102
271,196,263546,1,0,0:0:0:0:
135,54,263713,6,0,B|94:104|94:104|91:173,1,125.999996154785
213,378,264046,2,0,B|254:328|254:328|256:266,1,125.999996154785
259,106,264379,5,0,0:0:0:0:
133,268,264546,1,0,0:0:0:0:
391,192,264713,1,0,0:0:0:0:
83,168,264879,5,0,0:0:0:0:
262,289,265046,1,0,0:0:0:0:
192,38,265213,1,0,0:0:0:0:
176,226,265379,5,0,0:0:0:0:
358,105,265546,1,0,0:0:0:0:
58,173,265713,1,0,0:0:0:0:
207,333,265879,5,0,0:0:0:0:
261,143,266046,1,0,0:0:0:0:
54,329,266213,1,0,0:0:0:0:
380,197,266379,5,0,0:0:0:0:
19,87,266713,5,0,0:0:0:0:
473,78,267046,5,0,0:0:0:0:
342,283,267213,1,0,0:0:0:0:
291,122,267379,1,0,0:0:0:0:
493,268,267546,5,0,0:0:0:0:
225,225,267713,1,0,0:0:0:0:
419,165,267879,1,0,0:0:0:0:
271,344,268045,5,0,0:0:0:0:
167,136,268212,1,0,0:0:0:0:
403,281,268379,1,0,0:0:0:0:
136,318,268546,5,0,0:0:0:0:
256,49,268713,1,0,0:0:0:0:
319,230,268879,1,0,0:0:0:0:
50,212,269046,5,0,0:0:0:0:
39,193,269129,1,0,0:0:0:0:
29,173,269213,1,0,0:0:0:0:
23,152,269296,1,0,0:0:0:0:
18,131,269379,1,0,0:0:0:0:
14,109,269463,1,0,0:0:0:0:
11,87,269546,1,0,0:0:0:0:
12,65,269629,1,0,0:0:0:0:
15,43,269713,5,0,0:0:0:0:
47,62,269796,1,0,0:0:0:0:
83,72,269879,1,0,0:0:0:0:
120,76,269963,1,0,0:0:0:0:
157,74,270046,1,0,0:0:0:0:
193,63,270129,1,0,0:0:0:0:
226,45,270213,5,0,0:0:0:0:
214,69,270296,1,0,0:0:0:0:
203,93,270379,1,0,0:0:0:0:
194,118,270463,1,0,0:0:0:0:
186,143,270546,1,0,0:0:0:0:
178,168,270629,1,0,0:0:0:0:
171,194,270713,5,0,0:0:0:0:
210,176,270796,1,0,0:0:0:0:
252,168,270879,1,0,0:0:0:0:
295,167,270963,1,0,0:0:0:0:
337,174,271046,1,0,0:0:0:0:
377,188,271129,1,0,0:0:0:0:
416,206,271213,5,0,0:0:0:0:
406,231,271296,1,0,0:0:0:0:
390,253,271379,1,0,0:0:0:0:
368,269,271463,1,0,0:0:0:0:
344,281,271546,1,0,0:0:0:0:
318,290,271629,1,0,0:0:0:0:
290,292,271713,6,0,L|224:272,3,53.9999983520508
158,362,272046,2,0,L|224:342,3,53.9999983520508
291,202,272379,5,0,0:0:0:0:
255,177,272463,1,0,0:0:0:0:
214,161,272546,1,0,0:0:0:0:
171,154,272629,1,0,0:0:0:0:
127,157,272713,1,0,0:0:0:0:
86,171,272796,1,0,0:0:0:0:
51,197,272879,5,0,0:0:0:0:
71,222,272963,1,0,0:0:0:0:
96,241,273046,1,0,0:0:0:0:
124,256,273129,1,0,0:0:0:0:
154,267,273213,1,0,0:0:0:0:
184,277,273296,1,0,0:0:0:0:
215,283,273379,5,0,0:0:0:0:
192,239,273463,1,0,0:0:0:0:
177,192,273546,1,0,0:0:0:0:
174,143,273629,1,0,0:0:0:0:
187,95,273713,1,0,0:0:0:0:
204,49,273796,1,0,0:0:0:0:
237,14,273879,5,0,0:0:0:0:
263,33,273963,1,0,0:0:0:0:
292,45,274046,1,0,0:0:0:0:
322,54,274129,1,0,0:0:0:0:
354,59,274213,1,0,0:0:0:0:
386,61,274296,1,0,0:0:0:0:
418,59,274379,6,0,L|477:49,1,53.9999983520508
342,156,274546,2,0,L|283:146,1,53.9999983520508
402,251,274713,2,0,L|461:241,1,53.9999983520508
299,306,274879,2,0,L|240:296,1,53.9999983520508
147,332,275046,6,0,B|98:325|98:325|14:369,2,135
75,237,275713,2,0,B|124:244|124:244|208:200,2,135
272,285,276379,5,0,0:0:0:0:
116,140,276546,2,0,B|131:86|199:61|256:93|245:147|322:153|353:130,1,270.000010299683
322,23,277046,1,0,0:0:0:0:
187,173,277213,1,0,0:0:0:0:
452,121,277379,1,0,0:0:0:0:
452,121,277463,1,0,0:0:0:0:
452,121,277546,1,0,0:0:0:0:
209,57,277713,6,0,B|141:63|141:63|82:117,1,135.000005149842
298,211,278046,1,0,0:0:0:0:
347,42,278213,1,0,0:0:0:0:
167,181,278379,2,0,P|172:272|206:317,1,135.000005149842
426,253,278713,2,0,P|421:162|387:117,1,135.000005149842
81,120,279046,6,0,B|118:71|118:71|171:92|171:92|223:93|247:58|247:58|254:95|285:117,1,270.000010299683
390,33,279546,1,0,0:0:0:0:
321,243,279713,1,0,0:0:0:0:
181,183,279879,1,0,0:0:0:0:
423,156,280046,2,0,L|493:167,1,67.5000025749208
429,338,280213,2,0,L|439:271,1,67.5000025749208
292,326,280379,5,0,0:0:0:0:
264,327,280463,1,0,0:0:0:0:
237,325,280546,1,0,0:0:0:0:
210,319,280629,1,0,0:0:0:0:
184,309,280713,1,0,0:0:0:0:
160,296,280796,1,0,0:0:0:0:
137,281,280879,1,0,0:0:0:0:
116,263,280963,1,0,0:0:0:0:
99,241,281046,5,0,0:0:0:0:
136,255,281129,1,0,0:0:0:0:
175,265,281213,1,0,0:0:0:0:
215,268,281296,1,0,0:0:0:0:
255,266,281379,1,0,0:0:0:0:
295,257,281463,1,0,0:0:0:0:
332,241,281546,1,0,0:0:0:0:
366,219,281629,1,0,0:0:0:0:
391,187,281713,6,0,P|403:147|403:112,1,67.5000025749208
479,80,281879,2,0,P|407:84|348:48,1,135.000005149842
170,165,282213,1,0,0:0:0:0:
170,165,282296,1,0,0:0:0:0:
170,165,282379,2,0,P|228:133|295:139,1,135.000005149842
254,254,282713,1,0,0:0:0:0:
101,109,282879,1,0,0:0:0:0:
366,191,283046,6,0,P|379:248|377:280,1,67.5000025749208
240,319,283213,2,0,P|243:285|253:253,1,67.5000025749208
350,350,283379,1,0,0:0:0:0:
474,219,283546,1,0,0:0:0:0:
201,135,283713,2,0,B|268:149|268:149|325:117,1,135.000005149842
94,85,284046,2,0,B|79:152|79:152|118:221,1,135.000005149842
255,44,284379,5,0,0:0:0:0:
369,202,284546,2,0,B|318:249|289:311|289:311|254:251|188:217,1,270.000010299683
67,69,285046,2,0,L|54:142,1,67.5000025749208
8,230,285213,2,0,L|81:243,1,67.5000025749208
230,103,285379,2,0,L|157:116,1,67.5000025749208
205,286,285546,2,0,L|193:219,1,67.5000025749208
325,152,285713,5,0,0:0:0:0:
351,149,285796,1,0,0:0:0:0:
377,150,285879,1,0,0:0:0:0:
403,156,285963,1,0,0:0:0:0:
427,166,286046,1,0,0:0:0:0:
449,180,286129,1,0,0:0:0:0:
469,197,286213,1,0,0:0:0:0:
487,216,286296,1,0,0:0:0:0:
499,239,286379,5,0,0:0:0:0:
460,225,286463,1,0,0:0:0:0:
419,224,286546,1,0,0:0:0:0:
383,243,286629,1,0,0:0:0:0:
355,273,286713,1,0,0:0:0:0:
316,284,286796,1,0,0:0:0:0:
275,280,286879,1,0,0:0:0:0:
236,265,286963,1,0,0:0:0:0:
210,233,287046,5,0,0:0:0:0:
188,248,287129,1,0,0:0:0:0:
161,254,287213,1,0,0:0:0:0:
134,256,287296,1,0,0:0:0:0:
107,252,287379,1,0,0:0:0:0:
81,243,287463,1,0,0:0:0:0:
58,227,287546,1,0,0:0:0:0:
40,206,287629,1,0,0:0:0:0:
26,182,287713,5,0,0:0:0:0:
52,187,287796,1,0,0:0:0:0:
78,186,287879,1,0,0:0:0:0:
105,182,287963,1,0,0:0:0:0:
130,174,288046,1,0,0:0:0:0:
154,163,288129,1,0,0:0:0:0:
177,148,288213,1,0,0:0:0:0:
196,129,288296,1,0,0:0:0:0:
210,106,288379,5,0,0:0:0:0:
210,146,288463,1,0,0:0:0:0:
218,185,288546,1,0,0:0:0:0:
242,217,288629,1,0,0:0:0:0:
275,240,288713,1,0,0:0:0:0:
312,254,288796,1,0,0:0:0:0:
352,257,288879,1,0,0:0:0:0:
391,248,288963,1,0,0:0:0:0:
426,228,289046,5,0,0:0:0:0:
389,198,289129,1,0,0:0:0:0:
342,186,289213,1,0,0:0:0:0:
295,191,289296,1,0,0:0:0:0:
250,206,289379,1,0,0:0:0:0:
212,235,289463,1,0,0:0:0:0:
184,272,289546,1,0,0:0:0:0:
170,317,289629,1,0,0:0:0:0:
165,364,289713,6,0,L|98:349,1,67.5000025749208
18,274,289879,2,0,L|85:259,1,67.5000025749208
231,202,290046,2,0,L|164:187,1,67.5000025749208
84,112,290212,2,0,L|151:97,1,67.5000025749208
263,33,290379,6,0,P|301:54|339:63,3,67.5000025749208
466,107,290713,2,0,P|428:128|390:137,3,67.5000025749208
286,209,291046,5,0,0:0:0:0:
319,204,291129,1,0,0:0:0:0:
352,207,291213,1,0,0:0:0:0:
383,218,291296,1,0,0:0:0:0:
412,234,291379,1,0,0:0:0:0:
436,257,291463,1,0,0:0:0:0:
452,286,291546,1,0,0:0:0:0:
463,317,291629,1,0,0:0:0:0:
470,350,291713,5,0,0:0:0:0:
424,338,291796,1,0,0:0:0:0:
384,311,291879,1,0,0:0:0:0:
350,276,291963,1,0,0:0:0:0:
324,236,292046,1,0,0:0:0:0:
310,190,292129,1,0,0:0:0:0:
306,142,292213,1,0,0:0:0:0:
306,94,292296,1,0,0:0:0:0:
318,48,292379,5,0,0:0:0:0:
337,67,292463,1,0,0:0:0:0:
358,83,292546,1,0,0:0:0:0:
380,97,292629,1,0,0:0:0:0:
404,108,292713,1,0,0:0:0:0:
429,117,292796,1,0,0:0:0:0:
455,123,292879,1,0,0:0:0:0:
481,129,292963,1,0,0:0:0:0:
507,131,293046,5,0,0:0:0:0:
477,103,293129,1,0,0:0:0:0:
438,88,293213,1,0,0:0:0:0:
397,85,293296,1,0,0:0:0:0:
357,95,293379,1,0,0:0:0:0:
321,114,293463,1,0,0:0:0:0:
295,144,293546,1,0,0:0:0:0:
279,181,293629,1,0,0:0:0:0:
275,221,293713,5,0,0:0:0:0:
249,212,293796,1,0,0:0:0:0:
223,204,293879,1,0,0:0:0:0:
197,195,293963,1,0,0:0:0:0:
171,187,294046,1,0,0:0:0:0:
188,223,294129,1,0,0:0:0:0:
205,259,294213,1,0,0:0:0:0:
222,295,294296,1,0,0:0:0:0:
239,331,294379,5,0,0:0:0:0:
211,327,294463,1,0,0:0:0:0:
184,323,294546,1,0,0:0:0:0:
157,320,294629,1,0,0:0:0:0:
129,317,294713,1,0,0:0:0:0:
159,291,294796,1,0,0:0:0:0:
189,265,294879,1,0,0:0:0:0:
220,238,294963,1,0,0:0:0:0:
251,212,295046,6,0,L|320:233,3,67.5000025749208
426,139,295379,2,0,L|357:160,3,67.5000025749208
276,115,295713,6,0,P|254:76|247:47,1,67.5000025749208
187,171,295879,2,0,P|165:210|158:239,1,67.5000025749208
139,68,296046,2,0,P|89:58|57:59,1,67.5000025749208
2,170,296213,2,0,P|35:167|68:159,1,67.5000025749208
249,237,296379,5,0,0:0:0:0:
223,228,296463,1,0,0:0:0:0:
196,222,296546,1,0,0:0:0:0:
169,219,296629,1,0,0:0:0:0:
141,219,296713,1,0,0:0:0:0:
114,221,296796,1,0,0:0:0:0:
88,228,296879,1,0,0:0:0:0:
63,239,296963,1,0,0:0:0:0:
39,252,297046,5,0,0:0:0:0:
68,288,297129,1,0,0:0:0:0:
111,306,297213,1,0,0:0:0:0:
157,312,297296,1,0,0:0:0:0:
202,298,297379,1,0,0:0:0:0:
237,266,297463,1,0,0:0:0:0:
283,257,297546,1,0,0:0:0:0:
329,263,297629,1,0,0:0:0:0:
369,287,297713,1,0,0:0:0:0:
411,82,299046,6,0,B|381:54|345:36|291:75|279:115|293:185|371:199|415:152|415:152|439:183|441:215|441:215|407:263|332:263|271:232|250:208|233:164|226:130|237:83|237:83|251:39|218:5|159:9|149:58|149:58|144:87|169:134|176:183|101:208|24:207|-8:146|1:76|53:40|70:61|70:61|162:229|162:229|128:270|50:295|50:295|134:264|207:272|219:332|269:347|317:328,1,1781.99999456177
