osu file format v14

[General]
AudioFilename: audio.mp3
AudioLeadIn: 0
PreviewTime: 92104
Countdown: 0
SampleSet: Normal
StackLeniency: 0.7
Mode: 1
LetterboxInBreaks: 0
WidescreenStoryboard: 0

[Editor]
DistanceSpacing: 2
BeatDivisor: 12
GridSize: 32
TimelineZoom: 3.699998

[Metadata]
Title:Astral Dogma
TitleUnicode:Astral Dogma
Artist:Yousei Teikoku
ArtistUnicode:妖精帝國
Creator:Arityle
Version:Interstellar
Source:
Tags:pax vesania yui itsuki japanese metal lolita gothic rock 伊月ゆい fairy empire Das Feenreich lantis 2013 ゆい 橘 尭葉 Nanami 紫煉 Gight
BeatmapID:3900477
BeatmapSetID:1892872

[Difficulty]
HPDrainRate:5
CircleSize:5
OverallDifficulty:6.5
ApproachRate:5
SliderMultiplier:1.4
SliderTickRate:1

[Events]
//Background and Video events
0,0,"Astral Dogma.jpg",0,100
//Break Periods
//Storyboard Layer 0 (Background)
//Storyboard Layer 1 (Fail)
//Storyboard Layer 2 (Pass)
//Storyboard Layer 3 (Foreground)
//Storyboard Layer 4 (Overlay)
//Storyboard Sound Samples

[TimingPoints]
438,333.333333333333,4,1,0,70,1,0
438,-125,4,1,0,70,0,0
21771,-100,4,1,0,90,0,0
23104,-100,4,1,0,90,0,0
23437,-98.76634683066,4,1,0,90,0,0
23771,-97.55919054415,4,1,0,90,0,0
24104,-96.384671005061,4,1,0,90,0,0
24437,-95.238095238095,4,1,0,90,0,0
24771,-100,4,1,0,90,0,0
25771,-83.333333333333,4,1,0,90,0,0
25937,-85.099591419816,4,1,0,90,0,0
26021,-86.022199277233,4,1,0,90,0,0
26104,-86.953685583823,4,1,0,90,0,0
26187,-87.905565813769,4,1,0,90,0,0
26271,-88.890370765537,4,1,0,90,0,0
26437,-90.902891434806,4,1,0,90,0,0
26604,-93.021632937893,4,1,0,90,0,0
26687,-94.111832815589,4,1,0,90,0,0
26771,-95.241497570734,4,1,0,90,0,0
26854,-96.384671005061,4,1,0,90,0,0
26937,-97.555620608899,4,1,0,90,0,0
27104,-100,4,1,0,90,0,0
28437,-100,4,1,0,90,0,0
28771,-98.763604057156,4,1,0,90,0,0
29104,-97.560975609756,4,1,0,90,0,0
29437,-96.387283236994,4,1,0,90,0,0
29771,-95.238095238095,4,1,0,90,0,0
30104,-100,4,1,0,90,0,0
31104,-90.909090909091,4,1,0,90,0,0
31271,-93.02649930265,4,1,0,90,0,0
31354,-94.115987018485,4,1,0,90,0,0
31437,-95.231296402056,4,1,0,90,0,0
31521,-96.387283236994,4,1,0,90,0,0
31604,-97.55740821998,4,1,0,90,0,0
31687,-98.756292567367,4,1,0,90,0,0
31771,-100,4,1,0,90,0,0
31937,-100,4,1,0,90,0,0
32021,-98.347757671125,4,1,0,90,0,0
32104,-96.767950454809,4,1,0,90,0,0
32187,-95.238095238095,4,1,0,90,0,0
32271,-93.738282714661,4,1,0,90,0,0
32354,-92.302012183866,4,1,0,90,0,0
32437,-90.909090909091,4,1,0,90,0,1
43604,-90.909090909091,4,1,0,90,0,1
43687,-91.740088105727,4,1,0,90,0,1
43771,-92.596709648733,4,1,0,90,0,1
43826,-93.16631249301,4,1,0,90,0,1
43882,-93.753517163759,4,1,0,90,0,1
43937,-94.337485843715,4,1,0,90,0,1
44021,-95.243539903956,4,1,0,90,0,1
44104,-96.156066027935,4,1,0,90,0,1
44160,-96.781689322644,4,1,0,90,0,1
44215,-97.404115996258,4,1,0,90,0,1
44271,-98.046139359699,4,1,0,90,0,1
44354,-98.684989930103,4,1,0,90,0,1
44437,-100,4,1,0,90,0,0
70437,-100,4,1,0,90,0,0
70493,-100.846688841851,4,1,0,90,0,0
70549,-101.707837755413,4,1,0,90,0,0
70604,-102.568045517453,4,1,0,90,0,0
70687,-103.894080996885,4,1,0,90,0,0
70771,-105.271464646465,4,1,0,90,0,0
70854,-106.668798976491,4,1,0,90,0,0
70937,-108.103727714749,4,1,0,90,0,0
71021,-109.595793624712,4,1,0,90,0,0
71104,-111.111111111111,4,1,0,90,0,0
91104,-100,4,1,0,90,0,0
91187,-98.770005927682,4,1,0,91,0,0
91271,-97.555620608899,4,1,0,91,0,0
91354,-96.384671005061,4,1,0,92,0,0
91437,-95.241497570734,4,1,0,92,0,0
91521,-94.111832815589,4,1,0,93,0,0
91604,-93.021632937893,4,1,0,94,0,0
91687,-91.956401766004,4,1,0,94,0,0
91771,-90.902891434806,4,1,0,95,0,0
91854,-89.885367498314,4,1,0,96,0,0
91937,-88.890370765537,4,1,0,96,0,0
92021,-87.905565813769,4,1,0,97,0,0
92104,-86.953685583823,4,1,0,98,0,0
92187,-86.022199277233,4,1,0,98,0,0
92271,-85.099591419816,4,1,0,99,0,0
92354,-84.207201516109,4,1,0,99,0,0
92437,-83.333333333333,4,1,0,100,0,1
102437,-83.333333333333,4,1,0,100,0,1
102687,-86.02011864844,4,1,0,96,0,1
102937,-88.88592750533,4,1,0,93,0,1
103104,-90.909090909091,4,1,0,90,0,0
113105,-90.896702098664,4,1,0,90,0,0
113437,-86.950853865207,4,1,0,95,0,0
113604,-85.098239346772,4,1,0,98,0,0
113771,-83.333333333333,4,1,0,100,0,1
113937,-84.26587569098,4,1,0,100,0,1
114104,-85.225335787823,4,1,0,100,0,1
114271,-86.206896551724,4,1,0,100,0,1
114437,-87.205246267615,4,1,0,100,0,1
114604,-88.233218041928,4,1,0,100,0,1
114771,-89.285714285714,4,1,0,100,0,1
114937,-90.357091224519,4,1,0,100,0,1
115104,-91.461183873564,4,1,0,100,0,1
115271,-92.592592592593,4,1,0,100,0,1
115437,-93.745312734363,4,1,0,100,0,1
115604,-94.934305460621,4,1,0,100,0,1
115771,-96.153846153846,4,1,0,100,0,1
115854,-96.771696214291,4,1,0,100,0,1
115937,-97.397537790245,4,1,0,100,0,1
116104,-98.681613641746,4,1,0,100,0,1
116187,-99.332485696122,4,1,0,100,0,1
116271,-100,4,1,0,100,0,1
116437,-83.333333333333,4,1,0,100,0,1
116604,-84.61751407216,4,1,0,100,0,1
116771,-85.941893158388,4,1,0,100,0,1
116937,-87.300076161462,4,1,0,100,0,1
117104,-88.710457579569,4,1,0,100,0,1
117271,-90.167158308751,4,1,0,100,0,1
117437,-91.663334666134,4,1,0,100,0,1
117604,-93.219477482972,4,1,0,100,0,1
117771,-94.82936918304,4,1,0,100,0,1
117937,-96.48569023569,4,1,0,100,0,1
118104,-98.211416943344,4,1,0,100,0,1
118271,-100,4,1,0,100,0,1
118437,-76.923076923077,4,1,0,100,0,1
118493,-77.423099245502,4,1,0,100,0,1
118549,-78.048209688743,4,1,0,100,0,1
118660,-78.953598484848,4,1,0,100,0,1
118771,-80.004797888929,4,1,0,100,0,1
118854,-80.809304579598,4,1,0,100,0,1
118937,-81.630155427732,4,1,0,100,0,1
119021,-82.478051193273,4,1,0,100,0,1
119104,-83.333333333333,4,1,0,100,0,1
119271,-84.271556664195,4,1,0,100,0,1
119437,-85.225335787823,4,1,0,100,0,1
119604,-86.206896551724,4,1,0,100,0,1
119771,-87.211330496058,4,1,0,100,0,1
119937,-88.233218041928,4,1,0,100,0,1
120104,-89.285714285714,4,1,0,100,0,1
120271,-90.363623219837,4,1,0,100,0,1
120437,-91.461183873564,4,1,0,100,0,1
120604,-92.592592592593,4,1,0,100,0,1
120771,-93.752343808595,4,1,0,100,0,1
120937,-94.934305460621,4,1,0,100,0,1
121104,-96.153846153846,4,1,0,100,0,1
121187,-96.771696214291,4,1,0,100,0,1
121271,-97.405127405907,4,1,0,100,0,1
121437,-98.681613641746,4,1,0,100,0,1
121521,-99.340379877613,4,1,0,100,0,1
121604,-100,4,1,0,100,0,1
121771,-83.333333333333,4,1,0,100,0,1
121937,-84.610413589365,4,1,0,100,0,1
122104,-85.935302390999,4,1,0,100,0,1
122271,-87.302343303486,4,1,0,100,0,1
122437,-88.704994192799,4,1,0,100,0,1
122604,-90.162321692081,4,1,0,100,0,1
122771,-91.668333666733,4,1,0,100,0,1
122937,-93.216029292107,4,1,0,100,0,1
123104,-94.826694257631,4,1,0,100,0,1
123271,-96.493998736576,4,1,0,100,0,1
123437,-98.210458636948,4,1,0,100,0,1
123604,-100,4,1,0,100,0,1
123771,-76.923076923077,4,1,0,100,0,1
123854,-77.417356971433,4,1,0,99,0,1
123937,-77.918030232196,4,1,0,98,0,1
124021,-78.43137254902,4,1,0,96,0,1
124104,-78.945290913397,4,1,0,95,0,1
124160,-79.295852826897,4,1,0,94,0,1
124215,-79.643198470851,4,1,0,93,0,1
124271,-80,4,1,0,92,0,1
124354,-80.534750744946,4,1,0,91,0,1
124437,-81.076698556835,4,1,0,90,0,0
124687,-82.754054948692,4,1,0,90,0,0
124937,-84.502281561602,4,1,0,90,0,0
125104,-85.711836804663,4,1,0,90,0,0
125354,-87.588683542086,4,1,0,90,0,0
125604,-89.549565684606,4,1,0,90,0,0
125771,-90.909090909091,4,1,0,100,0,1
136439,-90.921483097056,4,1,0,100,0,1
136521,-91.432488005483,4,1,0,99,0,1
136604,-91.961946780642,4,1,0,99,0,1
136687,-92.484747642818,4,1,0,98,0,1
136771,-93.02649930265,4,1,0,97,0,1
136854,-93.568071824367,4,1,0,97,0,1
136937,-94.115987018485,4,1,0,96,0,1
137021,-94.677075940383,4,1,0,96,0,1
137104,-95.238095238095,4,1,0,95,0,1
137187,-95.805802930192,4,1,0,94,0,1
137271,-96.387283236994,4,1,0,94,0,1
137354,-96.968815875554,4,1,0,93,0,1
137437,-97.55740821998,4,1,0,93,0,1
137521,-98.160412067697,4,1,0,92,0,1
137604,-98.763604057156,4,1,0,91,0,1
137687,-99.374255065554,4,1,0,91,0,1
137771,-100,4,1,0,90,0,0
147771,-100,4,1,0,90,0,0
147826,-100.664652567976,4,1,0,90,0,0
147882,-101.350529261467,4,1,0,90,0,0
147937,-102.03331700147,4,1,0,90,0,0
148104,-104.164061523071,4,1,0,90,0,0
148187,-105.256507455143,4,1,0,90,0,0
148271,-106.385696040868,4,1,0,90,0,0
148354,-107.525493739512,4,1,0,90,0,0
148437,-108.689979123173,4,1,0,90,0,0
148604,-111.111111111111,4,1,0,90,0,0
168437,-100,4,1,0,90,0,0
168521,-98.756292567367,4,1,0,91,0,0
168604,-97.55740821998,4,1,0,91,0,0
168687,-96.387283236994,4,1,0,92,0,0
168771,-95.231296402056,4,1,0,93,0,0
168854,-94.115987018485,4,1,0,93,0,0
168937,-93.02649930265,4,1,0,94,0,0
169021,-91.949269368624,4,1,0,94,0,0
169104,-90.909090909091,4,1,0,95,0,0
169187,-89.89218328841,4,1,0,96,0,0
169271,-88.88592750533,4,1,0,96,0,0
169354,-87.913536312113,4,1,0,97,0,0
169437,-86.962190352021,4,1,0,97,0,0
169521,-86.02011864844,4,1,0,98,0,0
169604,-85.109097869083,4,1,0,99,0,0
169687,-84.217171717172,4,1,0,99,0,0
169771,-83.333333333333,4,1,0,100,0,1
179771,-83.333333333333,4,1,0,100,0,1
180021,-86.024283130974,4,1,0,96,0,1
180271,-88.894821142552,4,1,0,92,0,1
180437,-90.909090909091,4,1,0,90,0,0
190438,-90.896702098664,4,1,0,90,0,0
190771,-86.950853865207,4,1,0,95,0,0
190937,-85.098239346772,4,1,0,98,0,0
191104,-83.333333333333,4,1,0,100,0,1
191271,-84.271556664195,4,1,0,100,0,1
191437,-85.225335787823,4,1,0,100,0,1
191604,-86.206896551724,4,1,0,100,0,1
191771,-87.211330496058,4,1,0,100,0,1
191937,-88.233218041928,4,1,0,100,0,1
192104,-89.285714285714,4,1,0,100,0,1
192271,-90.363623219837,4,1,0,100,0,1
192437,-91.461183873564,4,1,0,100,0,1
192604,-92.592592592593,4,1,0,100,0,1
192771,-93.752343808595,4,1,0,100,0,1
192937,-94.934305460621,4,1,0,100,0,1
193104,-96.153846153846,4,1,0,100,0,1
193187,-96.771696214291,4,1,0,100,0,1
193271,-97.405127405907,4,1,0,100,0,1
193437,-98.681613641746,4,1,0,100,0,1
193521,-99.340379877613,4,1,0,100,0,1
193604,-100,4,1,0,100,0,1
193771,-83.333333333333,4,1,0,100,0,1
193937,-84.610413589365,4,1,0,100,0,1
194104,-85.935302390999,4,1,0,100,0,1
194271,-87.302343303486,4,1,0,100,0,1
194437,-88.704994192799,4,1,0,100,0,1
194604,-90.162321692081,4,1,0,100,0,1
194771,-91.668333666733,4,1,0,100,0,1
194937,-93.216029292107,4,1,0,100,0,1
195104,-94.826694257631,4,1,0,100,0,1
195271,-96.493998736576,4,1,0,100,0,1
195437,-98.210458636948,4,1,0,100,0,1
195604,-100,4,1,0,100,0,1
195770,-77.267270544581,4,1,0,100,0,1
195854,-77.982156625179,4,1,0,100,0,1
195937,-78.701645175634,4,1,0,100,0,1
196021,-79.443447037702,4,1,0,100,0,1
196104,-80.190282025144,4,1,0,100,0,1
196187,-80.951292019209,4,1,0,100,0,1
196270,-81.726884451114,4,1,0,100,0,1
196354,-82.52710106073,4,1,0,100,0,1
196437,-83.333333333333,4,1,0,100,0,1
196604,-84.212188190717,4,1,0,100,0,1
196771,-85.109777891243,4,1,0,100,0,1
196937,-86.021158560186,4,1,0,100,0,1
197104,-86.957939354418,4,1,0,100,0,1
197271,-87.915348101266,4,1,0,100,0,1
197437,-88.8881482469,4,1,0,100,0,1
197604,-89.888776541962,4,1,0,100,0,1
197771,-90.912189800927,4,1,0,100,0,1
197937,-91.952834091849,4,1,0,100,0,1
198104,-93.024066968957,4,1,0,100,0,1
198271,-94.120553359684,4,1,0,100,0,1
198437,-95.236394800743,4,1,0,100,0,1
198521,-95.811179767208,4,1,0,100,0,1
198604,-96.385977593061,4,1,0,100,0,1
198771,-97.563652326602,4,1,0,100,0,1
198854,-98.15973500184,4,1,0,100,0,1
198937,-98.763146200563,4,1,0,100,0,1
199104,-83.333333333333,4,1,0,100,0,1
199271,-84.618225463946,4,1,0,100,0,1
199437,-85.935302390999,4,1,0,100,0,1
199604,-87.302343303486,4,1,0,100,0,1
199771,-88.713580485916,4,1,0,100,0,1
199937,-90.162321692081,4,1,0,100,0,1
200104,-91.668333666733,4,1,0,100,0,1
200271,-93.225511138236,4,1,0,100,0,1
200437,-94.826694257631,4,1,0,100,0,1
200604,-96.493998736576,4,1,0,100,0,1
200771,-98.220983817383,4,1,0,100,0,1
200937,-100,4,1,0,100,0,1
201104,-76.923076923077,4,1,0,100,0,1
201187,-77.417356971433,4,1,0,99,0,1
201271,-77.924101924725,4,1,0,97,0,1
201354,-78.43137254902,4,1,0,96,0,1
201437,-78.945290913397,4,1,0,95,0,1
201493,-79.295852826897,4,1,0,94,0,1
201549,-79.649542015133,4,1,0,93,0,1
201604,-80,4,1,0,93,0,1
201687,-80.534750744946,4,1,0,91,0,1
201771,-81.083272520879,4,1,0,90,0,0
202021,-82.760903749069,4,1,0,90,0,0
202271,-84.509422800642,4,1,0,90,0,0
202437,-85.711836804663,4,1,0,90,0,0
202687,-87.588683542086,4,1,0,90,0,0
202937,-89.549565684606,4,1,0,90,0,0
203104,-90.909090909091,4,1,0,40,0,0
204437,333.333333333333,3,1,0,90,1,0
204437,-100,3,1,0,90,0,0
229103,-111.111111111111,3,1,0,75,0,0
232436,333.333333333333,4,1,0,80,1,0
232436,-111.111111111111,4,1,0,80,0,0
237436,-111.111111111111,4,1,0,80,0,0
237602,-110.297361687108,4,1,0,80,0,0
237769,-109.490649498533,4,1,0,81,0,0
238102,-107.916774583441,4,1,0,81,0,0
238436,-106.382978723404,4,1,0,82,0,0
239102,-103.451129686336,4,1,0,83,0,0
239436,-102.040816326531,4,1,0,84,0,0
239769,-100.672492248218,4,1,0,85,0,0
239936,-100,4,1,0,85,0,0
240102,-99.340379877613,4,1,0,85,0,0
240269,-98.685509019856,4,1,0,86,0,0
240436,-98.039215686275,4,1,0,86,0,0
240602,-97.405127405907,4,1,0,86,0,0
240769,-96.775442263771,4,1,0,87,0,0
240936,-96.153846153846,4,1,0,87,0,0
241102,-95.543835511733,4,1,0,87,0,0
241269,-94.937910606463,4,1,0,88,0,0
241436,-94.339622641509,4,1,0,88,0,0
241602,-93.752343808595,4,1,0,88,0,0
241769,-93.168859240487,4,1,0,89,0,0
242102,-92.026798203637,4,1,0,89,0,0
242436,-90.909090909091,4,1,0,90,0,0
242686,-87.913536312113,4,1,0,94,0,0
242936,-85.109097869083,4,1,0,97,0,0
243102,-83.333333333333,4,1,0,100,0,1
253102,-83.333333333333,4,1,0,100,0,1
253352,-86.02011864844,4,1,0,96,0,1
253602,-88.88592750533,4,1,0,93,0,1
253769,-90.909090909091,4,1,0,90,0,0
263769,-90.898072960853,4,1,0,90,0,0
264102,-87.371854613234,4,1,0,94,0,0
264269,-85.704490915324,4,1,0,97,0,0
264435,-83.333333333333,4,1,0,100,0,1
264602,-84.271556664195,4,1,0,100,0,1
264769,-85.231146870312,4,1,0,100,0,1
264935,-86.206896551724,4,1,0,100,0,1
265102,-87.211330496058,4,1,0,100,0,1
265269,-88.239446562191,4,1,0,100,0,1
265435,-89.285714285714,4,1,0,100,0,1
265602,-90.363623219837,4,1,0,100,0,1
265769,-91.46787648178,4,1,0,100,0,1
265935,-92.592592592593,4,1,0,100,0,1
266102,-93.752343808595,4,1,0,100,0,1
266269,-94.941516026128,4,1,0,100,0,1
266435,-96.153846153846,4,1,0,100,0,1
266519,-96.779188603283,4,1,0,100,0,1
266602,-97.405127405907,4,1,0,100,0,1
266769,-98.689404705511,4,1,0,100,0,1
266852,-99.340379877613,4,1,0,100,0,1
266935,-100,4,1,0,100,0,1
267102,-83.333333333333,4,1,0,100,0,1
267269,-84.618225463946,4,1,0,100,0,1
267435,-85.935302390999,4,1,0,100,0,1
267602,-87.302343303486,4,1,0,100,0,1
267769,-88.713580485916,4,1,0,100,0,1
267935,-90.162321692081,4,1,0,100,0,1
268102,-91.668333666733,4,1,0,100,0,1
268269,-93.225511138236,4,1,0,100,0,1
268435,-94.826694257631,4,1,0,100,0,1
268602,-96.493998736576,4,1,0,100,0,1
268769,-98.220983817383,4,1,0,100,0,1
268935,-100,4,1,0,100,0,1
269102,-76.923076923077,4,1,0,100,0,1
269185,-77.666511411272,4,1,0,100,0,1
269269,-78.43367826905,4,1,0,100,0,1
269352,-79.206745042157,4,1,0,100,0,1
269435,-79.995202686496,4,1,0,100,0,1
269519,-80.809304579598,4,1,0,100,0,1
269602,-81.630155427732,4,1,0,100,0,1
269685,-82.467853610287,4,1,0,100,0,1
269769,-83.333333333333,4,1,0,100,0,1
274435,-76.923076923077,4,1,0,100,0,1
274519,-77.423350882626,4,1,0,99,0,1
274602,-77.924101924725,4,1,0,97,0,1
274685,-78.43137254902,4,1,0,96,0,1
274769,-78.951523764409,4,1,0,95,0,1
274824,-79.295852826897,4,1,0,94,0,1
274880,-79.649542015133,4,1,0,93,0,1
274935,-80,4,1,0,93,0,1
275019,-80.541237113402,4,1,0,91,0,1
275102,-81.083272520879,4,1,0,90,0,0
275352,-82.760903749069,4,1,0,90,0,0
275602,-84.509422800642,4,1,0,90,0,0
275769,-85.719183953369,4,1,0,90,0,0
276019,-87.596355991591,4,1,0,90,0,0
276269,-89.557585527494,4,1,0,90,0,0
276435,-90.909090909091,4,1,0,90,0,1
286435,-90.896702098664,4,1,0,90,0,1
286519,-89.880070071419,4,1,0,91,0,1
286602,-88.897774223644,4,1,0,92,0,1
286685,-87.901950448076,4,1,0,94,0,1
286769,-86.950853865207,4,1,0,95,0,1
286852,-86.03121372372,4,1,0,96,0,1
286935,-85.098239346772,4,1,0,98,0,1
287019,-84.206539578336,4,1,0,99,0,1
287102,-83.343746095214,4,1,0,100,0,1
297685,-83.343746095214,4,1,0,100,0,0
299104,-83.343746095214,4,1,0,100,0,0
299271,-83.343746095214,4,1,0,50,0,0

[HitObjects]
438,166,438,5,8,0:0:0:0:
246,156,1437,1,0,0:0:0:0:
446,162,1771,1,0,0:0:0:0:
267,143,3104,1,0,0:0:0:0:
254,133,4104,1,0,0:0:0:0:
191,120,4437,1,0,0:0:0:0:
340,105,5771,1,8,0:0:0:0:
328,187,6771,1,0,0:0:0:0:
328,187,7104,1,0,0:0:0:0:
167,35,8437,1,0,0:0:0:0:
303,153,9437,1,0,0:0:0:0:
286,153,9771,1,0,0:0:0:0:
327,96,11104,1,8,0:0:0:0:
190,147,12104,1,0,0:0:0:0:
306,130,12437,1,0,0:0:0:0:
220,59,13771,1,0,0:0:0:0:
272,131,14771,1,0,0:0:0:0:
244,122,15104,1,0,0:0:0:0:
214,88,16437,1,8,0:0:0:0:
319,106,17437,1,0,0:0:0:0:
319,106,17771,1,0,0:0:0:0:
306,101,19104,1,0,0:0:0:0:
250,95,20104,1,0,0:0:0:0:
269,94,20437,1,0,0:0:0:0:
388,152,21771,5,4,0:0:0:0:
471,172,22104,1,8,0:0:0:0:
438,188,22271,1,0,0:0:0:0:
415,187,22437,1,0,0:0:0:0:
452,170,22604,1,8,0:0:0:0:
463,163,22771,1,8,0:0:0:0:
487,186,22937,1,0,0:0:0:0:
295,159,23104,1,12,0:0:0:0:
295,159,23437,1,12,0:0:0:0:
321,153,23771,1,4,0:0:0:0:
329,153,24104,1,4,0:0:0:0:
250,79,24437,1,12,0:0:0:0:
336,257,24771,1,0,0:0:0:0:
336,257,24937,1,0,0:0:0:0:
442,174,25104,1,8,0:0:0:0:
310,218,25271,1,0,0:0:0:0:
430,182,25437,1,8,0:0:0:0:
356,158,25604,1,8,0:0:0:0:
247,138,25771,5,4,0:0:0:0:
189,114,25937,1,0,0:0:0:0:
198,119,26021,1,0,0:0:0:0:
390,150,26104,1,8,0:0:0:0:
372,136,26187,5,8,0:0:0:0:
356,158,26271,1,0,0:0:0:0:
309,115,26437,1,12,0:0:0:0:
408,167,26604,1,0,0:0:0:0:
345,162,26687,1,0,0:0:0:0:
433,145,26771,1,8,0:0:0:0:
140,201,26854,1,0,0:0:0:0:
314,139,26937,1,8,0:0:0:0:
393,70,27104,1,4,0:0:0:0:
357,187,27437,1,0,0:0:0:0:
270,168,27604,1,0,0:0:0:0:
353,138,27771,1,8,0:0:0:0:
288,181,27937,1,0,0:0:0:0:
369,147,28104,1,8,0:0:0:0:
241,118,28271,1,0,0:0:0:0:
306,108,28437,1,12,0:0:0:0:
306,108,28771,1,12,0:0:0:0:
318,155,29104,1,4,0:0:0:0:
318,155,29437,1,4,0:0:0:0:
388,118,29771,1,12,0:0:0:0:
257,145,30104,1,0,0:0:0:0:
402,150,30271,1,8,0:0:0:0:
424,174,30437,1,0,0:0:0:0:
417,168,30604,1,8,0:0:0:0:
470,164,30771,1,8,0:0:0:0:
280,164,30937,1,0,0:0:0:0:
363,114,31104,1,12,0:0:0:0:
367,172,31271,1,0,0:0:0:0:
367,172,31354,1,0,0:0:0:0:
355,126,31437,1,8,0:0:0:0:
356,148,31521,1,0,0:0:0:0:
364,120,31604,1,8,0:0:0:0:
361,120,31687,1,8,0:0:0:0:
352,127,31771,1,4,0:0:0:0:
300,143,31937,1,0,0:0:0:0:
334,153,32021,1,0,0:0:0:0:
429,145,32104,1,8,0:0:0:0:
368,121,32187,1,8,0:0:0:0:
318,161,32271,1,0,0:0:0:0:
319,162,32354,1,0,0:0:0:0:
460,168,32437,1,12,0:0:0:0:
287,161,32604,1,0,0:0:0:0:
407,180,32687,1,0,0:0:0:0:
403,158,32771,1,8,0:0:0:0:
357,149,32854,1,8,0:0:0:0:
359,162,32937,1,0,0:0:0:0:
347,172,33104,1,0,0:0:0:0:
362,139,33271,1,8,0:0:0:0:
192,186,33354,1,0,0:0:0:0:
407,170,33437,1,8,0:0:0:0:
412,170,33521,1,8,0:0:0:0:
183,84,33604,1,0,0:0:0:0:
354,182,33771,1,0,0:0:0:0:
429,153,33937,1,8,0:0:0:0:
467,173,34021,1,8,0:0:0:0:
381,163,34104,1,0,0:0:0:0:
374,166,34187,1,0,0:0:0:0:
397,140,34271,1,8,0:0:0:0:
364,187,34437,1,0,0:0:0:0:
359,124,34604,1,8,0:0:0:0:
476,164,34771,1,8,0:0:0:0:
450,151,34854,1,8,0:0:0:0:
455,168,34937,1,0,0:0:0:0:
422,166,35104,1,0,0:0:0:0:
354,144,35271,1,0,0:0:0:0:
434,155,35437,1,8,0:0:0:0:
363,167,35521,1,0,0:0:0:0:
361,176,35604,1,8,0:0:0:0:
373,136,35771,1,8,0:0:0:0:
354,195,35937,1,0,0:0:0:0:
336,189,36104,1,0,0:0:0:0:
486,179,36187,1,0,0:0:0:0:
412,155,36271,1,8,0:0:0:0:
454,148,36437,1,8,0:0:0:0:
334,179,36521,1,0,0:0:0:0:
309,147,36604,1,8,0:0:0:0:
309,147,36687,1,8,0:0:0:0:
438,176,36771,1,0,0:0:0:0:
376,172,36854,1,0,0:0:0:0:
220,141,36937,1,8,0:0:0:0:
221,147,37021,1,0,0:0:0:0:
345,121,37104,5,8,0:0:0:0:
307,110,37187,1,8,0:0:0:0:
362,114,37271,1,8,0:0:0:0:
278,153,37354,1,0,0:0:0:0:
483,165,37437,1,0,0:0:0:0:
403,161,37521,1,0,0:0:0:0:
441,164,37604,1,8,0:0:0:0:
167,26,37687,1,0,0:0:0:0:
382,150,37771,1,8,0:0:0:0:
322,258,37937,1,0,0:0:0:0:
317,256,38021,1,0,0:0:0:0:
471,163,38104,1,8,0:0:0:0:
332,150,38187,1,0,0:0:0:0:
378,138,38271,1,8,0:0:0:0:
381,134,38437,1,8,0:0:0:0:
347,150,38604,1,0,0:0:0:0:
347,150,38687,1,0,0:0:0:0:
424,152,38771,1,8,0:0:0:0:
334,122,38854,1,8,0:0:0:0:
336,114,38937,1,8,0:0:0:0:
469,168,39104,1,0,0:0:0:0:
340,117,39271,1,8,0:0:0:0:
362,106,39437,1,8,0:0:0:0:
370,107,39521,1,8,0:0:0:0:
383,150,39604,1,0,0:0:0:0:
413,129,39771,1,8,0:0:0:0:
316,152,39937,1,0,0:0:0:0:
312,141,40104,1,0,0:0:0:0:
312,141,40187,1,0,0:0:0:0:
393,133,40271,1,8,0:0:0:0:
247,90,40437,1,0,0:0:0:0:
269,77,40604,1,8,0:0:0:0:
192,87,40771,1,0,0:0:0:0:
192,87,40854,1,0,0:0:0:0:
192,87,40937,1,0,0:0:0:0:
389,125,41104,1,8,0:0:0:0:
398,181,41271,1,0,0:0:0:0:
304,102,41437,1,8,0:0:0:0:
312,101,41521,1,8,0:0:0:0:
333,156,41604,1,0,0:0:0:0:
454,148,41771,1,8,0:0:0:0:
334,179,41854,1,0,0:0:0:0:
309,147,41937,1,8,0:0:0:0:
309,147,42021,1,8,0:0:0:0:
438,176,42104,1,0,0:0:0:0:
376,172,42187,1,0,0:0:0:0:
220,141,42271,1,8,0:0:0:0:
221,147,42354,1,0,0:0:0:0:
345,121,42437,5,8,0:0:0:0:
307,110,42521,1,8,0:0:0:0:
362,114,42604,1,8,0:0:0:0:
278,153,42687,1,0,0:0:0:0:
483,165,42771,1,0,0:0:0:0:
403,161,42854,1,0,0:0:0:0:
441,164,42937,1,8,0:0:0:0:
167,26,43021,1,0,0:0:0:0:
382,150,43104,1,8,0:0:0:0:
310,144,43187,1,8,0:0:0:0:
221,122,43271,1,0,0:0:0:0:
341,114,43437,1,8,0:0:0:0:
474,181,43604,1,0,0:0:0:0:
398,180,43687,1,0,0:0:0:0:
326,126,43771,1,8,0:0:0:0:
327,123,43826,1,8,0:0:0:0:
327,123,43882,1,8,0:0:0:0:
350,146,43937,1,0,0:0:0:0:
331,156,44021,1,0,0:0:0:0:
356,125,44104,1,8,0:0:0:0:
186,77,44160,1,0,0:0:0:0:
186,77,44215,1,0,0:0:0:0:
387,104,44271,1,8,0:0:0:0:
296,105,44354,5,8,0:0:0:0:
278,143,44437,1,0,0:0:0:0:
410,166,44604,1,8,0:0:0:0:
230,128,44687,1,8,0:0:0:0:
359,172,44771,1,0,0:0:0:0:
332,192,44937,1,0,0:0:0:0:
471,158,45104,1,8,0:0:0:0:
339,174,45187,1,0,0:0:0:0:
452,138,45271,1,8,0:0:0:0:
418,196,45437,1,0,0:0:0:0:
397,138,45604,1,8,0:0:0:0:
319,146,45771,1,0,0:0:0:0:
319,146,45937,1,0,0:0:0:0:
379,135,46104,1,0,0:0:0:0:
318,159,46187,1,0,0:0:0:0:
375,118,46271,1,8,0:0:0:0:
379,117,46437,1,8,0:0:0:0:
370,152,46521,1,8,0:0:0:0:
423,175,46604,1,0,0:0:0:0:
388,140,46771,5,8,0:0:0:0:
502,186,46937,1,0,0:0:0:0:
346,151,47104,1,8,0:0:0:0:
353,150,47271,1,8,0:0:0:0:
346,135,47354,1,8,0:0:0:0:
465,177,47437,1,0,0:0:0:0:
410,194,47604,1,0,0:0:0:0:
455,157,47771,1,8,0:0:0:0:
171,78,47854,1,0,0:0:0:0:
375,156,47937,1,8,0:0:0:0:
461,171,48104,1,0,0:0:0:0:
415,148,48271,1,8,0:0:0:0:
454,178,48437,1,0,0:0:0:0:
351,155,48604,1,12,0:0:0:0:
331,174,48771,1,0,0:0:0:0:
354,175,48937,1,0,0:0:0:0:
478,180,49104,1,0,0:0:0:0:
348,105,49160,1,0,0:0:0:0:
309,128,49215,1,0,0:0:0:0:
423,157,49271,1,8,0:0:0:0:
225,141,49437,1,0,0:0:0:0:
327,116,49493,1,0,0:0:0:0:
294,149,49549,1,0,0:0:0:0:
429,154,49604,1,8,0:0:0:0:
342,203,49771,1,0,0:0:0:0:
400,149,49937,1,8,0:0:0:0:
381,138,50021,1,8,0:0:0:0:
357,166,50104,1,0,0:0:0:0:
370,198,50271,1,0,0:0:0:0:
455,161,50437,1,8,0:0:0:0:
353,223,50521,1,0,0:0:0:0:
287,150,50604,1,8,0:0:0:0:
196,161,50771,1,8,0:0:0:0:
307,159,50937,1,0,0:0:0:0:
390,185,51104,1,0,0:0:0:0:
267,132,51271,1,8,0:0:0:0:
283,143,51354,1,8,0:0:0:0:
386,160,51437,1,0,0:0:0:0:
334,152,51604,1,8,0:0:0:0:
305,186,51771,1,0,0:0:0:0:
305,186,51854,1,0,0:0:0:0:
428,163,51937,1,8,0:0:0:0:
347,173,52104,1,0,0:0:0:0:
457,157,52271,1,8,0:0:0:0:
193,63,52437,1,0,0:0:0:0:
448,152,52604,1,8,0:0:0:0:
284,203,52687,1,0,0:0:0:0:
304,123,52771,1,8,0:0:0:0:
432,151,52937,1,8,0:0:0:0:
409,176,53104,1,0,0:0:0:0:
311,187,53187,1,0,0:0:0:0:
375,157,53271,1,8,0:0:0:0:
339,206,53437,1,0,0:0:0:0:
254,93,53604,1,8,0:0:0:0:
267,197,53771,1,0,0:0:0:0:
71,160,53937,1,12,0:0:0:0:
375,157,54104,1,8,0:0:0:0:
358,173,54271,1,0,0:0:0:0:
371,169,54437,1,0,0:0:0:0:
346,118,54493,1,0,0:0:0:0:
346,118,54549,1,0,0:0:0:0:
483,159,54604,1,8,0:0:0:0:
227,99,54771,1,0,0:0:0:0:
364,132,54854,1,0,0:0:0:0:
271,97,54937,1,8,0:0:0:0:
387,130,55021,1,8,0:0:0:0:
375,166,55104,1,0,0:0:0:0:
386,157,55271,1,8,0:0:0:0:
354,165,55604,1,0,0:0:0:0:
357,160,55771,1,0,0:0:0:0:
421,143,56104,1,8,0:0:0:0:
322,131,56271,1,8,0:0:0:0:
324,160,56604,1,0,0:0:0:0:
336,153,56771,1,0,0:0:0:0:
435,172,57104,1,0,0:0:0:0:
452,153,57271,1,8,0:0:0:0:
366,100,57437,1,8,0:0:0:0:
397,117,57604,1,8,0:0:0:0:
364,172,57771,1,0,0:0:0:0:
416,159,57937,1,8,0:0:0:0:
488,172,58271,1,0,0:0:0:0:
243,63,58437,1,0,0:0:0:0:
443,140,58771,1,8,0:0:0:0:
451,144,58937,1,8,0:0:0:0:
462,186,59271,1,0,0:0:0:0:
428,171,59437,1,0,0:0:0:0:
414,156,59771,1,0,0:0:0:0:
487,152,59937,1,8,0:0:0:0:
417,136,60104,1,8,0:0:0:0:
427,130,60271,1,8,0:0:0:0:
254,102,60437,1,0,0:0:0:0:
346,133,60604,1,8,0:0:0:0:
351,157,60771,1,0,0:0:0:0:
363,150,60937,1,0,0:0:0:0:
407,162,61104,1,0,0:0:0:0:
393,163,61187,1,0,0:0:0:0:
447,145,61271,1,8,0:0:0:0:
454,166,61437,1,0,0:0:0:0:
476,155,61604,1,8,0:0:0:0:
480,187,61771,1,0,0:0:0:0:
436,152,61937,1,8,0:0:0:0:
318,137,62104,1,8,0:0:0:0:
416,136,62187,1,8,0:0:0:0:
413,176,62271,1,0,0:0:0:0:
384,172,62437,1,0,0:0:0:0:
377,201,62521,1,0,0:0:0:0:
463,155,62604,1,8,0:0:0:0:
192,123,62771,1,0,0:0:0:0:
335,127,62937,1,8,0:0:0:0:
453,174,63104,1,0,0:0:0:0:
416,143,63271,5,8,0:0:0:0:
365,152,63354,1,0,0:0:0:0:
429,155,63437,1,8,0:0:0:0:
392,110,63604,1,8,0:0:0:0:
434,163,63771,1,0,0:0:0:0:
398,174,63854,1,0,0:0:0:0:
414,159,63937,1,8,0:0:0:0:
212,81,64104,5,0,0:0:0:0:
332,127,64271,1,8,0:0:0:0:
396,155,64437,1,0,0:0:0:0:
225,72,64604,1,4,0:0:0:0:
389,131,64771,1,8,0:0:0:0:
193,161,64937,1,0,0:0:0:0:
269,171,65104,1,0,0:0:0:0:
374,102,65160,1,0,0:0:0:0:
378,108,65215,1,0,0:0:0:0:
389,131,65271,1,8,0:0:0:0:
453,179,65437,1,0,0:0:0:0:
428,185,65493,1,0,0:0:0:0:
420,188,65549,1,0,0:0:0:0:
427,148,65604,1,8,0:0:0:0:
383,157,65771,1,0,0:0:0:0:
441,151,65937,1,8,0:0:0:0:
385,148,66104,1,8,0:0:0:0:
400,179,66271,1,0,0:0:0:0:
458,152,66437,1,8,0:0:0:0:
321,211,66521,1,0,0:0:0:0:
468,158,66604,1,8,0:0:0:0:
443,143,66771,1,8,0:0:0:0:
490,185,66937,1,0,0:0:0:0:
384,188,67104,1,0,0:0:0:0:
371,214,67187,1,0,0:0:0:0:
500,162,67271,1,8,0:0:0:0:
428,179,67354,1,0,0:0:0:0:
468,157,67437,1,8,0:0:0:0:
473,159,67604,1,8,0:0:0:0:
402,183,67771,1,0,0:0:0:0:
348,204,67854,1,0,0:0:0:0:
385,136,67937,1,8,0:0:0:0:
477,181,68104,1,0,0:0:0:0:
188,68,68271,5,8,0:0:0:0:
490,200,68437,5,0,0:0:0:0:
456,152,68604,1,8,0:0:0:0:
320,116,68687,1,8,0:0:0:0:
320,116,68771,1,8,0:0:0:0:
484,187,68937,1,0,0:0:0:0:
234,69,69104,1,8,0:0:0:0:
400,179,69187,1,0,0:0:0:0:
484,164,69271,1,8,0:0:0:0:
417,189,69437,1,0,0:0:0:0:
403,145,69604,1,8,0:0:0:0:
452,176,69771,1,0,0:0:0:0:
150,66,69937,1,4,0:0:0:0:
347,128,70104,1,8,0:0:0:0:
415,173,70271,1,0,0:0:0:0:
329,169,70437,1,0,0:0:0:0:
329,169,70493,1,0,0:0:0:0:
325,172,70549,1,0,0:0:0:0:
478,163,70604,1,8,0:0:0:0:
450,116,70687,1,8,0:0:0:0:
241,144,70771,1,0,0:0:0:0:
208,60,70854,1,0,0:0:0:0:
336,115,70937,1,8,0:0:0:0:
220,75,71021,1,8,0:0:0:0:
211,70,71104,1,4,0:0:0:0:
399,149,71437,1,8,0:0:0:0:
321,162,71604,1,0,0:0:0:0:
297,163,71771,1,0,0:0:0:0:
447,145,71937,1,8,0:0:0:0:
464,181,72104,1,0,0:0:0:0:
217,148,72271,1,8,0:0:0:0:
437,174,72604,1,0,0:0:0:0:
401,140,72771,1,8,0:0:0:0:
451,177,72937,1,0,0:0:0:0:
419,175,73104,1,0,0:0:0:0:
451,160,73271,1,8,0:0:0:0:
383,150,73437,1,8,0:0:0:0:
340,163,73521,1,8,0:0:0:0:
344,173,73604,1,0,0:0:0:0:
181,66,73771,1,4,0:0:0:0:
345,154,74104,1,0,0:0:0:0:
282,173,74271,1,0,0:0:0:0:
365,143,74437,1,8,0:0:0:0:
361,189,74604,1,0,0:0:0:0:
282,129,74771,1,0,0:0:0:0:
194,79,74937,1,8,0:0:0:0:
273,168,75271,1,0,0:0:0:0:
265,174,75437,1,0,0:0:0:0:
322,107,75604,1,8,0:0:0:0:
445,147,75771,1,8,0:0:0:0:
259,187,75937,1,0,0:0:0:0:
425,159,76104,1,8,0:0:0:0:
434,123,76437,1,4,0:0:0:0:
350,300,76771,1,0,0:0:0:0:
327,260,76937,1,0,0:0:0:0:
433,167,77104,1,8,0:0:0:0:
505,185,77271,1,0,0:0:0:0:
217,69,77437,1,0,0:0:0:0:
446,157,77604,1,8,0:0:0:0:
427,146,77771,1,8,0:0:0:0:
454,180,77937,1,0,0:0:0:0:
445,199,78104,1,0,0:0:0:0:
412,184,78271,1,0,0:0:0:0:
426,145,78437,1,8,0:0:0:0:
496,171,78604,1,0,0:0:0:0:
491,174,78771,1,0,0:0:0:0:
416,128,78937,1,8,0:0:0:0:
418,94,79104,1,4,0:0:0:0:
459,158,79437,1,8,0:0:0:0:
364,181,79604,1,0,0:0:0:0:
264,87,79771,1,8,0:0:0:0:
342,162,79937,1,0,0:0:0:0:
344,179,80104,1,0,0:0:0:0:
289,99,80271,1,8,0:0:0:0:
336,124,80437,1,8,0:0:0:0:
301,142,80604,1,0,0:0:0:0:
357,274,80771,1,0,0:0:0:0:
399,193,80937,1,0,0:0:0:0:
455,159,81104,1,8,0:0:0:0:
412,190,81271,1,0,0:0:0:0:
273,85,81437,1,8,0:0:0:0:
348,181,81604,1,8,0:0:0:0:
341,98,81771,1,4,0:0:0:0:
200,59,82104,1,8,0:0:0:0:
418,180,82271,1,0,0:0:0:0:
436,224,82437,1,8,0:0:0:0:
247,176,82604,1,0,0:0:0:0:
255,174,82771,1,0,0:0:0:0:
322,150,82937,1,8,0:0:0:0:
423,188,83271,1,0,0:0:0:0:
409,153,83437,1,8,0:0:0:0:
498,170,83604,1,0,0:0:0:0:
423,154,83771,1,8,0:0:0:0:
258,144,83937,1,0,0:0:0:0:
503,165,84104,1,8,0:0:0:0:
189,46,84271,1,8,0:0:0:0:
381,151,84437,1,4,0:0:0:0:
286,114,84771,1,8,0:0:0:0:
439,185,84937,1,0,0:0:0:0:
387,140,85104,1,8,0:0:0:0:
443,167,85271,1,0,0:0:0:0:
403,194,85437,1,0,0:0:0:0:
387,140,85604,1,8,0:0:0:0:
288,140,85937,1,0,0:0:0:0:
245,221,86271,1,0,0:0:0:0:
245,221,86437,1,0,0:0:0:0:
351,187,86604,1,0,0:0:0:0:
364,138,86771,1,8,0:0:0:0:
320,176,87104,1,4,0:0:0:0:
343,195,87437,1,0,0:0:0:0:
370,174,87604,1,0,0:0:0:0:
427,152,87771,1,8,0:0:0:0:
346,166,87937,1,0,0:0:0:0:
410,129,88104,1,8,0:0:0:0:
410,129,88271,1,8,0:0:0:0:
454,182,88437,1,0,0:0:0:0:
392,211,88604,1,0,0:0:0:0:
485,167,88771,1,8,0:0:0:0:
354,166,88937,1,0,0:0:0:0:
379,140,89104,1,8,0:0:0:0:
370,136,89271,1,8,0:0:0:0:
468,165,89437,1,0,0:0:0:0:
309,107,89604,1,8,0:0:0:0:
452,183,89937,1,0,0:0:0:0:
395,154,90104,1,8,0:0:0:0:
189,126,90271,1,0,0:0:0:0:
355,96,90437,1,8,0:0:0:0:
461,145,90771,1,8,0:0:0:0:
379,139,91104,5,8,0:0:0:0:
380,127,91187,1,8,0:0:0:0:
351,182,91271,1,0,0:0:0:0:
353,182,91354,1,0,0:0:0:0:
367,145,91437,1,8,0:0:0:0:
419,148,91521,1,8,0:0:0:0:
206,135,91604,1,0,0:0:0:0:
386,151,91687,1,0,0:0:0:0:
376,158,91771,1,0,0:0:0:0:
365,147,91854,1,0,0:0:0:0:
330,117,91937,1,8,0:0:0:0:
371,149,92021,1,0,0:0:0:0:
235,92,92104,1,8,0:0:0:0:
396,143,92187,1,8,0:0:0:0:
386,174,92271,1,0,0:0:0:0:
392,138,92354,1,8,0:0:0:0:
134,143,92437,1,4,0:0:0:0:
484,163,92604,1,8,0:0:0:0:
344,203,92687,1,0,0:0:0:0:
305,129,92771,1,8,0:0:0:0:
275,108,92854,1,8,0:0:0:0:
366,158,92937,1,0,0:0:0:0:
442,173,93104,1,0,0:0:0:0:
452,179,93271,1,8,0:0:0:0:
447,194,93437,1,0,0:0:0:0:
441,194,93521,1,0,0:0:0:0:
461,161,93604,1,8,0:0:0:0:
334,169,93771,1,0,0:0:0:0:
370,138,93937,1,8,0:0:0:0:
386,128,94021,1,8,0:0:0:0:
294,196,94104,1,0,0:0:0:0:
277,200,94187,1,0,0:0:0:0:
351,141,94271,1,8,0:0:0:0:
364,185,94437,1,0,0:0:0:0:
384,155,94604,1,8,0:0:0:0:
339,173,94771,1,0,0:0:0:0:
339,173,94854,1,0,0:0:0:0:
439,161,94937,1,8,0:0:0:0:
398,152,95104,1,8,0:0:0:0:
439,161,95271,1,8,0:0:0:0:
391,171,95354,1,8,0:0:0:0:
460,179,95437,1,0,0:0:0:0:
461,164,95521,1,8,0:0:0:0:
328,158,95604,1,0,0:0:0:0:
309,180,95771,1,0,0:0:0:0:
328,129,95937,1,8,0:0:0:0:
439,176,96104,1,0,0:0:0:0:
376,213,96187,1,0,0:0:0:0:
364,168,96271,1,8,0:0:0:0:
359,174,96437,1,8,0:0:0:0:
308,240,96521,1,0,0:0:0:0:
361,143,96604,1,8,0:0:0:0:
368,141,96687,1,8,0:0:0:0:
449,187,96771,1,0,0:0:0:0:
414,195,96854,1,0,0:0:0:0:
466,165,96937,1,8,0:0:0:0:
414,195,97021,1,0,0:0:0:0:
336,122,97104,1,8,0:0:0:0:
293,147,97187,1,8,0:0:0:0:
302,154,97271,1,0,0:0:0:0:
336,122,97437,1,12,0:0:0:0:
292,111,97604,1,12,0:0:0:0:
342,146,97771,1,4,0:0:0:0:
369,278,97937,1,0,0:0:0:0:
345,274,98021,1,0,0:0:0:0:
331,134,98104,1,8,0:0:0:0:
335,132,98187,1,8,0:0:0:0:
342,129,98271,1,8,0:0:0:0:
502,181,98437,1,0,0:0:0:0:
457,154,98604,1,8,0:0:0:0:
291,240,98687,1,0,0:0:0:0:
448,162,98771,1,8,0:0:0:0:
441,162,98854,1,8,0:0:0:0:
422,188,98937,1,0,0:0:0:0:
256,138,99104,1,0,0:0:0:0:
390,155,99271,1,8,0:0:0:0:
476,194,99437,1,0,0:0:0:0:
347,200,99521,1,0,0:0:0:0:
423,164,99604,1,8,0:0:0:0:
337,199,99771,1,0,0:0:0:0:
413,158,99937,1,8,0:0:0:0:
478,161,100021,1,8,0:0:0:0:
472,176,100104,1,0,0:0:0:0:
440,184,100187,1,0,0:0:0:0:
456,165,100271,1,8,0:0:0:0:
500,156,100437,1,8,0:0:0:0:
402,191,100604,1,0,0:0:0:0:
432,182,100771,1,0,0:0:0:0:
385,176,100854,1,0,0:0:0:0:
433,154,100937,1,8,0:0:0:0:
433,154,101104,1,8,0:0:0:0:
378,177,101271,1,0,0:0:0:0:
296,129,101437,5,8,0:0:0:0:
393,193,101521,1,0,0:0:0:0:
442,160,101604,1,8,0:0:0:0:
178,47,101771,1,0,0:0:0:0:
318,106,101937,1,8,0:0:0:0:
265,78,102021,1,8,0:0:0:0:
403,181,102104,1,0,0:0:0:0:
462,190,102187,1,0,0:0:0:0:
487,156,102271,1,8,0:0:0:0:
320,129,102437,1,12,0:0:0:0:
243,95,102687,1,12,0:0:0:0:
230,89,102937,1,12,0:0:0:0:
297,168,103104,5,4,0:0:0:0:
188,37,103271,1,8,0:0:0:0:
316,186,103437,5,0,0:0:0:0:
284,164,103521,1,0,0:0:0:0:
317,123,103604,5,8,0:0:0:0:
300,281,103687,1,0,0:0:0:0:
445,141,103771,1,8,0:0:0:0:
395,157,103937,1,8,0:0:0:0:
457,194,104104,1,0,0:0:0:0:
403,197,104187,1,0,0:0:0:0:
399,176,104271,1,8,0:0:0:0:
374,172,104437,1,0,0:0:0:0:
309,158,104604,1,8,0:0:0:0:
334,144,104687,1,8,0:0:0:0:
358,174,104771,1,0,0:0:0:0:
362,182,104854,1,0,0:0:0:0:
463,149,104937,1,8,0:0:0:0:
313,184,105104,1,0,0:0:0:0:
336,176,105187,1,0,0:0:0:0:
438,143,105271,1,8,0:0:0:0:
430,156,105437,1,8,0:0:0:0:
406,177,105604,1,0,0:0:0:0:
358,174,105771,1,0,0:0:0:0:
439,145,105937,1,8,0:0:0:0:
399,168,106104,1,0,0:0:0:0:
398,168,106187,1,0,0:0:0:0:
417,150,106271,1,8,0:0:0:0:
438,168,106437,1,0,0:0:0:0:
334,138,106604,1,8,0:0:0:0:
467,183,106771,1,0,0:0:0:0:
380,179,106854,1,0,0:0:0:0:
327,126,106937,1,8,0:0:0:0:
407,175,107104,1,0,0:0:0:0:
347,148,107271,1,8,0:0:0:0:
378,129,107437,1,8,0:0:0:0:
192,106,107521,5,0,0:0:0:0:
358,133,107604,1,8,0:0:0:0:
318,137,107771,1,0,0:0:0:0:
324,121,107937,1,8,0:0:0:0:
417,138,108104,1,8,0:0:0:0:
414,122,108187,1,8,0:0:0:0:
411,184,108271,1,0,0:0:0:0:
411,184,108354,1,0,0:0:0:0:
437,149,108437,1,8,0:0:0:0:
247,109,108604,1,0,0:0:0:0:
281,130,108771,1,0,0:0:0:0:
281,130,108854,1,0,0:0:0:0:
286,132,108937,1,0,0:0:0:0:
464,159,109104,1,8,0:0:0:0:
415,180,109271,1,0,0:0:0:0:
392,184,109354,1,0,0:0:0:0:
475,155,109437,1,8,0:0:0:0:
358,186,109521,1,0,0:0:0:0:
283,88,109604,1,8,0:0:0:0:
445,152,109771,1,8,0:0:0:0:
371,155,109937,1,0,0:0:0:0:
353,154,110104,1,0,0:0:0:0:
353,156,110187,1,0,0:0:0:0:
422,148,110271,1,8,0:0:0:0:
481,155,110437,1,8,0:0:0:0:
322,88,110521,1,8,0:0:0:0:
304,137,110604,1,0,0:0:0:0:
337,85,110771,1,8,0:0:0:0:
339,84,110854,1,8,0:0:0:0:
344,84,110937,1,8,0:0:0:0:
438,168,111104,1,0,0:0:0:0:
380,130,111271,1,8,0:0:0:0:
370,166,111437,1,0,0:0:0:0:
370,166,111521,1,0,0:0:0:0:
440,148,111604,1,8,0:0:0:0:
438,168,111771,1,0,0:0:0:0:
334,138,111937,1,8,0:0:0:0:
467,183,112104,1,0,0:0:0:0:
380,179,112187,1,0,0:0:0:0:
327,126,112271,1,8,0:0:0:0:
407,175,112437,1,0,0:0:0:0:
347,148,112604,1,8,0:0:0:0:
378,129,112771,1,8,0:0:0:0:
192,106,112854,5,0,0:0:0:0:
358,133,112937,1,8,0:0:0:0:
304,117,113104,1,4,0:0:0:0:
258,107,113437,1,12,0:0:0:0:
411,184,113604,1,0,0:0:0:0:
253,191,113771,1,12,0:0:0:0:
365,143,113937,1,8,0:0:0:0:
394,132,114104,1,8,0:0:0:0:
406,178,114271,1,0,0:0:0:0:
357,176,114437,1,0,0:0:0:0:
465,171,114604,1,8,0:0:0:0:
349,180,114771,1,0,0:0:0:0:
364,175,114937,1,0,0:0:0:0:
429,160,115104,1,8,0:0:0:0:
191,37,115271,5,8,0:0:0:0:
449,176,115437,1,0,0:0:0:0:
342,160,115604,1,0,0:0:0:0:
369,135,115771,1,8,0:0:0:0:
387,195,115854,1,8,0:0:0:0:
348,173,115937,1,0,0:0:0:0:
433,176,116104,1,8,0:0:0:0:
198,137,116187,1,0,0:0:0:0:
316,135,116271,1,8,0:0:0:0:
188,123,116437,1,4,0:0:0:0:
416,141,116604,1,8,0:0:0:0:
378,137,116771,5,8,0:0:0:0:
413,175,116937,1,0,0:0:0:0:
438,152,117104,1,8,0:0:0:0:
461,186,117271,1,0,0:0:0:0:
230,132,117437,1,0,0:0:0:0:
418,156,117604,1,8,0:0:0:0:
310,187,117771,1,0,0:0:0:0:
468,176,117937,1,8,0:0:0:0:
415,141,118104,1,8,0:0:0:0:
353,166,118271,1,0,0:0:0:0:
336,155,118437,1,0,0:0:0:0:
416,183,118493,1,0,0:0:0:0:
177,77,118549,1,0,0:0:0:0:
179,83,118660,1,0,0:0:0:0:
483,152,118771,1,8,0:0:0:0:
404,121,118854,1,8,0:0:0:0:
416,168,118937,1,0,0:0:0:0:
222,109,119021,5,0,0:0:0:0:
129,115,119104,1,12,0:0:0:0:
404,121,119271,1,8,0:0:0:0:
409,147,119437,1,8,0:0:0:0:
506,190,119604,1,0,0:0:0:0:
356,163,119771,1,0,0:0:0:0:
469,159,119937,1,8,0:0:0:0:
360,189,120104,1,0,0:0:0:0:
408,166,120271,1,0,0:0:0:0:
305,91,120437,1,8,0:0:0:0:
332,94,120604,1,8,0:0:0:0:
362,193,120771,1,0,0:0:0:0:
388,129,120937,1,8,0:0:0:0:
480,174,121104,1,0,0:0:0:0:
327,217,121187,1,0,0:0:0:0:
410,119,121271,1,8,0:0:0:0:
440,152,121437,1,8,0:0:0:0:
414,171,121521,1,8,0:0:0:0:
380,203,121604,1,0,0:0:0:0:
187,132,121771,1,4,0:0:0:0:
464,156,121937,1,8,0:0:0:0:
409,143,122104,1,8,0:0:0:0:
489,178,122271,1,0,0:0:0:0:
440,152,122437,1,8,0:0:0:0:
372,177,122604,1,0,0:0:0:0:
441,150,122771,1,8,0:0:0:0:
298,122,122937,1,8,0:0:0:0:
451,168,123104,1,0,0:0:0:0:
407,167,123271,1,0,0:0:0:0:
387,114,123437,1,8,0:0:0:0:
439,174,123604,1,0,0:0:0:0:
456,158,123771,1,8,0:0:0:0:
297,79,123854,1,8,0:0:0:0:
194,80,123937,1,0,0:0:0:0:
287,75,124021,1,8,0:0:0:0:
91,131,124104,1,0,0:0:0:0:
162,35,124160,1,0,0:0:0:0:
111,148,124215,1,0,0:0:0:0:
353,93,124271,1,8,0:0:0:0:
393,167,124354,1,8,0:0:0:0:
246,105,124437,1,4,0:0:0:0:
268,185,124687,5,4,0:0:0:0:
208,52,124937,1,4,0:0:0:0:
271,54,125104,1,4,0:0:0:0:
225,38,125354,1,4,0:0:0:0:
190,43,125604,1,4,0:0:0:0:
460,168,125771,1,12,0:0:0:0:
287,161,125937,1,0,0:0:0:0:
407,180,126021,1,0,0:0:0:0:
403,158,126104,1,8,0:0:0:0:
357,149,126187,1,8,0:0:0:0:
359,162,126271,1,0,0:0:0:0:
347,172,126437,1,0,0:0:0:0:
362,139,126604,1,8,0:0:0:0:
192,186,126687,1,0,0:0:0:0:
407,170,126771,1,8,0:0:0:0:
412,170,126854,1,8,0:0:0:0:
183,84,126937,1,0,0:0:0:0:
354,182,127104,1,0,0:0:0:0:
429,153,127271,1,8,0:0:0:0:
467,173,127354,1,8,0:0:0:0:
381,163,127437,1,0,0:0:0:0:
374,166,127521,1,0,0:0:0:0:
397,140,127604,1,8,0:0:0:0:
364,187,127771,1,0,0:0:0:0:
359,124,127937,1,8,0:0:0:0:
476,164,128104,1,8,0:0:0:0:
450,151,128187,1,8,0:0:0:0:
455,168,128271,1,0,0:0:0:0:
422,166,128437,1,0,0:0:0:0:
354,144,128604,1,0,0:0:0:0:
434,155,128771,1,8,0:0:0:0:
363,167,128854,1,0,0:0:0:0:
361,176,128937,1,8,0:0:0:0:
373,136,129104,1,8,0:0:0:0:
354,195,129271,1,0,0:0:0:0:
336,189,129437,1,0,0:0:0:0:
486,179,129521,1,0,0:0:0:0:
412,155,129604,1,8,0:0:0:0:
454,148,129771,1,8,0:0:0:0:
334,179,129854,1,0,0:0:0:0:
309,147,129937,1,8,0:0:0:0:
309,147,130021,1,8,0:0:0:0:
438,176,130104,1,0,0:0:0:0:
376,172,130187,1,0,0:0:0:0:
220,141,130271,1,8,0:0:0:0:
221,147,130354,1,0,0:0:0:0:
345,121,130437,5,8,0:0:0:0:
307,110,130521,1,8,0:0:0:0:
362,114,130604,1,8,0:0:0:0:
278,153,130687,1,0,0:0:0:0:
483,165,130771,1,0,0:0:0:0:
403,161,130854,1,0,0:0:0:0:
441,164,130937,1,8,0:0:0:0:
167,26,131021,1,0,0:0:0:0:
382,150,131104,1,8,0:0:0:0:
322,258,131271,1,0,0:0:0:0:
317,256,131354,1,0,0:0:0:0:
471,163,131437,1,8,0:0:0:0:
332,150,131521,1,0,0:0:0:0:
378,138,131604,1,8,0:0:0:0:
381,134,131771,1,8,0:0:0:0:
347,150,131937,1,0,0:0:0:0:
347,150,132021,1,0,0:0:0:0:
424,152,132104,1,8,0:0:0:0:
334,122,132187,1,8,0:0:0:0:
336,114,132271,1,8,0:0:0:0:
469,168,132437,1,0,0:0:0:0:
340,117,132604,1,8,0:0:0:0:
362,106,132771,1,8,0:0:0:0:
370,107,132854,1,8,0:0:0:0:
383,150,132937,1,0,0:0:0:0:
413,129,133104,1,8,0:0:0:0:
316,152,133271,1,0,0:0:0:0:
312,141,133437,1,0,0:0:0:0:
312,141,133521,1,0,0:0:0:0:
393,133,133604,1,8,0:0:0:0:
247,90,133771,1,0,0:0:0:0:
269,77,133937,1,8,0:0:0:0:
192,87,134104,1,0,0:0:0:0:
192,87,134187,1,0,0:0:0:0:
192,87,134271,1,0,0:0:0:0:
389,125,134437,1,8,0:0:0:0:
398,181,134604,1,0,0:0:0:0:
304,102,134771,1,8,0:0:0:0:
312,101,134854,1,8,0:0:0:0:
333,156,134937,1,0,0:0:0:0:
454,148,135104,1,8,0:0:0:0:
334,179,135187,1,0,0:0:0:0:
309,147,135271,1,8,0:0:0:0:
309,147,135354,1,8,0:0:0:0:
438,176,135437,1,0,0:0:0:0:
376,172,135521,1,0,0:0:0:0:
220,141,135604,1,8,0:0:0:0:
221,147,135687,1,0,0:0:0:0:
345,121,135771,5,8,0:0:0:0:
307,110,135854,1,8,0:0:0:0:
362,114,135937,1,8,0:0:0:0:
278,153,136021,1,0,0:0:0:0:
483,165,136104,1,0,0:0:0:0:
403,161,136187,1,0,0:0:0:0:
441,164,136271,1,8,0:0:0:0:
167,26,136354,1,0,0:0:0:0:
382,150,136437,1,8,0:0:0:0:
310,144,136521,1,8,0:0:0:0:
221,122,136604,1,0,0:0:0:0:
398,134,136687,1,8,0:0:0:0:
360,162,136771,1,0,0:0:0:0:
360,162,136854,1,0,0:0:0:0:
334,157,136937,1,0,0:0:0:0:
334,157,137021,1,0,0:0:0:0:
319,133,137104,1,8,0:0:0:0:
365,139,137187,1,8,0:0:0:0:
337,109,137271,1,8,0:0:0:0:
333,105,137354,1,8,0:0:0:0:
158,196,137437,1,0,0:0:0:0:
178,193,137521,1,0,0:0:0:0:
292,97,137604,1,8,0:0:0:0:
449,171,137687,1,0,0:0:0:0:
428,155,137771,1,8,0:0:0:0:
315,123,137937,1,8,0:0:0:0:
276,194,138104,1,0,0:0:0:0:
435,168,138271,1,8,0:0:0:0:
324,114,138437,1,8,0:0:0:0:
264,185,138521,1,0,0:0:0:0:
271,100,138604,1,8,0:0:0:0:
215,94,138771,1,0,0:0:0:0:
275,106,138937,1,8,0:0:0:0:
364,172,139104,1,0,0:0:0:0:
492,177,139187,1,0,0:0:0:0:
395,130,139271,1,8,0:0:0:0:
198,90,139437,1,0,0:0:0:0:
473,155,139604,1,8,0:0:0:0:
351,78,139771,1,8,0:0:0:0:
228,71,139854,1,0,0:0:0:0:
316,96,139937,1,8,0:0:0:0:
321,143,140104,1,0,0:0:0:0:
349,123,140271,1,8,0:0:0:0:
347,118,140437,1,8,0:0:0:0:
344,119,140521,1,8,0:0:0:0:
373,97,140604,1,8,0:0:0:0:
480,181,140771,1,0,0:0:0:0:
394,101,140937,1,8,0:0:0:0:
489,170,141104,1,0,0:0:0:0:
359,154,141187,1,0,0:0:0:0:
367,128,141271,1,8,0:0:0:0:
371,166,141437,1,0,0:0:0:0:
321,119,141604,1,8,0:0:0:0:
178,86,141771,1,0,0:0:0:0:
241,130,141937,1,12,0:0:0:0:
483,156,142104,1,8,0:0:0:0:
346,153,142271,1,0,0:0:0:0:
306,143,142437,1,0,0:0:0:0:
306,143,142521,1,0,0:0:0:0:
395,140,142604,1,8,0:0:0:0:
380,166,142771,1,0,0:0:0:0:
380,166,142826,1,0,0:0:0:0:
380,166,142882,1,0,0:0:0:0:
448,145,142937,1,8,0:0:0:0:
158,28,143104,5,0,0:0:0:0:
368,135,143271,1,8,0:0:0:0:
182,64,143437,5,0,0:0:0:0:
375,159,143604,1,0,0:0:0:0:
337,143,143771,1,8,0:0:0:0:
371,138,143854,1,8,0:0:0:0:
458,188,143937,1,0,0:0:0:0:
290,170,144104,1,0,0:0:0:0:
503,160,144271,1,8,0:0:0:0:
407,185,144437,1,0,0:0:0:0:
402,151,144521,1,8,0:0:0:0:
347,168,144604,1,0,0:0:0:0:
244,70,144771,1,0,0:0:0:0:
481,161,144937,1,8,0:0:0:0:
379,145,145104,1,8,0:0:0:0:
379,144,145187,1,8,0:0:0:0:
295,175,145271,1,0,0:0:0:0:
295,175,145437,1,0,0:0:0:0:
454,141,145604,1,8,0:0:0:0:
251,122,145771,1,0,0:0:0:0:
298,168,145854,1,0,0:0:0:0:
462,155,145937,1,8,0:0:0:0:
204,27,146104,5,8,0:0:0:0:
412,159,146271,1,0,0:0:0:0:
370,114,146437,1,8,0:0:0:0:
358,178,146521,1,0,0:0:0:0:
411,152,146604,1,8,0:0:0:0:
501,194,146771,1,0,0:0:0:0:
339,110,146937,1,8,0:0:0:0:
79,167,147104,1,0,0:0:0:0:
189,232,147271,1,4,0:0:0:0:
411,152,147437,1,8,0:0:0:0:
369,112,147604,1,8,0:0:0:0:
472,190,147771,1,0,0:0:0:0:
239,148,147826,1,0,0:0:0:0:
245,150,147882,1,0,0:0:0:0:
362,124,147937,1,8,0:0:0:0:
340,168,148104,1,0,0:0:0:0:
374,167,148187,1,0,0:0:0:0:
331,90,148271,1,8,0:0:0:0:
337,89,148354,1,8,0:0:0:0:
317,162,148437,1,4,0:0:0:0:
413,149,148771,1,8,0:0:0:0:
296,185,148937,1,0,0:0:0:0:
327,203,149104,1,0,0:0:0:0:
324,172,149271,1,8,0:0:0:0:
431,188,149437,1,0,0:0:0:0:
464,165,149604,1,8,0:0:0:0:
262,157,149937,1,0,0:0:0:0:
363,124,150104,1,8,0:0:0:0:
425,142,150271,1,8,0:0:0:0:
396,199,150437,1,0,0:0:0:0:
414,194,150604,1,0,0:0:0:0:
452,157,150771,1,8,0:0:0:0:
99,167,150854,1,0,0:0:0:0:
410,173,150937,1,8,0:0:0:0:
294,175,151104,1,4,0:0:0:0:
329,183,151437,1,0,0:0:0:0:
354,167,151604,1,0,0:0:0:0:
465,152,151771,1,8,0:0:0:0:
420,181,151937,1,0,0:0:0:0:
396,170,152104,1,0,0:0:0:0:
411,153,152271,1,8,0:0:0:0:
292,225,152604,1,0,0:0:0:0:
221,99,152771,5,0,0:0:0:0:
486,157,152937,1,8,0:0:0:0:
489,150,153104,5,8,0:0:0:0:
263,186,153271,1,0,0:0:0:0:
477,150,153437,1,8,0:0:0:0:
380,104,153771,1,4,0:0:0:0:
365,168,154104,1,8,0:0:0:0:
352,160,154271,1,0,0:0:0:0:
442,155,154437,1,8,0:0:0:0:
504,166,154604,1,8,0:0:0:0:
459,201,154771,1,0,0:0:0:0:
378,152,154937,1,8,0:0:0:0:
403,185,155104,1,0,0:0:0:0:
274,145,155271,1,0,0:0:0:0:
445,148,155437,1,8,0:0:0:0:
383,163,155604,1,0,0:0:0:0:
434,152,155771,1,8,0:0:0:0:
363,191,155937,1,0,0:0:0:0:
387,185,156104,1,0,0:0:0:0:
392,179,156271,1,8,0:0:0:0:
391,177,156437,1,4,0:0:0:0:
369,227,156771,1,0,0:0:0:0:
343,176,156937,1,0,0:0:0:0:
477,153,157104,1,8,0:0:0:0:
373,206,157271,1,0,0:0:0:0:
480,162,157437,1,8,0:0:0:0:
346,118,157604,1,8,0:0:0:0:
404,183,157937,1,0,0:0:0:0:
358,277,158271,1,0,0:0:0:0:
358,277,158437,1,0,0:0:0:0:
358,277,158604,1,0,0:0:0:0:
474,158,158771,1,8,0:0:0:0:
360,132,159104,1,4,0:0:0:0:
386,149,159437,1,0,0:0:0:0:
485,155,159604,1,8,0:0:0:0:
428,180,159771,1,0,0:0:0:0:
410,174,159937,1,0,0:0:0:0:
466,156,160104,1,8,0:0:0:0:
467,151,160271,1,8,0:0:0:0:
325,217,160604,1,0,0:0:0:0:
325,217,160771,1,0,0:0:0:0:
428,162,160937,1,8,0:0:0:0:
417,140,161104,1,8,0:0:0:0:
320,169,161271,1,0,0:0:0:0:
374,206,161437,1,0,0:0:0:0:
469,155,161604,1,8,0:0:0:0:
202,114,161771,1,4,0:0:0:0:
280,246,162104,1,0,0:0:0:0:
355,194,162271,1,0,0:0:0:0:
343,173,162437,1,8,0:0:0:0:
490,179,162604,1,0,0:0:0:0:
449,186,162771,1,0,0:0:0:0:
423,159,162937,1,8,0:0:0:0:
258,129,163271,1,0,0:0:0:0:
306,140,163604,1,0,0:0:0:0:
322,123,163771,1,8,0:0:0:0:
437,176,163937,1,0,0:0:0:0:
184,18,164104,1,8,0:0:0:0:
445,125,164437,1,4,0:0:0:0:
331,168,164771,1,0,0:0:0:0:
273,151,164937,1,0,0:0:0:0:
409,136,165104,1,8,0:0:0:0:
405,178,165271,1,0,0:0:0:0:
310,132,165437,1,8,0:0:0:0:
192,95,165604,1,0,0:0:0:0:
188,69,165771,1,8,0:0:0:0:
349,141,165937,5,8,0:0:0:0:
193,77,166104,1,0,0:0:0:0:
388,196,166271,1,0,0:0:0:0:
366,141,166437,1,8,0:0:0:0:
304,172,166604,1,0,0:0:0:0:
435,142,166771,1,8,0:0:0:0:
398,167,166937,1,0,0:0:0:0:
226,97,167271,1,0,0:0:0:0:
422,167,167604,1,0,0:0:0:0:
322,141,167771,1,8,0:0:0:0:
345,190,167937,1,0,0:0:0:0:
376,160,168104,1,8,0:0:0:0:
393,198,168437,1,0,0:0:0:0:
129,165,168521,1,0,0:0:0:0:
217,109,168604,1,0,0:0:0:0:
332,110,168687,1,8,0:0:0:0:
361,161,168771,1,0,0:0:0:0:
361,162,168854,1,0,0:0:0:0:
358,123,168937,1,8,0:0:0:0:
425,136,169021,1,8,0:0:0:0:
219,96,169104,1,0,0:0:0:0:
387,173,169187,1,0,0:0:0:0:
360,167,169271,1,0,0:0:0:0:
214,96,169354,1,0,0:0:0:0:
413,133,169437,1,8,0:0:0:0:
410,129,169521,1,8,0:0:0:0:
207,148,169604,1,8,0:0:0:0:
310,84,169687,1,8,0:0:0:0:
151,142,169771,1,4,0:0:0:0:
397,94,169937,1,8,0:0:0:0:
380,142,170021,1,8,0:0:0:0:
436,165,170104,1,0,0:0:0:0:
409,168,170187,1,0,0:0:0:0:
356,132,170271,1,8,0:0:0:0:
348,187,170437,1,0,0:0:0:0:
415,157,170604,1,8,0:0:0:0:
380,129,170771,1,8,0:0:0:0:
398,185,170854,1,0,0:0:0:0:
350,145,170937,1,8,0:0:0:0:
261,127,171104,1,0,0:0:0:0:
438,160,171271,1,8,0:0:0:0:
344,196,171437,1,0,0:0:0:0:
369,193,171521,1,0,0:0:0:0:
417,145,171604,1,8,0:0:0:0:
362,109,171771,5,8,0:0:0:0:
207,87,171937,1,0,0:0:0:0:
379,106,172104,1,8,0:0:0:0:
379,106,172187,1,8,0:0:0:0:
386,105,172271,1,8,0:0:0:0:
433,172,172437,1,0,0:0:0:0:
484,156,172604,1,8,0:0:0:0:
342,208,172771,1,0,0:0:0:0:
443,173,172854,1,0,0:0:0:0:
447,150,172937,1,8,0:0:0:0:
443,174,173104,1,0,0:0:0:0:
457,162,173271,1,8,0:0:0:0:
447,202,173437,1,0,0:0:0:0:
409,192,173521,1,0,0:0:0:0:
359,156,173604,1,8,0:0:0:0:
369,147,173771,1,8,0:0:0:0:
180,70,173854,1,0,0:0:0:0:
336,152,173937,1,8,0:0:0:0:
292,141,174021,1,8,0:0:0:0:
348,187,174104,1,0,0:0:0:0:
388,167,174187,1,0,0:0:0:0:
496,155,174271,1,8,0:0:0:0:
321,184,174354,1,0,0:0:0:0:
220,46,174437,1,8,0:0:0:0:
186,78,174521,1,8,0:0:0:0:
403,210,174604,1,0,0:0:0:0:
179,175,174771,1,12,0:0:0:0:
271,120,174937,1,12,0:0:0:0:
380,159,175104,1,4,0:0:0:0:
415,152,175271,1,8,0:0:0:0:
346,210,175354,1,0,0:0:0:0:
415,152,175437,1,8,0:0:0:0:
415,152,175521,1,8,0:0:0:0:
436,185,175604,1,0,0:0:0:0:
423,213,175771,1,0,0:0:0:0:
473,153,175937,1,8,0:0:0:0:
283,161,176104,1,0,0:0:0:0:
290,166,176187,1,0,0:0:0:0:
391,159,176271,1,8,0:0:0:0:
450,172,176437,1,0,0:0:0:0:
464,154,176604,1,8,0:0:0:0:
453,161,176771,1,8,0:0:0:0:
453,161,176854,1,8,0:0:0:0:
371,140,176937,1,8,0:0:0:0:
360,178,177104,1,0,0:0:0:0:
348,150,177271,1,8,0:0:0:0:
348,138,177354,1,8,0:0:0:0:
335,182,177437,1,0,0:0:0:0:
337,186,177521,1,0,0:0:0:0:
447,156,177604,1,8,0:0:0:0:
411,171,177771,1,8,0:0:0:0:
415,187,177937,1,0,0:0:0:0:
374,215,178104,1,0,0:0:0:0:
374,215,178187,1,0,0:0:0:0:
429,164,178271,1,8,0:0:0:0:
441,197,178437,1,0,0:0:0:0:
479,166,178604,1,8,0:0:0:0:
457,163,178771,1,8,0:0:0:0:
420,218,178854,1,0,0:0:0:0:
389,148,178937,1,8,0:0:0:0:
174,28,179104,5,0,0:0:0:0:
449,149,179271,1,8,0:0:0:0:
257,146,179437,1,0,0:0:0:0:
221,138,179521,1,0,0:0:0:0:
406,145,179604,1,8,0:0:0:0:
292,92,179771,1,12,0:0:0:0:
221,54,180021,1,12,0:0:0:0:
191,52,180271,1,12,0:0:0:0:
373,158,180437,1,4,0:0:0:0:
307,96,180604,1,8,0:0:0:0:
211,122,180771,1,0,0:0:0:0:
209,141,180854,1,0,0:0:0:0:
224,126,180937,1,8,0:0:0:0:
300,281,181021,1,0,0:0:0:0:
210,48,181104,1,8,0:0:0:0:
395,157,181271,1,8,0:0:0:0:
457,194,181437,1,0,0:0:0:0:
403,197,181521,1,0,0:0:0:0:
399,176,181604,1,8,0:0:0:0:
374,172,181771,1,0,0:0:0:0:
309,158,181937,1,8,0:0:0:0:
334,144,182021,1,8,0:0:0:0:
358,174,182104,1,0,0:0:0:0:
362,182,182187,1,0,0:0:0:0:
463,149,182271,1,8,0:0:0:0:
313,184,182437,1,0,0:0:0:0:
336,176,182521,1,0,0:0:0:0:
438,143,182604,1,8,0:0:0:0:
430,156,182771,1,8,0:0:0:0:
406,177,182937,1,0,0:0:0:0:
358,174,183104,1,0,0:0:0:0:
439,145,183271,1,8,0:0:0:0:
399,168,183437,1,0,0:0:0:0:
398,168,183521,1,0,0:0:0:0:
417,150,183604,1,8,0:0:0:0:
438,168,183771,1,0,0:0:0:0:
334,138,183937,1,8,0:0:0:0:
467,183,184104,1,0,0:0:0:0:
380,179,184187,1,0,0:0:0:0:
327,126,184271,1,8,0:0:0:0:
407,175,184437,1,0,0:0:0:0:
347,148,184604,1,8,0:0:0:0:
378,129,184771,1,8,0:0:0:0:
192,106,184854,5,0,0:0:0:0:
358,133,184937,1,8,0:0:0:0:
318,137,185104,1,0,0:0:0:0:
324,121,185271,1,8,0:0:0:0:
417,138,185437,1,8,0:0:0:0:
414,122,185521,1,8,0:0:0:0:
411,184,185604,1,0,0:0:0:0:
411,184,185687,1,0,0:0:0:0:
437,149,185771,1,8,0:0:0:0:
247,109,185937,1,0,0:0:0:0:
281,130,186104,1,0,0:0:0:0:
281,130,186187,1,0,0:0:0:0:
286,132,186271,1,0,0:0:0:0:
464,159,186437,1,8,0:0:0:0:
415,180,186604,1,0,0:0:0:0:
392,184,186687,1,0,0:0:0:0:
475,155,186771,1,8,0:0:0:0:
358,186,186854,1,0,0:0:0:0:
283,88,186937,1,8,0:0:0:0:
445,152,187104,1,8,0:0:0:0:
371,155,187271,1,0,0:0:0:0:
353,154,187437,1,0,0:0:0:0:
353,156,187521,1,0,0:0:0:0:
422,148,187604,1,8,0:0:0:0:
481,155,187771,1,8,0:0:0:0:
322,88,187854,1,8,0:0:0:0:
304,137,187937,1,0,0:0:0:0:
337,85,188104,1,8,0:0:0:0:
339,84,188187,1,8,0:0:0:0:
344,84,188271,1,8,0:0:0:0:
438,168,188437,1,0,0:0:0:0:
380,130,188604,1,8,0:0:0:0:
370,166,188771,1,0,0:0:0:0:
370,166,188854,1,0,0:0:0:0:
440,148,188937,1,8,0:0:0:0:
438,168,189104,1,0,0:0:0:0:
334,138,189271,1,8,0:0:0:0:
467,183,189437,1,0,0:0:0:0:
380,179,189521,1,0,0:0:0:0:
327,126,189604,1,8,0:0:0:0:
407,175,189771,1,0,0:0:0:0:
347,148,189937,1,8,0:0:0:0:
378,129,190104,1,8,0:0:0:0:
192,106,190187,5,0,0:0:0:0:
358,133,190271,1,8,0:0:0:0:
224,176,190437,1,4,0:0:0:0:
109,65,190771,1,12,0:0:0:0:
411,184,190937,1,0,0:0:0:0:
230,176,191104,1,12,0:0:0:0:
365,143,191271,1,8,0:0:0:0:
394,132,191437,1,8,0:0:0:0:
406,178,191604,1,0,0:0:0:0:
357,176,191771,1,0,0:0:0:0:
465,171,191937,1,8,0:0:0:0:
349,180,192104,1,0,0:0:0:0:
364,175,192271,1,0,0:0:0:0:
429,160,192437,1,8,0:0:0:0:
191,37,192604,5,8,0:0:0:0:
449,176,192771,1,0,0:0:0:0:
342,160,192937,1,0,0:0:0:0:
369,135,193104,1,8,0:0:0:0:
380,168,193187,1,8,0:0:0:0:
348,173,193271,1,0,0:0:0:0:
433,176,193437,1,8,0:0:0:0:
213,185,193521,1,0,0:0:0:0:
428,169,193604,1,8,0:0:0:0:
179,81,193771,1,4,0:0:0:0:
416,141,193937,1,8,0:0:0:0:
378,137,194104,5,8,0:0:0:0:
413,175,194271,1,0,0:0:0:0:
438,152,194437,1,8,0:0:0:0:
461,186,194604,1,0,0:0:0:0:
230,132,194771,1,0,0:0:0:0:
418,156,194937,1,8,0:0:0:0:
310,187,195104,1,0,0:0:0:0:
468,176,195271,1,8,0:0:0:0:
415,141,195437,1,8,0:0:0:0:
353,166,195604,1,0,0:0:0:0:
336,155,195771,1,0,0:0:0:0:
416,183,195854,1,0,0:0:0:0:
106,115,195937,1,0,0:0:0:0:
177,77,196021,1,0,0:0:0:0:
483,152,196104,1,8,0:0:0:0:
404,121,196187,1,8,0:0:0:0:
416,168,196271,1,0,0:0:0:0:
222,109,196354,5,0,0:0:0:0:
146,110,196437,1,12,0:0:0:0:
404,121,196604,1,8,0:0:0:0:
409,147,196771,1,8,0:0:0:0:
506,190,196937,1,0,0:0:0:0:
356,163,197104,1,0,0:0:0:0:
469,159,197271,1,8,0:0:0:0:
360,189,197437,1,0,0:0:0:0:
408,166,197604,1,0,0:0:0:0:
305,91,197771,1,8,0:0:0:0:
332,94,197937,1,8,0:0:0:0:
362,193,198104,1,0,0:0:0:0:
388,129,198271,1,8,0:0:0:0:
480,174,198437,1,0,0:0:0:0:
335,236,198521,1,0,0:0:0:0:
191,45,198604,1,8,0:0:0:0:
440,152,198771,1,8,0:0:0:0:
388,165,198854,5,8,0:0:0:0:
376,219,198937,1,0,0:0:0:0:
90,188,199104,1,4,0:0:0:0:
464,156,199271,1,8,0:0:0:0:
409,143,199437,1,8,0:0:0:0:
489,178,199604,1,0,0:0:0:0:
440,152,199771,1,8,0:0:0:0:
372,177,199937,1,0,0:0:0:0:
441,150,200104,1,8,0:0:0:0:
298,122,200271,1,8,0:0:0:0:
451,168,200437,1,0,0:0:0:0:
407,167,200604,1,0,0:0:0:0:
387,114,200771,1,8,0:0:0:0:
439,174,200937,1,0,0:0:0:0:
456,158,201104,1,8,0:0:0:0:
297,79,201187,1,8,0:0:0:0:
194,80,201271,1,0,0:0:0:0:
287,75,201354,1,8,0:0:0:0:
112,110,201437,1,0,0:0:0:0:
163,31,201493,1,0,0:0:0:0:
73,145,201549,1,0,0:0:0:0:
353,93,201604,1,8,0:0:0:0:
180,162,201687,1,8,0:0:0:0:
246,105,201771,1,4,0:0:0:0:
268,185,202021,5,4,0:0:0:0:
208,52,202271,1,4,0:0:0:0:
271,54,202437,1,4,0:0:0:0:
225,38,202687,1,4,0:0:0:0:
190,43,202937,1,4,0:0:0:0:
256,192,203104,12,0,204271,0:0:0:0:
372,111,204437,5,8,0:0:0:0:
392,128,204603,1,8,0:0:0:0:
336,137,205437,1,0,0:0:0:0:
451,150,205603,1,8,0:0:0:0:
362,95,206437,1,8,0:0:0:0:
238,64,206603,5,0,0:0:0:0:
321,191,207437,1,0,0:0:0:0:
321,191,207603,1,0,0:0:0:0:
383,167,208437,1,8,0:0:0:0:
412,137,208603,1,8,0:0:0:0:
264,99,209437,1,0,0:0:0:0:
363,145,209603,1,8,0:0:0:0:
331,172,210437,1,8,0:0:0:0:
349,191,210603,1,0,0:0:0:0:
325,158,211437,1,0,0:0:0:0:
325,158,211603,1,0,0:0:0:0:
256,66,212103,5,8,0:0:0:0:
265,59,212270,1,8,0:0:0:0:
496,175,212437,1,0,0:0:0:0:
237,94,212603,1,0,0:0:0:0:
409,133,212770,1,8,0:0:0:0:
428,186,213103,1,0,0:0:0:0:
311,137,213437,1,0,0:0:0:0:
277,151,213603,1,0,0:0:0:0:
276,100,213770,1,8,0:0:0:0:
356,87,214103,1,8,0:0:0:0:
437,138,214437,1,8,0:0:0:0:
388,172,214603,1,0,0:0:0:0:
314,75,214770,1,8,0:0:0:0:
410,110,215103,1,8,0:0:0:0:
344,141,215437,1,0,0:0:0:0:
344,141,215603,1,0,0:0:0:0:
443,146,215770,1,8,0:0:0:0:
389,150,216103,1,0,0:0:0:0:
182,51,216437,5,0,0:0:0:0:
446,163,216603,1,8,0:0:0:0:
313,161,216770,1,0,0:0:0:0:
423,157,217103,1,8,0:0:0:0:
413,190,217437,1,0,0:0:0:0:
430,181,217603,1,0,0:0:0:0:
403,132,217770,1,8,0:0:0:0:
385,146,218103,1,8,0:0:0:0:
333,143,218436,1,8,0:0:0:0:
353,110,218603,1,8,0:0:0:0:
437,181,218770,1,0,0:0:0:0:
302,83,219103,1,8,0:0:0:0:
345,179,219436,1,0,0:0:0:0:
166,102,219603,1,0,0:0:0:0:
417,157,219770,1,8,0:0:0:0:
476,170,220103,1,8,0:0:0:0:
401,183,220436,1,0,0:0:0:0:
387,184,220603,1,0,0:0:0:0:
328,189,220770,1,0,0:0:0:0:
365,111,221103,1,8,0:0:0:0:
367,186,221436,1,0,0:0:0:0:
393,132,221603,1,8,0:0:0:0:
426,186,221770,1,0,0:0:0:0:
390,160,222103,1,8,0:0:0:0:
355,160,222436,1,0,0:0:0:0:
374,144,222603,1,0,0:0:0:0:
468,147,222770,1,8,0:0:0:0:
463,157,223103,1,8,0:0:0:0:
189,81,223436,1,0,0:0:0:0:
453,141,223603,1,8,0:0:0:0:
440,174,223770,1,0,0:0:0:0:
476,155,224103,1,8,0:0:0:0:
422,169,224436,1,0,0:0:0:0:
442,159,224603,1,0,0:0:0:0:
448,150,224770,1,8,0:0:0:0:
233,63,225103,1,8,0:0:0:0:
357,165,225436,1,0,0:0:0:0:
414,136,225603,1,8,0:0:0:0:
426,187,225770,1,0,0:0:0:0:
372,133,226103,1,8,0:0:0:0:
342,193,226436,1,0,0:0:0:0:
342,185,226603,1,0,0:0:0:0:
468,157,226770,1,8,0:0:0:0:
340,167,227103,1,0,0:0:0:0:
441,132,227436,1,8,0:0:0:0:
431,180,227603,1,0,0:0:0:0:
454,147,227770,1,8,0:0:0:0:
337,112,228103,1,8,0:0:0:0:
432,136,229103,1,8,0:0:0:0:
417,188,229270,1,0,0:0:0:0:
420,169,229436,1,8,0:0:0:0:
399,123,229770,1,8,0:0:0:0:
308,105,230103,1,8,0:0:0:0:
360,181,230436,1,0,0:0:0:0:
351,159,230770,1,0,0:0:0:0:
404,149,231103,1,8,0:0:0:0:
359,195,231186,1,0,0:0:0:0:
389,141,231270,1,8,0:0:0:0:
392,141,231353,1,8,0:0:0:0:
375,127,231436,1,8,0:0:0:0:
253,97,231770,1,8,0:0:0:0:
360,160,232103,1,0,0:0:0:0:
360,160,232270,1,0,0:0:0:0:
388,128,232436,1,8,0:0:0:0:
350,149,232769,1,8,0:0:0:0:
255,164,233102,1,0,0:0:0:0:
320,233,233769,1,0,0:0:0:0:
449,161,234102,1,8,0:0:0:0:
420,165,234436,1,8,0:0:0:0:
464,133,234602,1,8,0:0:0:0:
425,180,234769,1,0,0:0:0:0:
273,124,234936,1,0,0:0:0:0:
413,163,235102,1,8,0:0:0:0:
326,162,235436,1,8,0:0:0:0:
397,181,235769,1,0,0:0:0:0:
270,184,236436,1,0,0:0:0:0:
270,184,236769,1,0,0:0:0:0:
374,109,237102,1,8,0:0:0:0:
336,97,237436,1,8,0:0:0:0:
372,199,237602,1,0,0:0:0:0:
403,154,237769,1,8,0:0:0:0:
244,58,238102,5,8,0:0:0:0:
311,119,238436,1,0,0:0:0:0:
464,187,239102,1,0,0:0:0:0:
410,142,239436,1,8,0:0:0:0:
361,171,239769,1,0,0:0:0:0:
465,153,239936,1,8,0:0:0:0:
442,184,240102,1,0,0:0:0:0:
469,162,240269,1,8,0:0:0:0:
443,155,240436,1,8,0:0:0:0:
309,169,240602,1,0,0:0:0:0:
477,162,240769,1,8,0:0:0:0:
430,152,240936,1,8,0:0:0:0:
501,184,241102,1,0,0:0:0:0:
510,173,241269,1,8,0:0:0:0:
361,186,241436,1,0,0:0:0:0:
361,186,241602,1,0,0:0:0:0:
451,163,241769,1,8,0:0:0:0:
275,174,242102,1,8,0:0:0:0:
140,170,242436,5,4,0:0:0:0:
376,137,242686,5,4,0:0:0:0:
351,129,242936,1,4,0:0:0:0:
312,140,243102,1,4,0:0:0:0:
484,163,243269,1,8,0:0:0:0:
344,203,243352,1,0,0:0:0:0:
305,129,243436,1,8,0:0:0:0:
275,108,243519,1,8,0:0:0:0:
366,158,243602,1,0,0:0:0:0:
442,173,243769,1,0,0:0:0:0:
452,179,243936,1,8,0:0:0:0:
447,194,244102,1,0,0:0:0:0:
441,194,244186,1,0,0:0:0:0:
461,161,244269,1,8,0:0:0:0:
334,169,244436,1,0,0:0:0:0:
370,138,244602,1,8,0:0:0:0:
386,128,244686,1,8,0:0:0:0:
294,196,244769,1,0,0:0:0:0:
277,200,244852,1,0,0:0:0:0:
351,141,244936,1,8,0:0:0:0:
364,185,245102,1,0,0:0:0:0:
384,155,245269,1,8,0:0:0:0:
339,173,245436,1,0,0:0:0:0:
339,173,245519,1,0,0:0:0:0:
439,161,245602,1,8,0:0:0:0:
398,152,245769,1,8,0:0:0:0:
439,161,245936,1,8,0:0:0:0:
391,171,246019,1,8,0:0:0:0:
460,179,246102,1,0,0:0:0:0:
461,164,246186,1,8,0:0:0:0:
328,158,246269,1,0,0:0:0:0:
309,180,246435,1,0,0:0:0:0:
328,129,246602,1,8,0:0:0:0:
439,176,246769,1,0,0:0:0:0:
376,213,246852,1,0,0:0:0:0:
364,168,246935,1,8,0:0:0:0:
359,174,247102,1,8,0:0:0:0:
308,240,247185,1,0,0:0:0:0:
361,143,247269,1,8,0:0:0:0:
368,141,247352,1,8,0:0:0:0:
449,187,247435,1,0,0:0:0:0:
414,195,247519,1,0,0:0:0:0:
466,165,247602,1,8,0:0:0:0:
414,195,247685,1,0,0:0:0:0:
336,122,247769,1,8,0:0:0:0:
293,147,247852,1,8,0:0:0:0:
302,154,247935,1,0,0:0:0:0:
336,122,248102,1,12,0:0:0:0:
292,111,248269,1,12,0:0:0:0:
342,146,248435,1,4,0:0:0:0:
369,278,248602,1,0,0:0:0:0:
345,274,248685,1,0,0:0:0:0:
331,134,248769,1,8,0:0:0:0:
335,132,248852,1,8,0:0:0:0:
342,129,248935,1,8,0:0:0:0:
502,181,249102,1,0,0:0:0:0:
457,154,249269,1,8,0:0:0:0:
291,240,249352,1,0,0:0:0:0:
448,162,249435,1,8,0:0:0:0:
441,162,249519,1,8,0:0:0:0:
422,188,249602,1,0,0:0:0:0:
256,138,249769,1,0,0:0:0:0:
390,155,249935,1,8,0:0:0:0:
476,194,250102,1,0,0:0:0:0:
347,200,250185,1,0,0:0:0:0:
423,164,250269,1,8,0:0:0:0:
337,199,250435,1,0,0:0:0:0:
413,158,250602,1,8,0:0:0:0:
478,161,250685,1,8,0:0:0:0:
472,176,250769,1,0,0:0:0:0:
440,184,250852,1,0,0:0:0:0:
456,165,250935,1,8,0:0:0:0:
500,156,251102,1,8,0:0:0:0:
402,191,251269,1,0,0:0:0:0:
432,182,251435,1,0,0:0:0:0:
385,176,251519,1,0,0:0:0:0:
433,154,251602,1,8,0:0:0:0:
433,154,251769,1,8,0:0:0:0:
378,177,251935,1,0,0:0:0:0:
296,129,252102,5,8,0:0:0:0:
393,193,252185,1,0,0:0:0:0:
442,160,252269,1,8,0:0:0:0:
178,47,252435,1,0,0:0:0:0:
318,106,252602,1,8,0:0:0:0:
265,78,252685,1,8,0:0:0:0:
403,181,252769,1,0,0:0:0:0:
462,190,252852,1,0,0:0:0:0:
487,156,252935,1,8,0:0:0:0:
320,129,253102,1,12,0:0:0:0:
243,95,253352,1,12,0:0:0:0:
230,89,253602,1,12,0:0:0:0:
297,168,253769,5,4,0:0:0:0:
188,37,253935,1,8,0:0:0:0:
316,186,254102,5,0,0:0:0:0:
284,164,254185,1,0,0:0:0:0:
317,123,254269,5,8,0:0:0:0:
300,281,254352,1,0,0:0:0:0:
445,141,254435,1,8,0:0:0:0:
395,157,254602,1,8,0:0:0:0:
457,194,254769,1,0,0:0:0:0:
403,197,254852,1,0,0:0:0:0:
399,176,254935,1,8,0:0:0:0:
374,172,255102,1,0,0:0:0:0:
309,158,255269,1,8,0:0:0:0:
334,144,255352,1,8,0:0:0:0:
358,174,255435,1,0,0:0:0:0:
362,182,255519,1,0,0:0:0:0:
463,149,255602,1,8,0:0:0:0:
313,184,255769,1,0,0:0:0:0:
336,176,255852,1,0,0:0:0:0:
438,143,255935,1,8,0:0:0:0:
430,156,256102,1,8,0:0:0:0:
406,177,256269,1,0,0:0:0:0:
358,174,256435,1,0,0:0:0:0:
439,145,256602,1,8,0:0:0:0:
399,168,256769,1,0,0:0:0:0:
398,168,256852,1,0,0:0:0:0:
417,150,256935,1,8,0:0:0:0:
438,168,257102,1,0,0:0:0:0:
334,138,257269,1,8,0:0:0:0:
467,183,257435,1,0,0:0:0:0:
380,179,257519,1,0,0:0:0:0:
327,126,257602,1,8,0:0:0:0:
407,175,257769,1,0,0:0:0:0:
347,148,257935,1,8,0:0:0:0:
378,129,258102,1,8,0:0:0:0:
192,106,258185,5,0,0:0:0:0:
358,133,258269,1,8,0:0:0:0:
318,137,258435,1,0,0:0:0:0:
324,121,258602,1,8,0:0:0:0:
417,138,258769,1,8,0:0:0:0:
414,122,258852,1,8,0:0:0:0:
411,184,258935,1,0,0:0:0:0:
411,184,259019,1,0,0:0:0:0:
437,149,259102,1,8,0:0:0:0:
247,109,259269,1,0,0:0:0:0:
281,130,259435,1,0,0:0:0:0:
281,130,259519,1,0,0:0:0:0:
286,132,259602,1,0,0:0:0:0:
464,159,259769,1,8,0:0:0:0:
415,180,259935,1,0,0:0:0:0:
392,184,260019,1,0,0:0:0:0:
475,155,260102,1,8,0:0:0:0:
358,186,260185,1,0,0:0:0:0:
283,88,260269,1,8,0:0:0:0:
445,152,260435,1,8,0:0:0:0:
371,155,260602,1,0,0:0:0:0:
353,154,260769,1,0,0:0:0:0:
353,156,260852,1,0,0:0:0:0:
422,148,260935,1,8,0:0:0:0:
481,155,261102,1,8,0:0:0:0:
322,88,261185,1,8,0:0:0:0:
304,137,261269,1,0,0:0:0:0:
337,85,261435,1,8,0:0:0:0:
339,84,261519,1,8,0:0:0:0:
344,84,261602,1,8,0:0:0:0:
438,168,261769,1,0,0:0:0:0:
380,130,261935,1,8,0:0:0:0:
370,166,262102,1,0,0:0:0:0:
370,166,262185,1,0,0:0:0:0:
440,148,262269,1,8,0:0:0:0:
438,168,262435,1,0,0:0:0:0:
334,138,262602,1,8,0:0:0:0:
467,183,262769,1,0,0:0:0:0:
380,179,262852,1,0,0:0:0:0:
327,126,262935,1,8,0:0:0:0:
407,175,263102,1,0,0:0:0:0:
347,148,263269,1,8,0:0:0:0:
378,129,263435,1,8,0:0:0:0:
192,106,263519,5,0,0:0:0:0:
358,133,263602,1,8,0:0:0:0:
184,222,263769,1,4,0:0:0:0:
272,139,264102,1,12,0:0:0:0:
411,184,264269,1,0,0:0:0:0:
353,78,264435,1,12,0:0:0:0:
365,143,264602,1,8,0:0:0:0:
394,132,264769,1,8,0:0:0:0:
406,178,264935,1,0,0:0:0:0:
357,176,265102,1,0,0:0:0:0:
465,171,265269,1,8,0:0:0:0:
349,180,265435,1,0,0:0:0:0:
364,175,265602,1,0,0:0:0:0:
429,160,265769,1,8,0:0:0:0:
191,37,265935,5,8,0:0:0:0:
449,176,266102,1,0,0:0:0:0:
342,160,266269,1,0,0:0:0:0:
369,135,266435,1,8,0:0:0:0:
333,175,266519,1,8,0:0:0:0:
348,173,266602,1,0,0:0:0:0:
433,176,266769,1,8,0:0:0:0:
371,199,266852,1,0,0:0:0:0:
428,169,266935,1,8,0:0:0:0:
168,115,267102,1,4,0:0:0:0:
416,141,267269,1,8,0:0:0:0:
378,137,267435,5,8,0:0:0:0:
413,175,267602,1,0,0:0:0:0:
438,152,267769,1,8,0:0:0:0:
461,186,267935,1,0,0:0:0:0:
230,132,268102,1,0,0:0:0:0:
418,156,268269,1,8,0:0:0:0:
310,187,268435,1,0,0:0:0:0:
468,176,268602,1,8,0:0:0:0:
415,141,268769,1,8,0:0:0:0:
353,166,268935,1,0,0:0:0:0:
336,155,269102,1,0,0:0:0:0:
416,183,269185,1,0,0:0:0:0:
177,77,269269,1,0,0:0:0:0:
179,83,269352,1,0,0:0:0:0:
483,152,269435,1,8,0:0:0:0:
404,121,269519,1,8,0:0:0:0:
416,168,269602,1,0,0:0:0:0:
222,109,269685,5,0,0:0:0:0:
438,141,269769,1,8,0:0:0:0:
344,151,269852,1,8,0:0:0:0:
186,96,269935,1,0,0:0:0:0:
243,117,270019,1,8,0:0:0:0:
374,179,270102,5,0,0:0:0:0:
314,179,270185,1,0,0:0:0:0:
265,117,270269,1,8,0:0:0:0:
243,132,270352,1,0,0:0:0:0:
318,102,270435,1,8,0:0:0:0:
318,102,270519,1,8,0:0:0:0:
333,198,270602,1,0,0:0:0:0:
201,202,270685,1,0,0:0:0:0:
231,116,270769,1,8,0:0:0:0:
306,158,270852,1,8,0:0:0:0:
238,80,270935,1,8,0:0:0:0:
232,173,271019,1,0,0:0:0:0:
382,136,271102,1,8,0:0:0:0:
400,146,271185,1,8,0:0:0:0:
440,182,271269,1,0,0:0:0:0:
438,150,271352,1,8,0:0:0:0:
308,151,271435,1,0,0:0:0:0:
321,156,271519,1,0,0:0:0:0:
450,145,271602,1,8,0:0:0:0:
366,150,271685,1,0,0:0:0:0:
450,146,271769,1,8,0:0:0:0:
457,132,271852,1,8,0:0:0:0:
382,187,271935,1,0,0:0:0:0:
469,155,272019,1,8,0:0:0:0:
400,178,272102,1,0,0:0:0:0:
379,177,272185,1,0,0:0:0:0:
324,117,272269,1,8,0:0:0:0:
403,178,272352,1,0,0:0:0:0:
447,140,272435,1,8,0:0:0:0:
436,132,272519,1,8,0:0:0:0:
402,115,272602,1,8,0:0:0:0:
386,167,272685,1,0,0:0:0:0:
469,156,272769,1,8,0:0:0:0:
406,176,272852,1,0,0:0:0:0:
405,178,272935,1,0,0:0:0:0:
374,170,273019,1,0,0:0:0:0:
470,145,273102,1,8,0:0:0:0:
367,131,273185,1,0,0:0:0:0:
424,133,273269,1,8,0:0:0:0:
423,130,273352,1,8,0:0:0:0:
412,147,273435,1,0,0:0:0:0:
409,155,273519,1,0,0:0:0:0:
486,163,273602,1,8,0:0:0:0:
415,176,273685,1,0,0:0:0:0:
419,138,273769,1,8,0:0:0:0:
415,136,273852,1,8,0:0:0:0:
428,166,273935,1,0,0:0:0:0:
439,141,274019,1,8,0:0:0:0:
405,168,274102,1,0,0:0:0:0:
418,167,274185,1,0,0:0:0:0:
365,122,274269,1,8,0:0:0:0:
473,157,274352,1,0,0:0:0:0:
456,158,274435,1,8,0:0:0:0:
297,79,274519,1,8,0:0:0:0:
194,80,274602,1,0,0:0:0:0:
287,75,274685,1,8,0:0:0:0:
102,133,274769,1,0,0:0:0:0:
161,32,274824,1,0,0:0:0:0:
103,169,274880,1,0,0:0:0:0:
353,93,274935,1,8,0:0:0:0:
152,119,275019,1,8,0:0:0:0:
246,105,275102,1,4,0:0:0:0:
268,185,275352,5,4,0:0:0:0:
208,52,275602,1,4,0:0:0:0:
269,52,275769,1,4,0:0:0:0:
225,38,276019,1,4,0:0:0:0:
190,43,276269,1,4,0:0:0:0:
460,168,276435,1,12,0:0:0:0:
287,161,276602,1,0,0:0:0:0:
407,180,276685,1,0,0:0:0:0:
403,158,276769,1,8,0:0:0:0:
357,149,276852,1,8,0:0:0:0:
359,162,276935,1,0,0:0:0:0:
347,172,277102,1,0,0:0:0:0:
362,139,277269,1,8,0:0:0:0:
192,186,277352,1,0,0:0:0:0:
407,170,277435,1,8,0:0:0:0:
412,170,277519,1,8,0:0:0:0:
183,84,277602,1,0,0:0:0:0:
354,182,277769,1,0,0:0:0:0:
429,153,277935,1,8,0:0:0:0:
467,173,278019,1,8,0:0:0:0:
381,163,278102,1,0,0:0:0:0:
374,166,278185,1,0,0:0:0:0:
397,140,278269,1,8,0:0:0:0:
364,187,278435,1,0,0:0:0:0:
359,124,278602,1,8,0:0:0:0:
476,164,278769,1,8,0:0:0:0:
450,151,278852,1,8,0:0:0:0:
455,168,278935,1,0,0:0:0:0:
422,166,279102,1,0,0:0:0:0:
354,144,279269,1,0,0:0:0:0:
434,155,279435,1,8,0:0:0:0:
363,167,279519,1,0,0:0:0:0:
361,176,279602,1,8,0:0:0:0:
373,136,279769,1,8,0:0:0:0:
354,195,279935,1,0,0:0:0:0:
336,189,280102,1,0,0:0:0:0:
486,179,280185,1,0,0:0:0:0:
412,155,280269,1,8,0:0:0:0:
454,148,280435,1,8,0:0:0:0:
334,179,280519,1,0,0:0:0:0:
309,147,280602,1,8,0:0:0:0:
309,147,280685,1,8,0:0:0:0:
438,176,280769,1,0,0:0:0:0:
376,172,280852,1,0,0:0:0:0:
220,141,280935,1,8,0:0:0:0:
221,147,281019,1,0,0:0:0:0:
345,121,281102,5,8,0:0:0:0:
307,110,281185,1,8,0:0:0:0:
362,114,281269,1,8,0:0:0:0:
278,153,281352,1,0,0:0:0:0:
483,165,281435,1,0,0:0:0:0:
403,161,281519,1,0,0:0:0:0:
441,164,281602,1,8,0:0:0:0:
167,26,281685,1,0,0:0:0:0:
382,150,281769,1,8,0:0:0:0:
322,258,281935,1,0,0:0:0:0:
317,256,282019,1,0,0:0:0:0:
471,163,282102,1,8,0:0:0:0:
332,150,282185,1,0,0:0:0:0:
378,138,282269,1,8,0:0:0:0:
381,134,282435,1,8,0:0:0:0:
347,150,282602,1,0,0:0:0:0:
347,150,282685,1,0,0:0:0:0:
424,152,282769,1,8,0:0:0:0:
334,122,282852,1,8,0:0:0:0:
336,114,282935,1,8,0:0:0:0:
469,168,283102,1,0,0:0:0:0:
340,117,283269,1,8,0:0:0:0:
362,106,283435,1,8,0:0:0:0:
370,107,283519,1,8,0:0:0:0:
383,150,283602,1,0,0:0:0:0:
413,129,283769,1,8,0:0:0:0:
316,152,283935,1,0,0:0:0:0:
312,141,284102,1,0,0:0:0:0:
312,141,284185,1,0,0:0:0:0:
393,133,284269,1,8,0:0:0:0:
247,90,284435,1,0,0:0:0:0:
269,77,284602,1,8,0:0:0:0:
192,87,284769,1,0,0:0:0:0:
192,87,284852,1,0,0:0:0:0:
192,87,284935,1,0,0:0:0:0:
389,125,285102,1,8,0:0:0:0:
398,181,285269,1,0,0:0:0:0:
304,102,285435,1,8,0:0:0:0:
312,101,285519,1,8,0:0:0:0:
333,156,285602,1,0,0:0:0:0:
454,148,285769,1,8,0:0:0:0:
334,179,285852,1,0,0:0:0:0:
309,147,285935,1,8,0:0:0:0:
309,147,286019,1,8,0:0:0:0:
438,176,286102,1,0,0:0:0:0:
376,172,286185,1,0,0:0:0:0:
220,141,286269,1,8,0:0:0:0:
221,147,286352,1,0,0:0:0:0:
345,121,286435,5,8,0:0:0:0:
307,110,286519,1,8,0:0:0:0:
362,114,286602,1,8,0:0:0:0:
278,153,286685,1,0,0:0:0:0:
483,165,286769,1,0,0:0:0:0:
403,161,286852,1,0,0:0:0:0:
441,164,286935,1,8,0:0:0:0:
167,26,287019,1,0,0:0:0:0:
382,150,287102,1,8,0:0:0:0:
483,165,287185,1,8,0:0:0:0:
437,192,287269,1,0,0:0:0:0:
402,201,287352,1,0,0:0:0:0:
456,156,287435,1,8,0:0:0:0:
419,191,287519,1,0,0:0:0:0:
421,148,287602,1,8,0:0:0:0:
421,148,287685,1,8,0:0:0:0:
451,178,287769,1,0,0:0:0:0:
417,143,287852,1,8,0:0:0:0:
370,161,287935,1,0,0:0:0:0:
373,163,288019,1,0,0:0:0:0:
373,162,288102,1,0,0:0:0:0:
370,161,288185,1,0,0:0:0:0:
510,160,288269,1,8,0:0:0:0:
374,168,288352,1,0,0:0:0:0:
468,150,288435,1,8,0:0:0:0:
434,141,288519,1,8,0:0:0:0:
449,194,288602,1,0,0:0:0:0:
433,163,288685,1,8,0:0:0:0:
393,180,288769,1,0,0:0:0:0:
392,180,288852,1,0,0:0:0:0:
496,150,288935,1,8,0:0:0:0:
331,172,289019,1,0,0:0:0:0:
359,110,289102,1,8,0:0:0:0:
359,110,289185,1,8,0:0:0:0:
436,166,289269,1,0,0:0:0:0:
333,152,289352,1,0,0:0:0:0:
413,139,289435,1,8,0:0:0:0:
313,128,289519,1,8,0:0:0:0:
313,128,289602,1,8,0:0:0:0:
313,128,289685,1,8,0:0:0:0:
330,134,289769,1,0,0:0:0:0:
438,148,289852,1,8,0:0:0:0:
406,171,289935,1,0,0:0:0:0:
406,171,290019,1,0,0:0:0:0:
458,154,290102,1,8,0:0:0:0:
418,176,290185,1,0,0:0:0:0:
470,153,290269,1,8,0:0:0:0:
473,153,290352,1,8,0:0:0:0:
449,179,290435,1,0,0:0:0:0:
457,161,290519,1,8,0:0:0:0:
398,186,290602,1,0,0:0:0:0:
398,186,290685,1,0,0:0:0:0:
398,186,290769,1,0,0:0:0:0:
399,186,290852,1,0,0:0:0:0:
485,156,290935,1,8,0:0:0:0:
433,184,291019,1,0,0:0:0:0:
488,156,291102,1,8,0:0:0:0:
480,154,291185,1,8,0:0:0:0:
371,129,291269,1,8,0:0:0:0:
371,129,291352,1,8,0:0:0:0:
328,166,291435,1,8,0:0:0:0:
219,147,291519,1,8,0:0:0:0:
421,152,291602,1,8,0:0:0:0:
459,147,291685,1,8,0:0:0:0:
386,176,291769,1,0,0:0:0:0:
379,178,291852,1,0,0:0:0:0:
378,178,291935,1,0,0:0:0:0:
378,177,292019,1,0,0:0:0:0:
303,184,292102,5,0,0:0:0:0:
263,185,292185,1,0,0:0:0:0:
390,192,292269,1,0,0:0:0:0:
389,192,292352,1,0,0:0:0:0:
382,150,292435,1,8,0:0:0:0:
483,165,292519,1,8,0:0:0:0:
437,192,292602,1,0,0:0:0:0:
402,201,292685,1,0,0:0:0:0:
456,156,292769,1,8,0:0:0:0:
419,191,292852,1,0,0:0:0:0:
421,148,292935,1,8,0:0:0:0:
421,148,293019,1,8,0:0:0:0:
451,178,293102,1,0,0:0:0:0:
417,143,293185,1,8,0:0:0:0:
370,161,293269,1,0,0:0:0:0:
373,163,293352,1,0,0:0:0:0:
373,162,293435,1,0,0:0:0:0:
370,161,293519,1,0,0:0:0:0:
510,160,293602,1,8,0:0:0:0:
374,168,293685,1,0,0:0:0:0:
468,150,293769,1,8,0:0:0:0:
434,141,293852,1,8,0:0:0:0:
449,194,293935,1,0,0:0:0:0:
433,163,294019,1,8,0:0:0:0:
393,180,294102,1,0,0:0:0:0:
392,180,294185,1,0,0:0:0:0:
496,150,294269,1,8,0:0:0:0:
331,172,294352,1,0,0:0:0:0:
359,110,294435,1,8,0:0:0:0:
359,110,294519,1,8,0:0:0:0:
436,166,294602,1,0,0:0:0:0:
333,152,294685,1,0,0:0:0:0:
413,139,294769,1,8,0:0:0:0:
313,128,294852,1,8,0:0:0:0:
313,128,294935,1,8,0:0:0:0:
313,128,295019,1,8,0:0:0:0:
330,134,295102,1,0,0:0:0:0:
438,148,295185,1,8,0:0:0:0:
406,171,295269,1,0,0:0:0:0:
406,171,295352,1,0,0:0:0:0:
458,154,295435,1,8,0:0:0:0:
418,176,295519,1,0,0:0:0:0:
470,153,295602,1,8,0:0:0:0:
473,153,295685,1,8,0:0:0:0:
449,179,295769,1,0,0:0:0:0:
457,161,295852,1,8,0:0:0:0:
398,186,295935,1,0,0:0:0:0:
398,186,296019,1,0,0:0:0:0:
398,186,296102,1,0,0:0:0:0:
399,186,296185,1,0,0:0:0:0:
485,156,296269,1,8,0:0:0:0:
433,184,296352,1,0,0:0:0:0:
488,156,296435,1,8,0:0:0:0:
480,154,296519,5,8,0:0:0:0:
371,129,296602,1,8,0:0:0:0:
371,129,296685,1,8,0:0:0:0:
328,166,296769,1,8,0:0:0:0:
219,147,296852,1,8,0:0:0:0:
421,152,296935,1,8,0:0:0:0:
459,147,297019,1,8,0:0:0:0:
386,176,297102,1,0,0:0:0:0:
379,178,297185,1,0,0:0:0:0:
378,178,297269,1,0,0:0:0:0:
378,177,297352,1,0,0:0:0:0:
303,184,297435,5,0,0:0:0:0:
263,185,297519,1,0,0:0:0:0:
390,192,297602,1,0,0:0:0:0:
389,192,297685,1,0,0:0:0:0:
363,106,299102,1,4,0:0:0:0:
256,192,299269,12,0,321769,0:0:0:0:
