osu file format v14

[General]
AudioFilename: audio.mp3
AudioLeadIn: 0
PreviewTime: 39692
Countdown: 0
SampleSet: Soft
StackLeniency: 0.4
Mode: 0
LetterboxInBreaks: 0
WidescreenStoryboard: 1

[Editor]
Bookmarks: 8307,24923,39692,47076,55384,77538,92307
DistanceSpacing: 0.9
BeatDivisor: 4
GridSize: 4
TimelineZoom: 3.099999

[Metadata]
Title:Asgard (Game Ver.)
TitleUnicode:Asgard (Game Ver.)
Artist:Yousei Teikoku
ArtistUnicode:妖精帝國
Creator:Gillstar
Version:enryotoki's Extra
Source:フォルテシモ アコルト:ビーサスフィーア
Tags:fortissimo//akkord:bsusvier agatsu impurepug fixxis black man coco cococolaco loli catgirl deca enryotoki sparhten amiya xenon- xehn xen japanese video game
BeatmapID:2349438
BeatmapSetID:1123448

[Difficulty]
HPDrainRate:5
CircleSize:4.1
OverallDifficulty:7.9
ApproachRate:9.4
SliderMultiplier:1.7
SliderTickRate:1

[Events]
//Background and Video events
0,0,"asgward.png",0,0
//Break Periods
//Storyboard Layer 0 (Background)
//Storyboard Layer 1 (Fail)
//Storyboard Layer 2 (Pass)
//Storyboard Layer 3 (Foreground)
//Storyboard Layer 4 (Overlay)
//Storyboard Sound Samples

[TimingPoints]
0,230.769230769231,4,2,1,50,1,0
0,-250,4,2,1,50,0,0
6692,-250,4,2,1,55,0,0
6923,-250,4,2,1,60,0,0
7153,-250,4,2,1,65,0,0
7846,-100,4,2,1,70,0,0
8307,-83.3333333333333,4,2,1,70,0,0
8538,-100,4,2,1,70,0,0
9692,-83.3333333333333,4,2,1,70,0,0
10384,-100,4,2,1,70,0,0
11076,-125,4,2,1,70,0,0
11769,-100,4,2,1,70,0,0
12000,-83.3333333333333,4,2,1,70,0,0
12230,-100,4,2,1,70,0,0
13384,-83.3333333333333,4,2,1,70,0,0
14076,-100,4,2,1,70,0,0
15692,-83.3333333333333,4,2,1,70,0,0
15923,-100,4,2,1,70,0,0
17076,-83.3333333333333,4,2,1,70,0,0
17769,-100,4,2,1,70,0,0
18461,-125,4,2,1,70,0,0
19153,-100,4,2,1,70,0,0
19384,-83.3333333333333,4,2,1,70,0,0
19615,-100,4,2,1,70,0,0
20769,-83.3333333333333,4,2,1,70,0,0
21461,-100,4,2,1,70,0,0
21923,-250,4,2,1,70,0,0
22153,-83.3333333333333,4,2,1,70,0,0
23076,-200,4,2,1,70,0,0
24000,-125,4,2,1,70,0,0
24692,-125,4,2,1,50,0,0
24923,-125,4,2,1,60,0,0
31384,-100,4,2,1,60,0,0
32307,-333.333333333333,4,2,1,60,0,0
34153,-125,4,2,1,65,0,0
38769,-100,4,2,1,65,0,0
39692,-250,4,2,1,65,0,0
46615,-833.333333333333,4,2,1,65,0,0
47076,-105.263157894737,4,2,1,70,0,0
48000,-117.64705882353,4,2,1,70,0,0
49846,-153.846153846154,4,2,1,70,0,0
50769,-105.263157894737,4,2,1,70,0,0
51461,-117.64705882353,4,2,1,70,0,0
53538,-153.846153846155,4,2,1,70,0,0
55384,-83.3333333333333,4,2,1,80,0,0
55615,-100,4,2,1,80,0,0
57000,-200,4,2,1,80,0,0
57230,-100,4,2,1,80,0,0
59076,-83.3333333333333,4,2,1,80,0,0
59423,-100,4,2,1,80,0,0
60692,-200,4,2,1,80,0,0
62769,-83.3333333333333,4,2,1,80,0,0
63000,-100,4,2,1,80,0,0
64384,-200,4,2,1,80,0,0
64615,-100,4,2,1,80,0,0
66461,-83.3333333333333,4,2,1,80,0,0
66807,-100,4,2,1,80,0,0
68076,-125,4,2,1,80,0,0
70153,-83.3333333333333,4,2,1,80,0,0
70500,-100,4,2,1,80,0,0
74076,-125,4,2,1,80,0,0
77538,-83.3333333333333,4,2,1,70,0,0
77769,-100,4,2,1,70,0,0
78923,-83.3333333333333,4,2,1,70,0,0
79615,-100,4,2,1,70,0,0
80307,-125,4,2,1,70,0,0
81000,-100,4,2,1,70,0,0
81230,-83.3333333333333,4,2,1,70,0,0
81461,-100,4,2,1,70,0,0
82615,-83.3333333333333,4,2,1,70,0,0
83307,-100,4,2,1,70,0,0
84923,-83.3333333333333,4,2,1,70,0,0
85153,-100,4,2,1,70,0,0
86307,-83.3333333333333,4,2,1,70,0,0
87000,-100,4,2,1,70,0,0
87692,-125,4,2,1,70,0,0
88384,-100,4,2,1,70,0,0
88615,-83.3333333333333,4,2,1,70,0,0
88846,-100,4,2,1,70,0,0
90000,-83.3333333333333,4,2,1,70,0,0
90923,-100,4,2,1,70,0,0
92538,-500,4,2,1,70,0,0
93692,-500,4,2,1,5,0,0

[Colours]
Combo1 : 206,0,103
Combo2 : 255,79,79
Combo3 : 255,128,128
Combo4 : 255,100,177

[HitObjects]
512,268,923,5,2,0:0:0:0:
512,268,1615,1,2,0:0:0:0:
307,155,2307,2,0,B|277:164|277:164|273:169|273:169|235:182,1,68,2|2,0:0|0:0,0:0:0:0:
425,215,2769,5,2,0:0:0:0:
425,215,3461,1,2,0:0:0:0:
220,328,4153,2,0,B|190:318|190:318|186:314|186:314|148:301,1,68,2|0,0:0|0:0,0:0:0:0:
0,91,4615,5,2,0:0:0:0:
0,91,5307,1,2,0:0:0:0:
165,181,6000,2,0,P|177:150|163:114,1,68,2|2,0:0|0:0,0:0:0:0:
0,89,6461,5,2,0:3:0:0:
165,181,7153,1,2,0:3:0:0:
263,61,7384,1,8,0:0:0:0:
330,27,7500,1,0,1:0:0:0:
398,56,7615,1,0,1:0:0:0:
406,131,7730,1,0,1:0:0:0:
263,61,7846,6,0,B|207:109|116:97|106:18|106:18|157:29|173:87,1,297.5,2|0,1:0|0:0,0:0:0:0:
85,221,8307,6,0,P|51:252|-4:240,1,101.999996887207,4|0,1:0|0:0,0:0:0:0:
142,156,8538,1,10,2:0:0:0:
142,156,8653,1,2,0:0:0:0:
142,156,8769,2,0,P|110:206|137:269,1,127.5,2|0,1:2|0:0,0:0:0:0:
204,202,9000,6,0,P|185:170|117:162,1,85,10|0,0:0|0:0,0:0:0:0:
252,316,9230,1,2,1:2:0:0:
252,316,9346,1,2,0:0:0:0:
252,316,9461,2,0,B|306:307|306:307|315:308|315:308|391:292,1,127.5,8|0,0:0|0:0,0:0:0:0:
447,247,9692,6,0,B|471:238|495:194|472:145|472:145|454:173|476:202,1,152.999995330811,2|0,0:1|0:0,0:0:0:0:
377,294,9923,2,0,P|381:347|435:355,1,101.999996887207,10|0,0:0|1:0,0:0:0:0:
370,207,10153,6,0,B|328:209|310:160|310:160|288:117|237:125,1,152.999995330811,2|0,1:2|0:0,0:0:0:0:
181,139,10384,1,10,0:0:0:0:
181,139,10500,1,2,0:0:0:0:
181,139,10615,2,0,P|166:81|232:67,1,127.5,2|0,1:2|0:0,0:0:0:0:
181,139,10846,2,0,P|179:193|142:217,1,85,10|0,0:0|0:0,0:0:0:0:
30,63,11076,6,0,B|-2:89|-2:89|15:151,1,102,2|0,1:2|0:0,0:0:0:0:
14,147,11307,1,10,0:0:0:0:
158,211,11423,2,2,B|190:237|190:237|173:299,1,102,0|0,1:0|0:0,0:1:0:0:
173,295,11654,1,0,1:0:0:0:
11,381,11769,2,0,B|49:372|49:372|45:375|45:375|92:364,1,85,8|8,0:0|0:0,0:0:0:0:
277,239,12000,6,0,P|297:301|382:291,1,152.999995330811,4|0,1:2|0:0,0:0:0:0:
312,172,12230,1,10,0:0:0:0:
312,172,12346,1,2,0:0:0:0:
312,172,12461,2,0,B|321:149|299:133|299:133|273:146|281:181,1,85,2|0,1:2|1:0,0:0:0:0:
374,299,12692,6,0,B|382:328|421:340|421:340|452:309|442:279,1,127.5,10|0,0:0|0:0,0:0:0:0:
416,220,12923,1,2,1:2:0:0:
416,220,13038,1,2,0:0:0:0:
416,220,13153,2,0,P|391:188|398:136,1,85,10|0,0:0|1:0,0:0:0:0:
512,56,13384,6,0,B|470:90|422:76|404:34|404:34|420:-5,1,152.999995330811,2|0,0:1|0:0,0:0:0:0:
340,76,13615,2,0,P|283:72|257:114,1,101.999996887207,10|0,0:0|0:0,0:0:0:0:
217,268,13846,6,0,B|229:295|268:298|268:298|321:248|269:207,1,152.999995330811,2|0,1:2|0:0,0:0:0:0:
187,196,14076,1,10,0:0:0:0:
187,196,14192,1,2,0:0:0:0:
187,196,14307,2,0,P|148:229|141:272,1,85,2|0,1:2|0:0,0:0:0:0:
344,365,14538,6,0,P|334:314|259:302,1,127.5,10|0,0:0|0:0,0:0:0:0:
242,384,14769,2,0,B|233:345|233:345|235:340|235:340|226:290,1,85,2|2,1:2|1:2,0:0:0:0:
14,204,15000,2,0,B|5:243|5:243|7:248|7:248|-2:298,1,85,10|0,0:0|1:0,0:0:0:0:
203,168,15230,5,0,1:0:0:0:
154,152,15307,1,0,1:0:0:0:
154,101,15384,1,0,1:0:0:0:
203,85,15461,1,8,0:0:0:0:
229,128,15538,2,0,P|230:146|196:168,1,56.6666666666667,0|0,1:0|0:0,0:0:0:0:
54,51,15692,6,0,B|26:68|-6:43|-6:43|11:0|80:0|118:49,1,203.999993774414,4|10,1:0|2:0,0:0:0:0:
203,168,16038,1,2,0:0:0:0:
203,168,16153,2,0,P|254:193|308:145,1,127.5,2|0,1:2|0:0,0:0:0:0:
203,168,16384,6,0,P|177:202|194:255,1,85,10|0,0:0|0:0,0:0:0:0:
301,79,16615,1,2,1:2:0:0:
301,79,16730,1,2,0:0:0:0:
301,79,16846,2,0,P|323:42|409:46,1,127.5,8|0,0:0|0:0,0:0:0:0:
472,117,17076,6,0,B|501:64|501:64|493:32|493:32|475:94,1,152.999995330811,2|0,0:1|0:0,0:0:0:0:
403,157,17307,2,0,B|374:187|374:187|401:250,1,101.999996887207,10|0,0:0|1:0,0:0:0:0:
503,343,17538,6,0,P|498:276|413:271,1,152.999995330811,2|0,1:2|0:0,0:0:0:0:
425,346,17769,1,10,0:0:0:0:
425,346,17884,1,2,0:0:0:0:
425,346,18000,2,0,P|462:359|504:340,1,85,2|0,1:2|0:0,0:0:0:0:
316,237,18230,2,0,P|278:220|238:233,1,85,10|0,0:0|0:0,0:0:0:0:
166,381,18461,6,0,B|182:353|182:353|155:284,1,102,2|0,1:2|0:0,0:0:0:0:
150,288,18692,1,10,0:0:0:0:
14,243,18807,2,2,B|-2:215|-2:215|25:146,1,102,0|0,1:0|0:0,0:1:0:0:
30,150,19038,1,0,1:0:0:0:
192,93,19153,2,0,B|169:43|114:53|114:53|87:87,1,127.5,8|0,0:0|0:0,0:0:0:0:
187,166,19384,6,0,P|239:149|256:56,1,152.999995330811,4|0,1:2|0:0,0:0:0:0:
288,136,19615,1,10,0:0:0:0:
288,136,19730,1,2,0:0:0:0:
288,136,19846,2,0,P|320:173|371:174,1,85,2|0,1:2|1:0,0:0:0:0:
495,25,20076,6,0,L|473:163,1,127.5,10|0,0:0|0:0,0:0:0:0:
438,222,20307,1,2,1:2:0:0:
438,222,20423,1,2,0:0:0:0:
438,222,20538,2,0,L|426:307,1,85,10|0,0:0|1:0,0:0:0:0:
337,369,20769,6,0,B|305:408|259:365|259:365|290:365|323:326,1,152.999995330811,2|0,0:1|0:0,0:0:0:0:
426,306,21000,2,0,P|469:347|442:374,1,101.999996887207,10|0,0:0|0:0,0:0:0:0:
255,294,21230,6,0,B|174:291|178:225|178:225|188:239|193:267,1,152.999995330811,2|0,1:2|0:0,0:0:0:0:
130,313,21461,2,0,P|79:319|38:285,1,85,10|2,0:0|0:0,0:0:0:0:
124,171,21692,5,2,1:2:0:0:
197,152,21807,1,0,0:0:0:0:
268,129,21923,2,0,B|295:124|295:124|271:135,1,51,10|0,0:0|0:0,0:0:0:0:
120,164,22153,6,0,B|100:118|100:118|125:89|125:89|140:117|140:117|122:152,1,152.999995330811,2|0,1:2|0:0,0:0:0:0:
205,226,22384,6,0,B|215:253|215:253|200:278|200:278|189:259|189:259|199:233,1,101.999996887207,2|0,1:2|0:0,0:0:0:0:
73,344,22615,5,0,1:2:0:0:
73,344,22692,1,0,1:0:0:0:
73,344,22769,1,0,1:0:0:0:
73,344,22846,1,8,0:0:0:0:
14,212,22961,5,8,0:0:0:0:
14,212,23076,2,0,P|9:191|19:167,1,42.5,4|0,1:2|0:0,0:0:0:0:
60,114,23307,2,0,P|78:103|104:105,1,42.5,2|0,0:0|0:0,0:0:0:0:
167,129,23538,2,0,P|183:143|188:168,1,42.5,2|0,0:0|0:0,0:0:0:0:
191,236,23769,2,0,P|197:256|213:269,1,42.5,2|0,0:0|0:0,0:0:0:0:
288,285,24000,6,0,P|318:281|345:250,1,68,2|0,0:0|0:0,0:0:0:0:
392,181,24230,2,0,P|403:153|390:114,1,68,2|0,0:0|0:0,0:0:0:0:
338,47,24461,5,8,0:0:0:0:
255,78,24576,5,8,0:0:0:0:
242,166,24692,5,8,0:0:0:0:
312,219,24807,5,8,0:0:0:0:
392,181,24923,6,0,B|421:159|421:159|490:173,1,102,4|0,1:2|0:0,0:0:0:0:
496,171,25153,2,0,P|457:159|441:192,1,68,10|0,0:0|0:0,0:0:0:0:
375,301,25384,2,0,P|317:305|302:230,1,136,2|10,1:2|0:0,0:0:0:0:
202,174,25730,6,0,B|222:159|240:89|199:45|199:45|195:78|235:114,1,204,2|10,0:0|0:0,0:0:0:0:
318,142,26192,1,0,1:0:0:0:
318,142,26307,2,0,B|328:135|345:135|345:135|327:108|300:118,1,68,2|0,0:0|1:0,0:0:0:0:
129,70,26538,2,0,B|119:76|102:77|102:77|120:104|147:94,1,68,10|0,0:0|0:0,0:0:0:0:
343,0,26769,6,0,B|371:10|381:30|381:30|387:58|419:70,1,102,0|0,1:0|0:0,0:0:0:0:
421,72,27000,2,0,P|439:52|409:32,1,68,10|0,0:0|0:0,0:0:0:0:
312,115,27230,2,0,B|287:160|287:160|342:244,1,136,2|10,1:2|0:0,0:0:0:0:
483,373,27576,5,2,0:0:0:0:
483,373,27692,2,0,P|428:358|438:284,1,136,0|10,1:0|0:0,0:0:0:0:
483,373,28038,1,0,1:0:0:0:
485,245,28153,2,0,P|454:218|420:217,1,68,2|0,0:0|1:0,0:0:0:0:
340,333,28384,2,0,P|314:372|251:345,1,102,10|0,0:0|0:0,0:0:0:0:
206,309,28615,6,0,B|191:273|191:273|229:203,1,102,0|0,1:0|0:0,0:0:0:0:
289,188,28846,2,0,B|307:186|318:206|318:206|306:229|288:225,1,68,10|0,0:0|0:0,0:0:0:0:
128,223,29076,2,0,B|87:219|71:190|71:190|52:155|8:153,1,136,2|10,1:2|0:0,0:0:0:0:
170,121,29423,6,0,B|211:117|227:88|227:88|246:53|290:51,1,136,2|10,1:2|0:0,0:0:0:0:
374,137,29769,2,0,B|362:158|380:186|380:186|371:184|363:173,1,68,10|0,0:0|1:0,0:0:0:0:
281,52,30000,2,0,B|269:30|287:2|287:2|278:4|270:15,1,68,2|0,0:0|1:0,0:0:0:0:
172,121,30230,2,0,B|160:153|184:198|184:198|164:188|161:168,1,102,10|0,0:0|0:0,0:0:0:0:
93,167,30461,6,0,B|52:159|52:159|77:172,1,68,2|0,1:2|0:0,0:0:0:0:
252,240,30692,2,0,B|293:232|293:232|268:245,1,68,10|0,0:0|0:0,0:0:0:0:
93,313,30923,2,0,B|52:305|52:305|77:318,1,68,2|0,1:2|1:0,0:0:0:0:
220,383,31153,5,2,1:2:0:0:
221,377,31269,1,2,1:2:0:0:
176,208,31384,6,0,B|131:166|176:135|176:135|167:157|176:182,1,127.5,4|0,1:2|0:0,0:0:0:0:
269,244,31615,2,0,B|314:286|269:317|269:317|278:295|269:270,1,127.5,10|0,0:0|0:0,0:0:0:0:
251,164,31846,5,2,1:2:0:0:
318,128,31961,1,0,1:0:0:0:
388,156,32076,1,8,0:0:0:0:
402,231,32192,1,8,0:0:0:0:
349,291,32307,5,4,1:2:0:0:
342,282,32538,1,2,0:3:0:0:
341,271,32769,1,2,0:3:0:0:
345,261,33000,1,2,0:3:0:0:
353,255,33230,1,2,0:3:0:0:
363,253,33461,1,2,0:3:0:0:
372,256,33692,5,2,1:2:0:0:
422,250,33769,1,0,1:0:0:0:
453,209,33846,1,0,1:0:0:0:
443,158,33923,2,0,P|429:137|427:116,1,38.2499988327027,10|0,0:0|0:0,0:0:0:0:
486,83,34153,6,0,P|443:97|411:39,1,102,4|0,1:2|0:0,0:0:0:0:
459,4,34384,2,0,P|496:35|486:83,1,102,10|0,0:0|0:0,0:0:0:0:
371,138,34615,2,0,L|288:129,1,68,2|0,1:2|0:0,0:0:0:0:
228,35,34846,2,0,P|234:4|270:15,1,68,8|2,0:0|0:0,0:0:0:0:
304,131,35076,5,0,1:0:0:0:
259,191,35192,1,2,0:0:0:0:
184,182,35307,1,10,0:0:0:0:
141,120,35423,1,0,1:0:0:0:
154,46,35538,2,0,L|160:122,1,68,2|0,0:0|1:0,0:0:0:0:
7,239,35769,2,0,L|13:163,1,68,10|0,0:0|0:0,0:0:0:0:
148,298,36000,6,0,B|170:324|154:371|154:371|163:345|175:328,1,102,0|0,1:0|0:0,0:0:0:0:
229,307,36230,2,0,P|261:325|247:360,1,68,10|0,0:0|0:0,0:0:0:0:
88,262,36461,2,0,P|87:225|124:219,1,68,2|0,1:2|0:0,0:0:0:0:
260,224,36692,5,10,0:0:0:0:
260,224,36807,2,0,B|285:240|351:229|361:179|361:179|332:187|331:225,1,170,2|0,0:0|0:0,0:0:0:0:
396,260,37153,2,0,B|404:273|430:264|430:264|429:245|411:238,1,68,10|0,0:0|1:0,0:0:0:0:
260,224,37384,2,0,B|252:237|226:228|226:228|227:209|245:202,1,68,2|0,0:0|1:0,0:0:0:0:
400,100,37615,2,0,B|417:119|446:100|446:100|436:62|406:66,1,102,10|0,0:0|0:0,0:0:0:0:
337,64,37846,6,0,P|302:59|270:85,1,68,2|0,1:2|0:0,0:0:0:0:
241,203,38076,2,0,P|206:208|169:148,1,102,10|0,0:0|0:0,0:0:0:0:
192,91,38307,1,2,1:2:0:0:
192,91,38423,1,0,1:0:0:0:
301,164,38538,2,0,P|315:192|304:239,1,68,10|2,0:0|0:0,0:0:0:0:
124,354,38769,6,0,B|64:369|50:321|50:321|79:310|92:341,1,127.5,4|0,1:2|0:0,0:0:0:0:
200,331,39000,2,0,B|259:315|273:363|273:363|244:374|231:343,1,127.5,8|0,0:0|0:0,0:0:0:0:
121,351,39230,5,0,1:0:0:0:
85,282,39346,5,0,1:0:0:0:
114,202,39461,5,8,0:0:0:0:
205,183,39576,5,8,0:0:0:0:
200,331,39692,5,4,1:2:0:0:
199,327,39807,1,0,1:0:0:0:
198,323,39923,1,2,1:2:0:0:
197,319,40038,1,0,1:0:0:0:
196,315,40153,2,0,L|186:272,1,34,10|0,0:0|0:0,0:0:0:0:
283,194,40384,5,2,1:2:0:0:
284,190,40499,2,0,L|294:147,1,34,0|2,1:0|0:0,0:0:0:0:
95,78,40730,5,8,0:0:0:0:
94,74,40845,2,0,L|84:31,1,34,2|0,1:2|0:0,0:0:0:0:
173,159,41076,5,10,0:0:0:0:
173,159,41307,2,0,L|209:150,2,22.6666666666667,2|0|0,1:2|1:0|1:0,0:0:0:0:
308,61,41538,5,0,1:0:0:0:
311,62,41653,1,0,1:0:0:0:
315,63,41769,1,2,1:2:0:0:
319,64,41884,1,0,1:0:0:0:
323,65,41999,2,0,L|365:78,1,34,10|0,0:0|0:0,0:0:0:0:
510,147,42230,5,2,1:2:0:0:
506,148,42345,2,0,L|464:161,1,34,0|2,1:0|1:2,0:0:0:0:
275,229,42576,5,8,0:0:0:0:
279,230,42691,2,0,L|321:243,1,34,2|0,1:2|0:0,0:0:0:0:
500,378,42923,5,10,0:0:0:0:
357,162,43153,5,8,0:0:0:0:
196,347,43384,5,4,1:2:0:0:
189,349,43500,1,0,1:0:0:0:
182,348,43615,1,2,1:2:0:0:
176,344,43730,1,0,1:0:0:0:
172,338,43846,2,0,L|161:296,1,34,10|0,0:2|0:0,0:0:0:0:
55,205,44076,5,2,1:2:0:0:
51,211,44192,2,0,L|40:253,1,34,0|2,1:0|0:0,0:0:0:0:
243,127,44423,5,8,0:0:0:0:
239,121,44539,2,0,L|228:79,1,34,2|0,1:2|0:0,0:0:0:0:
16,39,44769,5,10,0:0:0:0:
16,39,45000,2,0,B|24:37|24:37|38:40|38:40|46:38,2,22.6666666666667,2|0|0,1:2|1:0|1:0,0:0:0:0:
230,88,45230,5,0,1:0:0:0:
241,91,45346,1,0,1:0:0:0:
241,103,45461,1,2,1:2:0:0:
230,107,45576,1,0,1:0:0:0:
222,96,45692,2,0,L|236:57,1,34,10|0,0:0|0:0,0:0:0:0:
386,37,45923,5,0,1:0:0:0:
399,34,46038,1,2,1:2:0:0:
409,42,46153,2,0,L|371:45,1,34,2|0,0:0|1:0,0:0:0:0:
179,14,46384,6,0,L|162:48,1,34,2|0,0:0|0:0,0:0:0:0:
16,202,46615,6,0,L|38:235,1,35.7000008715821,10|0,0:0|0:0,0:0:0:0:
167,322,47076,6,0,B|197:299|183:259|183:259|150:266|157:318,1,121.124996765614,4|0,1:0|0:0,0:0:0:0:
127,384,47307,5,8,0:0:0:0:
168,323,47423,1,0,1:0:0:0:
237,303,47538,1,2,0:3:0:0:
301,335,47653,1,0,1:0:0:0:
371,353,47769,1,8,0:0:0:0:
427,308,47884,1,0,0:0:0:0:
432,235,48000,6,0,P|403:196|315:207,1,144.500002756119,0|10,1:0|0:0,0:0:0:0:
412,171,48346,2,0,P|383:143|406:71,1,108.375002067089,2|0,1:2|0:0,0:0:0:0:
461,50,48576,1,0,1:0:0:0:
263,7,48692,6,0,B|245:0|231:19|231:19|236:45|256:50,1,72.2500013780594,10|0,0:0|0:0,0:0:0:0:
393,80,48923,6,0,B|351:79|336:114|336:114|316:151|269:148,1,144.500002756119,2|8,1:2|0:0,0:0:0:0:
163,99,49269,1,0,1:0:0:0:
163,99,49384,2,0,P|183:119|181:176,1,72.2500013780594,2|0,0:3|1:0,0:0:0:0:
72,125,49615,2,0,P|111:90|163:99,1,108.375002067089,10|0,0:0|0:0,0:0:0:0:
114,195,49846,6,0,L|128:256,1,55.2499974708558,2|0,1:2|0:0,0:0:0:0:
276,266,50076,5,8,0:0:0:0:
184,378,50192,2,0,P|181:349|198:317,1,55.2499974708558,0|2,1:0|0:3,0:0:0:0:
370,372,50423,5,0,1:0:0:0:
269,213,50539,2,0,P|266:242|283:274,1,55.2499974708558,8|0,0:0|0:0,0:0:0:0:
453,242,50769,6,0,B|471:248|490:224|490:224|450:180|410:222,1,121.124996765614,4|0,1:2|0:0,0:0:0:0:
377,271,51000,5,8,0:0:0:0:
413,208,51115,1,0,1:0:0:0:
371,148,51230,1,2,0:3:0:0:
300,167,51346,1,0,1:0:0:0:
297,239,51461,2,0,B|298:260|323:265|323:265|340:249|332:228,1,72.2500013780594,8|0,0:0|0:0,0:0:0:0:
206,119,51692,6,0,B|175:73|193:22|193:22|170:45|169:77,1,144.500002756119,2|10,1:2|0:0,0:0:0:0:
300,167,52038,2,0,B|284:207|304:241|304:241|280:233|277:203,1,108.375002067089,2|0,1:2|0:0,0:0:0:0:
214,196,52269,1,0,1:0:0:0:
364,124,52384,6,0,B|401:119|401:119|366:136,1,72.2500013780594,10|0,0:0|0:0,0:0:0:0:
214,196,52615,6,0,B|169:198|155:238|155:238|139:278|91:277,1,144.500002756119,2|8,1:2|0:0,0:0:0:0:
5,163,52961,1,0,1:0:0:0:
5,163,53076,2,0,P|5:194|39:186,1,72.2500013780594,2|0,0:3|1:0,0:0:0:0:
104,276,53307,2,0,P|147:260|190:319,1,108.375002067089,10|0,0:0|0:0,0:0:0:0:
143,364,53538,6,0,B|127:383|127:383|132:344,1,55.2499974708558,2|0,1:2|0:0,0:0:0:0:
261,280,53769,5,8,0:0:0:0:
226,207,53884,2,0,B|210:187|210:187|215:227,1,55.2499974708558,0|2,1:0|0:3,0:0:0:0:
425,247,54115,5,0,1:0:0:0:
375,356,54230,2,0,B|359:375|359:375|364:336,1,55.2499974708558,8|0,0:0|0:0,0:0:0:0:
343,168,54461,6,0,L|381:155,2,36.8333316472372,14|0|0,0:0|1:0|1:0,0:0:0:0:
512,329,54692,6,0,L|469:316,2,36.8333316472372,14|0|0,0:0|1:0|1:0,0:0:0:0:
266,264,54923,5,8,0:0:0:0:
257,257,55000,2,0,L|264:210,1,36.8333316472372,0|0,1:0|1:0,0:0:0:0:
472,45,55153,5,8,0:0:0:0:
463,52,55230,2,0,L|470:99,1,36.8333316472372,0|0,1:0|1:0,0:0:0:0:
199,153,55384,6,0,P|178:115|256:75,1,152.999995330811,4|0,1:0|0:0,0:0:0:0:
269,196,55615,2,0,B|244:193|231:172|231:172|220:155|179:148,1,85,10|0,0:0|0:0,0:0:0:0:
121,27,55846,2,0,B|86:26|70:59|70:59|54:93|7:98,1,127.5,2|0,1:2|0:0,0:0:0:0:
6,28,56076,1,10,0:0:0:0:
115,176,56192,6,0,B|146:229|115:294|86:309|86:309|89:275|121:251,1,212.5,2|0,1:2|0:0,0:0:0:0:
184,295,56538,2,0,B|203:305|228:280|228:280|208:282|189:270,1,85,10|0,0:0|0:0,0:0:0:0:
43,205,56769,2,0,B|24:195|-1:220|-1:220|19:218|38:230,1,85,2|0,0:0|1:0,0:0:0:0:
75,378,57000,6,0,P|93:377|122:358,1,42.5,10|0,0:0|1:0,0:0:0:0:
230,212,57230,6,0,P|287:185|324:227,1,127.5,4|0,1:2|0:0,0:0:0:0:
323,302,57461,2,0,B|326:332|304:355|304:355|297:337|312:326,1,85,10|0,0:0|0:0,0:0:0:0:
230,212,57692,2,0,B|212:173|249:138|249:138|262:171|241:188,1,127.5,2|0,1:2|0:0,0:0:0:0:
244,281,57923,1,10,0:0:0:0:
386,216,58038,6,0,B|421:207|434:176|434:176|446:139|484:134,1,127.5,2|0,1:2|0:0,0:0:0:0:
504,203,58269,1,2,1:2:0:0:
430,183,58384,1,10,0:0:0:0:
389,117,58500,1,2,1:2:0:0:
413,42,58615,2,0,L|473:26,2,56.6666666666667,2|0|0,1:2|1:0|1:0,0:0:0:0:
339,191,58846,2,0,L|248:172,1,85,10|0,0:0|0:0,0:0:0:0:
98,36,59076,6,0,B|93:106|154:111|154:111|155:77|124:78,1,152.999995330811,4|0,1:2|0:0,0:0:0:0:
124,84,59307,1,10,0:0:0:0:
63,170,59423,2,0,P|53:206|83:244,1,85,2|0,0:0|1:0,0:0:0:0:
98,36,59653,2,0,P|49:27|14:51,1,85,2|8,0:0|0:0,0:0:0:0:
167,261,59884,6,0,B|194:308|160:376|160:376|172:350|204:339,1,170,2|0,1:2|1:0,0:0:0:0:
272,336,60230,2,0,B|293:328|310:348|310:348|288:349|268:370,1,85,10|2,0:0|1:2,0:0:0:0:
87,263,60461,2,0,B|66:271|49:251|49:251|71:250|91:229,1,85,2|0,1:2|0:0,0:0:0:0:
255,47,60692,6,0,L|235:101,1,42.5,10|0,0:0|0:0,0:0:0:0:
260,214,60923,5,4,1:2:0:0:
323,247,61038,1,0,1:0:0:0:
384,209,61153,1,8,0:0:0:0:
400,138,61269,1,0,1:0:0:0:
349,86,61384,1,2,1:3:0:0:
276,92,61500,1,0,1:0:0:0:
229,146,61615,1,8,0:0:0:0:
167,191,61730,1,0,1:0:0:0:
92,170,61846,5,2,1:3:0:0:
67,97,61961,1,0,1:0:0:0:
108,33,62076,1,8,0:0:0:0:
184,31,62192,1,0,1:0:0:0:
233,93,62307,5,2,1:3:0:0:
167,153,62423,5,0,1:0:0:0:
83,122,62538,5,8,0:0:0:0:
48,39,62653,5,8,0:0:0:0:
167,153,62769,6,0,B|189:179|196:233|160:259|160:259|161:239|183:222,1,152.999995330811,4|0,1:0|0:0,0:0:0:0:
249,257,63000,2,0,P|297:248|311:207,1,85,10|0,0:0|0:0,0:0:0:0:
161,148,63230,2,0,P|110:143|77:206,1,127.5,2|0,1:2|0:0,0:0:0:0:
118,269,63461,1,10,0:0:0:0:
273,148,63576,6,0,B|307:84|389:105|389:105|383:159,1,170,2|2,1:2|1:2,0:0:0:0:
373,283,63923,2,0,B|348:266|348:266|359:199,1,85,10|2,0:0|1:2,0:0:0:0:
487,108,64153,2,0,B|477:73|477:73|481:57|481:57|469:19,1,85,0|0,1:2|1:0,0:0:0:0:
311,62,64384,6,0,P|288:76|257:78,1,42.5,10|0,0:0|0:0,0:0:0:0:
115,16,64615,6,0,P|67:46|89:116,1,127.5,4|0,1:2|0:0,0:0:0:0:
176,61,64846,2,0,P|155:26|115:16,1,85,10|0,0:0|0:0,0:0:0:0:
21,215,65076,2,0,P|63:232|109:166,1,127.5,2|0,1:2|0:0,0:0:0:0:
78,108,65307,1,10,0:0:0:0:
158,293,65423,6,0,B|197:328|165:375|165:375|156:349|176:327,1,127.5,2|0,1:2|0:0,0:0:0:0:
247,306,65653,1,2,1:2:0:0:
268,232,65769,1,8,0:0:0:0:
212,180,65884,1,2,1:2:0:0:
137,199,66000,2,0,L|83:216,2,56.6666666666667,2|0|0,1:2|0:0|0:0,0:0:0:0:
247,306,66230,2,0,B|282:319|282:319|329:295,1,85,10|0,0:0|0:0,0:0:0:0:
487,250,66461,6,0,B|456:233|435:181|477:149|477:149|488:177|458:197,1,152.999995330811,4|0,1:2|0:0,0:0:0:0:
465,188,66692,1,10,0:0:0:0:
369,225,66807,2,0,B|351:238|331:219|331:219|338:190|364:195,1,85,2|0,0:0|1:0,0:0:0:0:
475,69,67038,2,0,B|493:82|513:63|513:63|506:34|480:39,1,85,2|8,1:2|0:0,0:0:0:0:
263,25,67269,6,0,P|196:28|199:121,1,170,2|2,1:2|1:2,0:0:0:0:
266,143,67615,2,0,P|234:114|184:115,1,85,8|0,0:0|1:0,0:0:0:0:
109,280,67846,2,0,P|67:292|24:217,1,127.5,2|0,1:2|0:0,0:0:0:0:
27,230,68076,6,0,P|57:225|94:249,1,68,10|0,0:0|0:0,0:0:0:0:
205,346,68307,5,2,1:3:0:0:
277,372,68423,1,0,1:0:0:0:
332,319,68538,1,8,0:0:0:0:
326,242,68653,1,0,1:0:0:0:
254,213,68769,1,2,1:3:0:0:
188,252,68884,1,0,1:0:0:0:
112,235,69000,1,8,0:0:0:0:
83,164,69115,1,0,1:0:0:0:
137,109,69230,5,2,1:3:0:0:
188,252,69346,1,0,1:0:0:0:
268,139,69461,5,8,0:0:0:0:
254,213,69577,1,0,1:0:0:0:
344,233,69692,5,2,1:3:0:0:
319,261,69808,1,0,1:0:0:0:
377,320,69923,5,8,0:0:0:0:
359,325,70039,1,8,0:0:0:0:
134,372,70153,6,0,B|104:361|82:308|115:274|115:274|108:298|120:320,1,152.999995330811,4|0,1:0|0:0,0:0:0:0:
186,318,70384,1,8,0:0:0:0:
118,278,70500,1,0,0:0:0:0:
118,278,70615,2,0,P|59:265|22:318,1,127.5,2|0,1:2|0:0,0:0:0:0:
118,278,70846,2,0,P|152:235|132:190,1,85,8|0,0:0|1:0,0:0:0:0:
70,42,71076,6,0,B|15:75|50:124|50:124|69:101|59:74,1,127.5,2|0,0:0|0:0,0:0:0:0:
70,42,71307,2,0,B|82:14|96:5|96:5|71:-2|51:21,1,85,10|0,0:0|0:0,0:0:0:0:
141,199,71538,2,0,P|179:207|224:164,1,85,2|0,1:2|1:0,0:0:0:0:
274,40,71769,2,0,P|312:32|345:108,1,127.5,10|0,0:0|0:0,0:0:0:0:
275,117,72000,6,0,B|238:110|238:110|232:112|232:112|178:103,1,85,2|0,1:2|0:0,0:0:0:0:
421,190,72230,2,0,B|457:183|457:183|464:185|464:185|518:176,1,85,8|0,0:0|0:0,0:0:0:0:
328,259,72461,5,2,1:2:0:0:
299,330,72576,1,0,1:0:0:0:
364,371,72692,1,8,0:0:0:0:
392,303,72807,1,0,1:0:0:0:
288,334,72923,6,0,B|250:333|238:303|238:303|222:268|175:267,1,127.5,2|0,0:0|0:0,0:0:0:0:
112,247,73153,2,0,B|88:272|88:272|113:323,1,85,8|0,0:0|1:0,0:0:0:0:
194,194,73384,5,2,1:2:0:0:
221,151,73461,1,0,1:0:0:0:
212,100,73538,1,0,1:0:0:0:
167,74,73615,1,8,0:0:0:0:
133,145,73730,5,8,0:0:0:0:
272,198,73846,1,4,1:2:0:0:
133,145,73961,5,0,0:0:0:0:
132,145,74076,2,0,L|145:68,1,68,8|2,0:0|1:2,0:0:0:0:
268,206,74307,6,0,L|281:283,1,68,2|0,1:2|0:0,0:0:0:0:
375,76,74538,6,0,L|388:-1,1,68,10|0,0:0|1:0,0:0:0:0:
504,214,74769,5,2,1:2:0:0:
504,214,74884,1,0,1:0:0:0:
504,214,75000,2,0,B|470:198|470:198|414:219,1,90.6666666666667,8|0,0:0|0:0,0:0:0:0:
393,263,75230,5,0,1:0:0:0:
398,317,75307,1,0,1:0:0:0:
435,356,75384,1,0,1:0:0:0:
489,355,75461,2,0,P|496:332|481:290,1,68,12|0,0:0|0:0,0:0:0:0:
464,155,75692,5,2,1:0:0:0:
464,155,75807,1,0,1:0:0:0:
305,110,75923,5,2,1:0:0:0:
305,110,76038,1,0,1:0:0:0:
399,71,76153,5,2,1:0:0:0:
348,255,76384,5,2,1:0:0:0:
348,255,76499,1,0,1:0:0:0:
189,300,76615,5,2,1:0:0:0:
189,300,76730,1,0,1:0:0:0:
283,339,76845,5,2,1:0:0:0:
120,134,77076,5,0,1:0:0:0:
77,107,77153,1,0,1:0:0:0:
29,122,77230,1,0,1:0:0:0:
9,167,77307,2,0,L|24:224,2,45.3333333333333,0|0|0,1:0|1:0|1:0,0:0:0:0:
233,159,77538,6,0,B|215:127|239:89|239:89|285:85|305:130,1,152.999995330811,4|0,1:0|0:0,0:0:0:0:
272,233,77769,1,10,2:0:0:0:
272,233,77884,1,2,0:0:0:0:
272,233,78000,2,0,P|222:240|160:188,1,127.5,2|0,1:2|0:0,0:0:0:0:
120,134,78230,6,0,L|135:40,1,85,10|0,0:0|0:0,0:0:0:0:
34,183,78461,1,2,1:2:0:0:
34,183,78576,1,2,0:0:0:0:
34,183,78692,2,0,L|13:311,1,127.5,8|0,0:0|0:0,0:0:0:0:
98,374,78923,6,0,B|95:357|80:344|80:344|85:296|131:270|181:292,1,152.999995330811,2|0,0:1|0:0,0:0:0:0:
223,363,79153,2,0,P|263:375|293:327,1,101.999996887207,10|0,0:0|1:0,0:0:0:0:
423,165,79384,6,0,P|466:162|491:252,1,152.999995330811,2|0,1:2|0:0,0:0:0:0:
430,173,79615,1,10,0:0:0:0:
430,173,79730,1,2,0:0:0:0:
430,173,79846,2,0,P|380:151|386:74,1,127.5,2|0,1:2|0:0,0:0:0:0:
512,0,80076,2,0,P|501:36|438:57,1,85,10|0,0:0|0:0,0:0:0:0:
296,86,80307,6,0,P|258:41|208:55,1,102,2|0,1:2|0:0,0:0:0:0:
219,45,80538,1,10,0:0:0:0:
215,219,80653,2,2,P|272:208|285:158,1,102,0|0,1:0|0:0,0:1:0:0:
289,172,80884,1,0,1:0:0:0:
140,98,81000,2,0,B|124:114|117:135|117:135|124:164|146:182,1,85,8|8,0:0|0:0,0:0:0:0:
298,293,81230,6,0,B|337:296|353:339|353:339|331:383|280:371,1,152.999995330811,4|0,1:2|0:0,0:0:0:0:
226,321,81461,1,10,0:0:0:0:
226,321,81576,1,2,0:0:0:0:
226,321,81692,2,0,P|217:278|248:235,1,85,2|0,1:2|1:0,0:0:0:0:
167,384,81923,6,0,P|120:382|80:309,1,127.5,10|0,0:0|0:0,0:0:0:0:
120,257,82153,1,2,1:2:0:0:
120,257,82269,1,2,0:0:0:0:
120,257,82384,2,0,L|107:162,1,85,10|0,0:0|1:0,0:0:0:0:
42,81,82615,6,0,P|27:129|107:143,1,152.999995330811,2|0,0:1|0:0,0:0:0:0:
54,71,82846,2,0,P|37:15|-1:8,1,101.999996887207,10|0,0:0|0:0,0:0:0:0:
193,170,83076,6,0,L|345:194,1,152.999995330811,2|0,1:2|0:0,0:0:0:0:
411,151,83307,1,10,0:0:0:0:
411,151,83423,1,2,0:0:0:0:
411,151,83538,2,0,L|494:164,1,85,2|0,1:2|0:0,0:0:0:0:
312,267,83769,6,0,P|293:325|331:373,1,127.5,10|0,0:0|0:0,0:0:0:0:
387,289,84000,2,0,P|353:265|312:267,1,85,2|0,1:2|0:0,0:0:0:0:
211,362,84230,2,0,P|177:386|135:384,1,85,10|0,0:0|0:0,0:0:0:0:
4,244,84461,5,0,1:0:0:0:
39,207,84538,1,0,1:0:0:0:
90,205,84615,1,0,1:0:0:0:
120,245,84692,1,8,0:0:0:0:
113,295,84769,1,0,1:0:0:0:
67,318,84846,1,0,1:0:0:0:
20,303,84923,6,0,P|7:243|83:203,1,152.999995330811,4|0,1:0|0:0,0:0:0:0:
120,302,85153,1,10,2:0:0:0:
120,302,85269,1,2,0:0:0:0:
120,302,85384,2,0,P|164:313|208:241,1,127.5,2|0,1:2|0:0,0:0:0:0:
108,131,85615,6,0,P|76:163|79:208,1,85,10|0,0:0|0:0,0:0:0:0:
221,147,85846,1,2,1:2:0:0:
221,147,85961,1,2,0:0:0:0:
221,147,86076,2,0,L|361:166,1,127.5,8|0,0:0|0:0,0:0:0:0:
436,132,86307,6,0,B|464:87|420:43|420:43|427:69|413:103,1,152.999995330811,2|0,0:1|0:0,0:0:0:0:
347,164,86538,2,0,P|321:226|351:263,1,101.999996887207,10|0,0:0|1:0,0:0:0:0:
433,339,86769,6,0,B|465:368|506:339|506:339|507:287|457:276,1,152.999995330811,2|0,1:2|0:0,0:0:0:0:
365,305,87000,1,10,0:0:0:0:
365,305,87115,1,2,0:0:0:0:
365,305,87230,2,0,P|355:337|378:391,1,85,2|0,1:2|1:0,0:0:0:0:
317,214,87461,2,0,P|283:214|239:252,1,85,10|0,0:0|0:0,0:0:0:0:
396,128,87692,6,0,P|385:96|318:69,1,102,2|0,1:2|0:0,0:0:0:0:
326,67,87923,1,10,0:0:0:0:
424,241,88038,2,2,P|456:247|514:202,1,102,0|0,1:0|0:0,0:1:0:0:
510,211,88269,1,0,1:0:0:0:
321,140,88384,2,0,B|283:150|283:150|289:152|289:152|246:163,1,85,8|8,0:0|0:0,0:0:0:0:
0,274,88615,6,0,P|53:261|78:171,1,152.999995330811,4|0,1:2|0:0,0:0:0:0:
104,253,88846,1,10,0:0:0:0:
104,253,88961,1,2,0:0:0:0:
104,253,89077,2,0,P|132:292|183:298,1,85,2|0,1:2|1:0,0:0:0:0:
305,337,89307,6,0,P|328:282|403:281,1,127.5,10|0,0:0|0:0,0:0:0:0:
375,372,89538,1,2,1:2:0:0:
375,372,89653,1,2,0:0:0:0:
375,372,89769,2,0,P|334:366|305:337,1,85,10|0,0:0|1:0,0:0:0:0:
367,118,90000,6,0,B|419:76|393:32|393:32|356:43|359:82,1,152.999995330811,2|0,0:1|0:0,0:0:0:0:
311,162,90230,2,0,P|363:191|410:172,1,101.999996887207,10|0,0:0|1:0,0:0:0:0:
248,96,90461,6,0,B|179:110|179:110|185:112|185:112|93:132,1,152.999995330811,2|0,1:2|0:0,0:0:0:0:
41,95,90692,2,0,B|16:67|16:67|44:42|44:42|43:78,1,101.999996887207,10|2,0:0|0:0,0:0:0:0:
163,205,90923,5,2,1:2:0:0:
157,255,91000,1,0,1:0:0:0:
151,305,91076,1,0,1:0:0:0:
143,354,91153,2,0,P|102:376|64:366,1,85,10|0,0:0|1:0,0:0:0:0:
290,272,91384,6,0,P|348:249|388:312,1,127.5,2|0,1:2|0:0,0:0:0:0:
389,319,91615,2,0,P|363:352|321:354,1,85,10|0,0:0|0:0,0:0:0:0:
444,172,91846,2,0,P|485:175|511:207,1,85,4|0,1:2|0:0,0:0:0:0:
290,272,92076,5,8,0:0:0:0:
277,179,92192,1,8,0:0:0:0:
266,87,92307,1,4,1:0:0:0:
399,3,92538,6,0,L|422:-2,2,17,2|2|2,0:0|0:0|0:0,0:0:0:0:
139,147,93000,5,2,0:0:0:0:
139,147,93230,2,0,L|122:144,2,17,2|2|2,0:0|0:0|0:0,0:0:0:0:
