osu file format v14

[General]
AudioFilename: audio.mp3
AudioLeadIn: 0
PreviewTime: 39692
Countdown: 0
SampleSet: Soft
StackLeniency: 0.7
Mode: 0
LetterboxInBreaks: 0
WidescreenStoryboard: 1

[Editor]
Bookmarks: 8307,24923,39692,47076,55384,77538,92307
DistanceSpacing: 0.9
BeatDivisor: 4
GridSize: 4
TimelineZoom: 3.499999

[Metadata]
Title:Asgard (Game Ver.)
TitleUnicode:Asgard (Game Ver.)
Artist:Yousei Teikoku
ArtistUnicode:妖精帝國
Creator:Gillstar
Version:coco's Extra
Source:フォルテシモ アコルト:ビーサスフィーア
Tags:fortissimo//akkord:bsusvier agatsu impurepug fixxis black man coco cococolaco loli catgirl deca enryotoki sparhten amiya xenon- xehn xen japanese video game
BeatmapID:2349516
BeatmapSetID:1123448

[Difficulty]
HPDrainRate:5
CircleSize:4
OverallDifficulty:9
ApproachRate:9.5
SliderMultiplier:1.6
SliderTickRate:1

[Events]
//Background and Video events
0,0,"asgward.png",0,0
//Break Periods
//Storyboard Layer 0 (Background)
//Storyboard Layer 1 (Fail)
//Storyboard Layer 2 (Pass)
//Storyboard Layer 3 (Foreground)
//Storyboard Layer 4 (Overlay)
//Storyboard Sound Samples

[TimingPoints]
0,230.769230769231,4,2,1,50,1,0
6692,-100,4,2,1,55,0,0
6923,-100,4,2,1,60,0,0
7153,-100,4,2,1,65,0,0
7846,-100,4,2,1,70,0,0
8307,-90.9090909090909,4,2,1,70,0,0
24692,-90.9090909090909,4,2,1,50,0,0
24923,-111.111111111111,4,2,1,60,0,0
34153,-111.111111111111,4,2,1,65,0,0
47076,-90.9090909090909,4,2,1,70,0,0
55384,-90.9090909090909,4,2,1,80,0,0
77538,-90.9090909090909,4,2,1,70,0,0
92538,-111.111111111111,4,2,1,70,0,0
93692,-111.111111111111,4,2,1,5,0,0

[Colours]
Combo1 : 206,0,103
Combo2 : 255,79,79
Combo3 : 255,128,128
Combo4 : 255,100,177

[HitObjects]
0,267,923,6,0,L|174:249,1,160,2|0,0:0|0:0,0:0:0:0:
159,250,1269,1,2,0:0:0:0:
101,328,1384,2,0,P|80:267|79:177,1,120,2|0,0:0|0:0,0:0:0:0:
89,201,1615,2,0,P|82:158|70:115,1,80,2|0,0:0|0:0,0:0:0:0:
314,41,1846,1,2,0:0:0:0:
262,103,1961,1,2,0:0:0:0:
321,167,2076,2,0,P|310:205|304:245,1,80,2|0,0:0|0:0,0:0:0:0:
512,134,2307,2,0,P|461:88|365:111,1,160,2|2,0:0|0:0,0:0:0:0:
42,82,2769,6,0,P|93:36|189:59,1,160,2|2,0:0|0:0,0:0:0:0:
295,82,3115,1,2,0:0:0:0:
195,33,3230,2,0,B|209:81|209:81|191:130,1,80,2|0,0:0|0:0,0:0:0:0:
125,165,3461,2,0,B|111:207|111:207|122:242,1,80,2|0,0:0|0:0,0:0:0:0:
203,325,3692,1,2,0:0:0:0:
203,325,3807,1,2,0:0:0:0:
203,325,3923,2,0,L|66:345,1,120,2|0,0:0|0:0,0:0:0:0:
223,189,4153,2,0,B|281:196|281:196|313:223|313:223|378:227,1,160,2|0,0:0|0:0,0:0:0:0:
372,226,4615,6,0,P|386:271|393:328,1,80,2|0,0:0|0:0,0:0:0:0:
413,63,4846,1,2,0:0:0:0:
362,0,4961,1,2,0:0:0:0:
289,29,5076,2,0,P|275:73|268:130,1,80,2|0,0:0|0:0,0:0:0:0:
46,224,5307,2,0,P|85:217|123:205,1,80,2|0,0:0|0:0,0:0:0:0:
339,149,5538,1,2,0:0:0:0:
266,189,5653,1,2,0:0:0:0:
192,134,5769,2,0,B|99:126|146:83|40:75,2,160,2|2|2,0:0|0:0|0:0,0:0:0:0:
429,235,6461,6,0,P|369:240|309:330,1,160,2|2,0:3|0:3,0:0:0:0:
353,384,6807,1,0,0:0:0:0:
446,257,6923,2,0,L|458:173,1,80,2|0,0:3|0:0,0:0:0:0:
266,189,7153,2,0,L|254:105,1,80,2|0,0:3|0:0,0:0:0:0:
314,32,7384,5,8,0:0:0:0:
363,117,7500,1,0,1:0:0:0:
235,97,7615,1,0,1:0:0:0:
92,61,7730,1,0,1:0:0:0:
235,97,7846,6,0,L|153:117,1,80,2|0,1:0|0:0,0:0:0:0:
131,372,8076,2,0,L|111:290,1,80,8|8,0:0|0:0,0:0:0:0:
1,230,8307,6,0,B|54:222|99:194|99:194|132:201|185:225,1,176.000005371094,4|10,1:0|2:0,0:0:0:0:
317,343,8653,1,2,0:0:0:0:
218,360,8769,2,0,P|230:299|243:260,1,88.000002685547,2|0,1:2|1:0,0:0:0:0:
384,98,9000,2,0,P|396:140|403:183,1,88.000002685547,10|0,0:0|0:0,0:0:0:0:
468,250,9230,5,2,1:2:0:0:
314,183,9346,1,2,0:0:0:0:
384,98,9461,2,0,P|330:91|289:81,1,88.000002685547,8|0,0:0|1:0,0:0:0:0:
151,289,9692,2,0,P|193:279|237:274,1,88.000002685547,2|0,0:1|1:0,0:0:0:0:
148,31,9923,2,0,P|105:40|61:45,1,88.000002685547,10|0,0:0|1:0,0:0:0:0:
0,154,10153,6,0,P|58:141|155:126,1,132.00000402832,2|0,1:2|0:0,0:0:0:0:
124,148,10384,2,0,P|167:151|225:161,1,88.000002685547,10|2,0:0|0:0,0:0:0:0:
73,230,10615,1,2,1:2:0:0:
228,142,10730,1,0,1:0:0:0:
276,242,10846,2,0,P|268:281|260:334,1,88.000002685547,10|0,0:0|0:0,0:0:0:0:
413,226,11076,5,2,1:2:0:0:
378,55,11192,1,2,0:0:0:0:
347,134,11307,1,10,0:0:0:0:
300,11,11423,2,2,P|218:-6|167:63,1,176.000005371094,0|0,1:0|1:0,0:1:0:0:
354,144,11769,2,0,P|409:137|454:136,1,88.000002685547,8|8,0:0|0:0,0:0:0:0:
174,257,12000,6,0,P|92:240|41:309,1,176.000005371094,4|10,1:2|0:0,0:0:0:0:
225,184,12346,1,2,0:0:0:0:
277,258,12461,2,0,L|283:352,1,88.000002685547,2|0,1:2|1:0,0:0:0:0:
85,187,12692,2,0,L|79:281,1,88.000002685547,10|0,0:0|0:0,0:0:0:0:
6,70,12923,1,2,1:2:0:0:
169,157,13038,1,2,0:0:0:0:
246,90,13153,2,0,P|286:85|337:78,1,88.000002685547,10|0,0:0|1:0,0:0:0:0:
85,187,13384,5,2,0:1:0:0:
159,66,13500,1,0,1:0:0:0:
256,193,13615,2,0,B|360:198|320:240|433:244,1,176.000005371094,10|2,0:0|1:2,0:0:0:0:
186,334,14076,1,10,0:0:0:0:
186,334,14192,1,2,0:0:0:0:
19,299,14307,2,0,P|76:281|117:282,1,88.000002685547,2|0,1:2|0:0,0:0:0:0:
174,151,14538,2,0,P|166:84|154:56,1,88.000002685547,10|0,0:0|1:0,0:0:0:0:
73,187,14769,5,2,1:2:0:0:
256,85,14884,1,2,1:2:0:0:
148,49,15000,2,0,P|146:122|170:202,1,132.00000402832,10|0,0:0|0:0,0:0:0:0:
183,206,15230,2,0,L|170:278,2,58.6666684570313,0|0|0,1:0|1:0|1:0,0:0:0:0:
274,279,15461,2,0,L|281:341,2,58.6666684570313,8|0|0,0:0|1:0|1:0,0:0:0:0:
388,236,15692,5,4,1:0:0:0:
258,201,15807,1,0,0:0:0:0:
325,156,15923,2,0,P|374:145|412:129,1,88.000002685547,10|2,2:0|0:0,0:0:0:0:
494,212,16153,2,0,P|479:259|473:300,1,88.000002685547,2|0,1:2|1:0,0:0:0:0:
303,288,16384,2,0,P|337:315|366:347,1,88.000002685547,10|0,0:0|0:0,0:0:0:0:
203,88,16615,5,2,1:2:0:0:
130,55,16730,1,2,0:0:0:0:
67,109,16846,2,0,B|42:200|107:182|68:296,1,176.000005371094,8|2,0:0|0:1,0:0:0:0:
190,207,17192,1,0,1:0:0:0:
61,296,17307,2,0,L|163:279,1,88.000002685547,10|0,0:0|1:0,0:0:0:0:
369,158,17538,2,0,B|264:146|264:146|243:117|234:77,1,176.000005371094,2|10,1:2|0:0,0:0:0:0:
275,244,17884,1,2,0:0:0:0:
190,207,18000,2,0,P|153:164|144:131,1,88.000002685547,2|0,1:2|0:0,0:0:0:0:
300,0,18230,2,0,P|337:43|346:76,1,88.000002685547,10|0,0:0|0:0,0:0:0:0:
392,226,18461,2,0,L|507:258,2,88.000002685547,2|2|10,1:2|0:0|0:0,0:0:0:0:
488,265,18807,6,2,L|307:294,1,176.000005371094,0|0,1:0|1:0,0:1:0:0:
200,338,19153,2,0,L|66:313,1,132.00000402832,8|0,0:0|0:0,0:0:0:0:
151,224,19384,6,0,P|158:167|125:74,1,132.00000402832,4|0,1:2|0:0,0:0:0:0:
118,84,19615,1,10,0:0:0:0:
50,190,19730,1,2,0:0:0:0:
253,123,19846,2,0,L|370:107,1,88.000002685547,2|0,1:2|1:0,0:0:0:0:
512,149,20076,2,0,L|424:160,1,88.000002685547,10|0,0:0|0:0,0:0:0:0:
300,324,20307,5,2,1:2:0:0:
245,259,20423,1,2,0:0:0:0:
297,194,20538,2,0,P|287:140|280:100,1,88.000002685547,10|0,0:0|1:0,0:0:0:0:
403,298,20769,2,0,P|395:341|387:384,1,88.000002685547,2|0,0:1|1:0,0:0:0:0:
175,310,21000,2,0,P|131:318|88:325,1,88.000002685547,10|0,0:0|0:0,0:0:0:0:
323,203,21230,6,0,P|304:110|298:25,1,176.000005371094,2|10,1:2|0:0,0:0:0:0:
211,105,21576,1,2,0:0:0:0:
122,47,21692,1,2,1:2:0:0:
122,47,21807,2,0,P|113:96|102:140,1,88.000002685547,0|10,0:0|0:0,0:0:0:0:
104,133,22153,5,2,1:2:0:0:
148,216,22269,1,0,0:0:0:0:
0,266,22384,2,0,L|184:237,1,176.000005371094,2|0,1:2|1:2,0:0:0:0:
401,117,22846,5,8,0:0:0:0:
380,215,22961,1,8,0:0:0:0:
357,308,23076,1,4,1:2:0:0:
346,343,24461,5,8,0:0:0:0:
418,297,24576,1,8,0:0:0:0:
372,224,24692,1,8,0:0:0:0:
297,270,24807,1,8,0:0:0:0:
297,270,24865,1,0,1:0:0:0:
297,270,24923,6,0,P|213:283|127:287,1,143.999995605469,4|10,1:2|0:0,0:0:0:0:
418,117,25384,2,0,P|371:110|331:103,1,71.9999978027344,2|0,1:2|0:0,0:0:0:0:
263,92,25615,1,10,0:0:0:0:
299,171,25730,1,2,0:0:0:0:
299,171,25846,2,0,P|303:58|312:2,1,143.999995605469,0|10,1:0|0:0,0:0:0:0:
153,50,26192,1,0,1:0:0:0:
197,125,26307,2,0,P|200:149|201:196,1,71.9999978027344,2|0,0:0|1:0,0:0:0:0:
24,273,26538,2,0,P|20:248|19:201,1,71.9999978027344,10|0,0:0|0:0,0:0:0:0:
110,171,26769,6,0,B|87:264|136:228|119:318,1,143.999995605469,0|10,1:0|0:0,0:0:0:0:
396,305,27230,2,0,P|404:263|406:225,1,71.9999978027344,2|0,1:2|1:0,0:0:0:0:
348,158,27461,1,10,0:0:0:0:
401,321,27576,2,0,L|321:306,1,71.9999978027344,2|0,0:0|1:0,0:0:0:0:
264,200,27807,1,2,0:0:0:0:
124,279,27923,2,0,L|204:264,1,71.9999978027344,10|0,0:0|1:0,0:0:0:0:
201,64,28153,2,0,L|48:31,2,143.999995605469,2|10|0,0:0|0:0|1:0,0:0:0:0:
201,64,28846,6,0,P|236:58|279:47,1,71.9999978027344,10|0,0:0|0:0,0:0:0:0:
414,182,29076,2,0,P|419:146|431:104,1,71.9999978027344,2|0,1:2|1:0,0:0:0:0:
500,51,29307,1,10,0:0:0:0:
322,132,29423,2,0,P|251:144|161:165,1,143.999995605469,2|0,0:0|0:0,0:0:0:0:
155,279,29769,6,0,P|177:307|202:332,1,71.9999978027344,10|0,0:0|1:0,0:0:0:0:
263,160,30000,2,0,P|227:165|192:174,1,71.9999978027344,2|0,0:0|1:0,0:0:0:0:
312,306,30230,2,0,P|325:272|334:237,1,71.9999978027344,10|0,0:0|0:0,0:0:0:0:
480,4,30461,6,0,B|465:42|464:75|464:75|475:106|497:140,1,143.999995605469,2|10,1:2|0:0,0:0:0:0:
374,67,30807,1,0,0:0:0:0:
374,67,30923,2,0,L|297:79,1,71.9999978027344,2|0,1:2|1:0,0:0:0:0:
216,254,31153,1,2,1:2:0:0:
41,170,31269,1,2,1:2:0:0:
41,170,31384,6,0,B|82:177|82:177|100:195|100:195|140:201,1,107.999996704102,4|0,1:2|0:0,0:0:0:0:
153,187,31615,2,0,P|150:146|137:104,1,71.9999978027344,10|0,0:0|0:0,0:0:0:0:
318,237,31846,2,0,P|309:271|306:307,1,71.9999978027344,2|0,1:2|0:0,0:0:0:0:
187,338,32076,5,8,0:0:0:0:
216,254,32192,1,8,0:0:0:0:
261,170,32307,1,4,1:2:0:0:
261,170,32538,5,2,0:3:0:0:
261,170,32769,1,2,0:3:0:0:
261,170,33000,1,2,0:3:0:0:
261,170,33230,1,2,0:3:0:0:
261,170,33461,1,2,0:3:0:0:
178,95,33692,5,2,1:2:0:0:
178,95,33769,1,0,1:0:0:0:
178,95,33846,1,0,1:0:0:0:
178,95,33923,1,10,0:0:0:0:
85,136,34153,6,0,P|74:192|73:270,1,107.999996704102,4|0,1:2|0:0,0:0:0:0:
66,262,34384,2,0,L|151:247,1,71.9999978027344,10|0,0:0|0:0,0:0:0:0:
261,142,34615,1,2,1:2:0:0:
178,95,34730,1,0,0:0:0:0:
290,55,34846,1,8,0:0:0:0:
178,95,34961,2,0,P|176:137|170:177,1,71.9999978027344,2|0,0:0|1:0,0:0:0:0:
285,278,35192,1,2,0:0:0:0:
359,224,35307,2,0,P|362:157|371:93,1,107.999996704102,10|0,0:0|0:0,0:0:0:0:
367,116,35538,2,0,P|411:78|509:82,2,143.999995605469,2|10|0,0:0|0:0|1:0,0:0:0:0:
108,296,36230,6,0,P|68:295|31:275,1,71.9999978027344,10|0,0:0|0:0,0:0:0:0:
177,162,36461,1,2,1:2:0:0:
177,162,36576,2,0,P|187:206|185:240,1,71.9999978027344,0|10,1:0|0:0,0:0:0:0:
59,186,36807,2,0,P|83:113|106:27,1,143.999995605469,2|0,0:0|0:0,0:0:0:0:
101,48,37153,6,0,L|196:32,1,71.9999978027344,10|0,0:0|1:0,0:0:0:0:
177,162,37384,2,0,L|247:174,1,71.9999978027344,2|0,0:0|1:0,0:0:0:0:
288,46,37615,2,0,L|358:33,1,71.9999978027344,10|0,0:0|0:0,0:0:0:0:
481,146,37846,6,0,B|440:126|408:122|408:122|374:132|343:149,1,143.999995605469,2|10,1:2|0:0,0:0:0:0:
290,260,38192,1,0,0:0:0:0:
247,174,38307,2,0,L|260:262,1,71.9999978027344,2|0,1:2|1:0,0:0:0:0:
136,339,38538,1,10,0:0:0:0:
76,269,38653,2,0,L|86:197,1,71.9999978027344,2|4,0:0|1:2,0:0:0:0:
340,59,39000,5,8,0:0:0:0:
129,30,39230,1,0,1:0:0:0:
69,86,39346,1,0,1:0:0:0:
150,120,39461,1,8,0:0:0:0:
211,61,39576,1,8,0:0:0:0:
211,61,39634,1,0,1:0:0:0:
211,61,39692,6,0,P|201:123|191:216,1,143.999995605469,4|2,1:2|1:2,0:0:0:0:
191,203,40038,1,0,1:0:0:0:
307,41,40153,2,0,P|298:104|294:137,1,71.9999978027344,10|0,0:0|0:0,0:0:0:0:
364,192,40384,1,2,1:2:0:0:
364,192,40500,1,0,1:0:0:0:
441,80,40730,1,8,0:0:0:0:
441,80,40846,1,2,1:2:0:0:
439,280,41076,2,0,P|452:203|464:153,1,107.999996704102,10|0,0:0|0:0,0:0:0:0:
470,160,41307,2,0,L|522:147,2,47.9999985351563,2|0|0,1:2|1:0|1:0,0:0:0:0:
364,192,41538,6,0,L|278:176,1,71.9999978027344,0|0,1:0|0:0,0:0:0:0:
218,235,41769,1,2,1:2:0:0:
163,112,41884,1,0,1:0:0:0:
163,112,42000,2,0,L|21:138,1,143.999995605469,10|2,0:0|1:2,0:0:0:0:
176,21,42346,1,0,1:0:0:0:
248,81,42461,6,0,P|252:129|246:158,1,71.9999978027344,2|8,1:2|0:0,0:0:0:0:
49,291,42692,2,0,P|44:255|48:219,1,71.9999978027344,2|0,1:2|0:0,0:0:0:0:
163,112,42923,2,0,B|178:208|128:153|142:274,1,143.999995605469,10|8,0:0|0:0,0:0:0:0:
167,351,43269,1,0,0:0:0:0:
153,267,43384,6,0,L|70:255,2,71.9999978027344,4|0|2,1:2|1:0|1:2,0:0:0:0:
234,221,43730,1,0,1:0:0:0:
354,337,43846,2,0,P|424:345|488:275,1,143.999995605469,10|2,0:2|1:2,0:0:0:0:
355,173,44192,6,0,P|332:219|316:245,1,71.9999978027344,0|2,1:0|0:0,0:0:0:0:
461,199,44423,1,8,0:0:0:0:
461,199,44538,2,0,P|445:120|439:47,2,143.999995605469,2|10|2,1:2|0:0|1:2,0:0:0:0:
334,81,45115,1,0,1:0:0:0:
241,35,45230,6,0,L|150:43,1,71.9999978027344,0|0,1:0|0:0,0:0:0:0:
130,208,45461,2,0,B|98:217|98:217|62:204,1,71.9999978027344,2|0,1:2|1:0,0:0:0:0:
32,110,45692,2,0,L|189:125,1,143.999995605469,10|0,0:0|1:0,0:0:0:0:
175,123,46038,1,2,1:2:0:0:
54,242,46153,6,0,L|144:252,1,71.9999978027344,2|0,0:0|1:0,0:0:0:0:
318,219,46384,2,0,L|246:211,1,71.9999978027344,2|0,0:0|0:0,0:0:0:0:
467,339,46615,2,0,L|395:331,1,71.9999978027344,10|0,0:0|0:0,0:0:0:0:
395,331,47076,6,0,P|401:287|417:237,1,88.000002685547,4|0,1:0|0:0,0:0:0:0:
478,174,47307,1,8,0:0:0:0:
393,85,47423,1,0,1:0:0:0:
446,7,47538,2,0,P|375:65|271:57,1,176.000005371094,2|8,0:3|0:0,0:0:0:0:
218,17,47884,1,0,0:0:0:0:
336,207,48000,6,0,P|250:174|205:80,1,176.000005371094,0|10,1:0|0:0,0:0:0:0:
218,17,48346,1,2,1:2:0:0:
95,141,48461,2,0,P|110:82|143:47,1,88.000002685547,2|0,0:3|1:0,0:0:0:0:
378,53,48692,2,0,P|334:50|293:66,1,88.000002685547,10|0,0:0|0:0,0:0:0:0:
65,237,48923,6,0,P|132:234|200:135,1,176.000005371094,2|8,1:2|0:0,0:0:0:0:
198,154,49269,1,0,1:0:0:0:
306,232,49384,2,0,P|309:176|297:138,1,88.000002685547,2|0,0:3|1:0,0:0:0:0:
100,115,49615,2,0,P|94:160|107:202,1,88.000002685547,10|0,0:0|0:0,0:0:0:0:
216,330,49846,6,0,L|197:148,1,176.000005371094,2|8,1:2|0:0,0:0:0:0:
430,295,50192,2,0,L|449:113,1,176.000005371094,0|0,1:0|1:0,0:0:0:0:
187,231,50538,2,0,L|177:140,1,88.000002685547,8|0,0:0|0:0,0:0:0:0:
32,51,50769,6,0,P|82:51|136:78,1,88.000002685547,4|0,1:2|0:0,0:0:0:0:
177,143,51000,1,8,0:0:0:0:
279,89,51115,1,0,1:0:0:0:
336,161,51230,2,0,B|345:65|280:97|304:-7,1,176.000005371094,2|8,0:3|0:0,0:0:0:0:
187,231,51692,6,0,P|148:257|99:265,1,88.000002685547,2|0,1:2|0:0,0:0:0:0:
236,155,51923,1,10,0:0:0:0:
317,257,52038,2,0,P|384:254|465:330,1,176.000005371094,2|0,1:2|1:0,0:0:0:0:
301,245,52384,2,0,P|343:235|379:210,1,88.000002685547,10|0,0:0|0:0,0:0:0:0:
179,87,52615,6,0,P|117:79|22:155,2,176.000005371094,2|8|2,1:2|0:0|0:3,0:0:0:0:
235,162,53192,1,0,1:0:0:0:
296,0,53307,2,0,P|279:42|281:101,1,88.000002685547,10|0,0:0|0:0,0:0:0:0:
408,196,53538,1,2,1:2:0:0:
480,139,53653,1,0,0:0:0:0:
400,179,53769,1,8,0:0:0:0:
353,105,53884,6,0,L|139:82,1,176.000005371094,0|0,1:0|1:0,0:0:0:0:
335,288,54230,2,0,L|228:299,1,88.000002685547,8|0,0:0|0:0,0:0:0:0:
45,199,54461,6,0,L|11:126,3,58.6666684570313,14|0|0|8,0:0|1:0|1:0|0:0,0:0:0:0:
89,281,54807,1,0,1:0:0:0:
177,310,54923,2,0,L|246:326,2,58.6666684570313,8|0|0,0:0|1:0|1:0,0:0:0:0:
42,209,55153,2,0,L|-22:229,2,58.6666684570313,8|0|0,0:0|1:0|1:0,0:0:0:0:
117,122,55384,6,0,B|165:106|165:106|234:109|196:152|308:123,1,176.000005371094,4|10,1:0|0:0,0:0:0:0:
349,68,55730,1,0,0:0:0:0:
512,132,55846,2,0,L|419:100,1,88.000002685547,2|0,1:2|1:0,0:0:0:0:
386,265,56076,1,10,0:0:0:0:
339,345,56192,2,0,L|365:167,1,176.000005371094,2|0,1:2|1:0,0:0:0:0:
143,129,56538,2,0,P|129:79|113:32,1,88.000002685547,10|0,0:0|0:0,0:0:0:0:
266,245,56769,2,0,P|216:258|169:275,1,88.000002685547,2|0,0:0|1:0,0:0:0:0:
74,196,57000,1,10,0:0:0:0:
241,128,57115,1,0,1:0:0:0:
74,196,57230,6,0,L|53:298,1,88.000002685547,4|0,1:2|0:0,0:0:0:0:
321,167,57461,2,0,P|332:120|316:75,1,88.000002685547,10|0,0:0|0:0,0:0:0:0:
58,82,57692,1,2,1:2:0:0:
172,198,57807,1,0,1:0:0:0:
241,128,57923,1,10,0:0:0:0:
241,128,58038,2,0,B|349:126|292:171|416:164,1,176.000005371094,2|2,1:2|1:2,0:0:0:0:
131,296,58384,2,0,P|199:291|238:270,1,88.000002685547,10|2,0:0|1:2,0:0:0:0:
336,0,58615,2,0,P|326:48|319:107,1,88.000002685547,2|0,1:2|0:0,0:0:0:0:
500,275,58846,2,0,P|452:265|393:258,1,88.000002685547,10|0,0:0|0:0,0:0:0:0:
34,132,59076,6,0,P|72:76|182:67,1,176.000005371094,4|10,1:2|0:0,0:0:0:0:
131,296,59423,2,0,P|126:246|111:191,1,88.000002685547,2|0,0:0|1:0,0:0:0:0:
295,41,59653,2,0,P|285:83|281:127,1,88.000002685547,2|8,0:0|0:0,0:0:0:0:
417,329,59884,2,0,B|420:279|441:235|441:235|423:177|389:136,1,176.000005371094,2|0,1:2|1:0,0:0:0:0:
298,139,60230,1,10,0:0:0:0:
450,69,60346,1,2,1:2:0:0:
330,229,60461,6,0,B|285:238|285:238|224:204,1,88.000002685547,2|0,1:2|0:0,0:0:0:0:
173,63,60692,2,0,B|128:54|128:54|67:88,1,88.000002685547,10|0,0:0|0:0,0:0:0:0:
35,209,60923,5,4,1:2:0:0:
133,173,61038,1,0,1:0:0:0:
233,134,61153,1,8,0:0:0:0:
129,189,61269,1,0,1:0:0:0:
231,313,61384,2,0,P|222:253|214:210,1,88.000002685547,2|0,1:3|1:0,0:0:0:0:
388,29,61615,2,0,P|380:72|374:115,1,88.000002685547,8|0,0:0|1:0,0:0:0:0:
490,286,61846,5,2,1:3:0:0:
424,201,61961,1,0,1:0:0:0:
323,215,62076,1,8,0:0:0:0:
323,215,62192,1,0,1:0:0:0:
323,215,62307,5,2,1:3:0:0:
268,292,62423,1,0,1:0:0:0:
271,120,62538,1,8,0:0:0:0:
410,231,62653,1,8,0:0:0:0:
215,198,62769,6,0,L|24:221,1,176.000005371094,4|10,1:0|0:0,0:0:0:0:
184,99,63115,1,0,0:0:0:0:
101,42,63230,2,0,B|84:90|84:90|98:132,1,88.000002685547,2|0,1:2|0:0,0:0:0:0:
236,281,63461,1,10,0:0:0:0:
307,223,63576,2,0,P|294:122|288:45,1,176.000005371094,2|2,1:2|1:2,0:0:0:0:
405,249,63923,2,0,P|396:195|392:145,1,88.000002685547,10|2,0:0|1:2,0:0:0:0:
138,315,64153,2,0,P|142:271|149:227,1,88.000002685547,0|0,1:2|1:0,0:0:0:0:
202,62,64384,6,0,B|88:101|146:25|7:81,1,176.000005371094,10|4,0:0|1:2,0:0:0:0:
31,71,64846,2,0,P|15:121|19:173,1,88.000002685547,10|0,0:0|0:0,0:0:0:0:
52,276,65076,1,2,1:2:0:0:
138,315,65192,1,0,1:0:0:0:
221,180,65307,1,10,0:0:0:0:
335,302,65423,2,0,P|406:306|486:233,1,176.000005371094,2|2,1:2|1:2,0:0:0:0:
250,358,65769,2,0,P|244:309|234:251,1,88.000002685547,8|2,0:0|1:2,0:0:0:0:
45,157,66000,2,0,P|94:151|152:141,1,88.000002685547,2|0,1:2|0:0,0:0:0:0:
422,314,66230,2,0,P|373:308|315:298,1,88.000002685547,10|0,0:0|0:0,0:0:0:0:
221,180,66461,6,0,P|230:95|250:-4,1,176.000005371094,4|10,1:2|0:0,0:0:0:0:
464,155,66807,2,0,P|478:206|483:246,1,88.000002685547,2|0,0:0|1:0,0:0:0:0:
334,51,67038,2,0,P|377:57|419:69,1,88.000002685547,2|8,1:2|0:0,0:0:0:0:
225,309,67269,2,0,B|337:272|251:245|376:209,1,176.000005371094,2|2,1:2|1:2,0:0:0:0:
124,161,67615,1,8,0:0:0:0:
192,95,67730,1,0,1:0:0:0:
41,119,67846,6,0,B|29:165|29:165|53:219,1,88.000002685547,2|0,1:2|1:0,0:0:0:0:
140,346,68076,2,0,L|130:248,1,88.000002685547,10|0,0:0|0:0,0:0:0:0:
307,163,68307,6,0,P|262:173|214:180,1,88.000002685547,2|0,1:3|1:0,0:0:0:0:
482,332,68538,2,0,P|438:338|395:348,1,88.000002685547,8|0,0:0|1:0,0:0:0:0:
374,44,68769,2,0,P|329:54|281:61,1,88.000002685547,2|0,1:3|1:0,0:0:0:0:
395,251,69000,6,0,P|351:257|308:267,1,88.000002685547,8|0,0:0|1:0,0:0:0:0:
131,258,69230,1,2,1:3:0:0:
69,192,69346,1,0,1:0:0:0:
69,192,69461,2,0,P|76:138|81:87,1,88.000002685547,8|0,0:0|1:0,0:0:0:0:
215,316,69692,2,0,P|219:272|225:228,1,88.000002685547,2|0,1:3|1:0,0:0:0:0:
1,353,69923,2,0,P|8:299|13:248,1,88.000002685547,8|8,0:0|0:0,0:0:0:0:
19,17,70153,6,0,P|81:76|166:75,1,176.000005371094,4|8,1:0|0:0,0:0:0:0:
349,149,70500,1,0,0:0:0:0:
426,82,70615,2,0,P|382:56|327:46,1,88.000002685547,2|0,1:2|1:0,0:0:0:0:
251,127,70846,2,0,P|250:178|269:230,1,88.000002685547,8|0,0:0|1:0,0:0:0:0:
418,299,71076,2,0,P|429:256|427:212,1,88.000002685547,2|0,0:0|0:0,0:0:0:0:
166,271,71307,2,0,B|116:276|116:276|82:307,1,88.000002685547,10|0,0:0|0:0,0:0:0:0:
349,149,71538,2,0,B|399:154|399:154|433:185,1,88.000002685547,2|0,1:2|1:0,0:0:0:0:
145,113,71769,2,0,P|135:67|146:20,1,88.000002685547,10|0,0:0|0:0,0:0:0:0:
353,235,72000,6,0,P|352:289|244:371,1,176.000005371094,2|8,1:2|0:0,0:0:0:0:
7,264,72346,1,0,0:0:0:0:
7,264,72461,2,0,P|54:237|179:290,1,176.000005371094,2|8,1:2|0:0,0:0:0:0:
292,49,72807,1,0,1:0:0:0:
292,49,72923,2,0,P|291:103|183:185,1,176.000005371094,2|8,0:0|0:0,0:0:0:0:
59,117,73269,1,0,1:0:0:0:
59,117,73384,2,0,P|117:106|155:118,1,88.000002685547,2|0,1:2|0:0,0:0:0:0:
165,270,73615,2,0,P|208:277|250:265,1,88.000002685547,8|8,0:0|0:0,0:0:0:0:
425,118,73846,6,0,P|417:67|414:13,1,88.000002685547,4|0,1:2|0:0,0:0:0:0:
264,176,74076,2,0,P|271:125|275:71,1,88.000002685547,8|2,0:0|1:2,0:0:0:0:
457,223,74307,2,0,P|408:213|357:202,1,88.000002685547,2|0,1:2|0:0,0:0:0:0:
82,142,74538,2,0,P|130:132|182:121,1,88.000002685547,10|0,0:0|1:0,0:0:0:0:
311,286,74769,1,2,1:2:0:0:
242,341,74884,1,0,1:0:0:0:
161,216,75000,1,8,0:0:0:0:
93,271,75115,1,2,1:2:0:0:
93,271,75230,2,0,L|32:284,2,58.6666684570313,0|0|0,1:0|1:0|1:0,0:0:0:0:
159,367,75461,6,0,L|142:236,1,132.00000402832,12|0,0:0|0:0,0:0:0:0:
161,216,75692,1,2,1:0:0:0:
86,162,75807,1,0,1:0:0:0:
153,103,75923,1,2,1:0:0:0:
42,58,76038,1,0,1:0:0:0:
153,103,76153,2,0,L|253:90,1,88.000002685547,2|0,1:0|0:0,0:0:0:0:
395,29,76384,5,2,1:0:0:0:
343,105,76500,1,0,1:0:0:0:
444,171,76615,2,0,P|444:217|455:267,1,88.000002685547,2|0,1:0|1:0,0:0:0:0:
334,381,76846,2,0,P|334:335|323:285,1,88.000002685547,2|0,1:0|0:0,0:0:0:0:
207,255,77076,2,0,P|241:208|373:223,1,176.000005371094,0|0,1:0|1:0,0:0:0:0:
351,203,77538,6,0,B|298:195|253:167|253:167|220:174|167:198,1,176.000005371094,4|10,1:0|2:0,0:0:0:0:
190,341,77884,1,2,0:0:0:0:
294,360,78000,2,0,P|282:299|269:260,1,88.000002685547,2|0,1:2|0:0,0:0:0:0:
113,110,78231,2,0,P|101:152|94:195,1,88.000002685547,10|0,0:0|0:0,0:0:0:0:
12,249,78461,5,2,1:2:0:0:
185,189,78577,1,2,0:0:0:0:
97,96,78692,2,0,P|151:89|192:79,1,88.000002685547,8|0,0:0|1:0,0:0:0:0:
361,289,78923,2,0,P|319:279|275:274,1,88.000002685547,2|0,0:1|0:0,0:0:0:0:
364,31,79154,2,0,P|407:40|451:45,1,88.000002685547,10|0,0:0|1:0,0:0:0:0:
512,154,79384,6,0,P|454:141|357:126,1,132.00000402832,2|0,1:2|0:0,0:0:0:0:
388,148,79615,2,0,P|345:151|287:161,1,88.000002685547,10|2,0:0|0:0,0:0:0:0:
439,230,79846,1,2,1:2:0:0:
284,142,79961,1,0,0:0:0:0:
236,242,80077,2,0,P|244:281|252:334,1,88.000002685547,10|0,0:0|0:0,0:0:0:0:
99,226,80307,5,2,1:2:0:0:
159,108,80423,1,2,0:0:0:0:
40,41,80538,1,10,0:0:0:0:
151,92,80654,2,2,P|233:75|284:144,1,176.000005371094,0|0,1:0|1:0,0:1:0:0:
99,226,81000,2,0,P|44:219|-1:218,1,88.000002685547,8|8,0:0|0:0,0:0:0:0:
296,271,81230,6,0,B|400:254|367:309|477:285,1,176.000005371094,4|10,1:2|0:0,0:0:0:0:
217,197,81577,1,2,0:0:0:0:
212,287,81692,2,0,L|206:381,1,88.000002685547,2|0,1:2|1:0,0:0:0:0:
378,222,81923,2,0,L|384:316,1,88.000002685547,10|0,0:0|0:0,0:0:0:0:
312,139,82154,1,2,1:2:0:0:
441,56,82269,1,2,0:0:0:0:
302,123,82384,2,0,P|262:118|211:111,1,88.000002685547,10|0,0:0|1:0,0:0:0:0:
411,144,82615,5,2,0:1:0:0:
330,31,82731,1,0,1:0:0:0:
246,205,82846,2,0,B|142:210|182:252|69:256,1,176.000005371094,10|2,0:0|1:2,0:0:0:0:
326,334,83307,1,10,0:0:0:0:
326,334,83423,1,2,0:0:0:0:
493,299,83538,2,0,P|436:281|395:282,1,88.000002685547,2|0,1:2|0:0,0:0:0:0:
338,151,83769,2,0,P|346:84|358:56,1,88.000002685547,10|0,0:0|1:0,0:0:0:0:
439,187,84000,5,2,1:2:0:0:
257,85,84115,1,0,0:0:0:0:
364,49,84231,2,0,P|366:122|342:202,1,132.00000402832,10|0,0:0|0:0,0:0:0:0:
329,206,84461,2,0,L|342:278,2,58.6666684570313,0|0|0,1:0|1:0|1:0,0:0:0:0:
236,295,84692,2,0,L|242:236,2,58.6666684570313,8|0|0,0:0|1:0|1:0,0:0:0:0:
145,348,84923,6,0,P|174:315|208:288,1,88.000002685547,4|0,1:0|0:0,0:0:0:0:
187,156,85154,2,0,P|138:145|100:129,1,88.000002685547,10|2,2:0|0:0,0:0:0:0:
18,212,85384,2,0,P|33:259|39:300,1,88.000002685547,2|0,1:2|1:0,0:0:0:0:
211,306,85615,2,0,P|177:333|148:365,1,88.000002685547,10|0,0:0|0:0,0:0:0:0:
403,185,85846,5,2,1:2:0:0:
330,152,85961,1,2,0:0:0:0:
259,211,86077,2,0,B|168:186|186:251|72:212,1,176.000005371094,8|2,0:0|0:1,0:0:0:0:
54,77,86423,1,0,1:0:0:0:
0,247,86538,2,0,L|17:145,1,88.000002685547,10|0,0:0|1:0,0:0:0:0:
200,49,86769,2,0,B|270:91|270:91|264:141|276:205,1,176.000005371094,2|10,1:2|0:0,0:0:0:0:
221,296,87115,1,2,0:0:0:0:
362,141,87230,2,0,P|367:180|381:231,1,88.000002685547,2|0,1:2|1:0,0:0:0:0:
186,25,87461,2,0,P|181:64|167:115,1,88.000002685547,10|0,0:0|0:0,0:0:0:0:
120,226,87692,2,0,L|5:258,2,88.000002685547,2|2|10,1:2|0:0|0:0,0:0:0:0:
24,265,88038,6,2,L|205:294,1,176.000005371094,0|0,1:0|1:0,0:1:0:0:
312,338,88384,2,0,L|446:313,1,132.00000402832,8|0,0:0|0:0,0:0:0:0:
361,224,88615,6,0,P|354:167|387:74,1,132.00000402832,4|0,1:2|0:0,0:0:0:0:
394,84,88846,1,10,0:0:0:0:
462,190,88961,1,2,0:0:0:0:
259,123,89077,2,0,L|142:107,1,88.000002685547,2|0,1:2|1:0,0:0:0:0:
0,149,89307,2,0,L|88:160,1,88.000002685547,10|0,0:0|0:0,0:0:0:0:
212,324,89538,5,2,1:2:0:0:
267,259,89654,1,2,0:0:0:0:
215,194,89769,2,0,P|225:140|232:100,1,88.000002685547,10|0,0:0|1:0,0:0:0:0:
109,298,90000,2,0,P|117:341|125:384,1,88.000002685547,2|0,0:1|1:0,0:0:0:0:
337,310,90231,2,0,P|381:318|424:325,1,88.000002685547,10|0,0:0|1:0,0:0:0:0:
189,203,90461,6,0,P|208:110|214:25,1,176.000005371094,2|10,1:2|0:0,0:0:0:0:
301,105,90807,1,2,0:0:0:0:
390,47,90923,1,2,1:2:0:0:
390,47,91038,2,0,P|399:96|410:140,1,88.000002685547,0|10,0:0|0:0,0:0:0:0:
100,147,91384,5,2,1:2:0:0:
49,227,91500,1,2,0:0:0:0:
114,162,91615,2,0,P|186:153|270:240,1,176.000005371094,10|4,0:0|1:2,0:0:0:0:
262,215,92076,5,8,0:0:0:0:
241,312,92192,1,8,0:0:0:0:
408,133,92307,1,4,1:0:0:0:
408,133,92538,6,0,P|409:78|413:39,1,71.9999978027344,2|2,0:0|0:0,0:0:0:0:
306,211,92769,2,0,P|311:117|317:62,1,143.999995605469,2|2,0:0|0:0,0:0:0:0:
223,32,93230,2,0,P|220:67|220:103,1,71.9999978027344,2|2,0:0|0:0,0:0:0:0:
134,13,93461,2,0,P|127:85|124:157,1,143.999995605469,2|0,0:0|0:0,0:0:0:0:
