osu file format v14

[General]
AudioFilename: audio.mp3
AudioLeadIn: 0
PreviewTime: 39692
Countdown: 0
SampleSet: Soft
StackLeniency: 0.7
Mode: 0
LetterboxInBreaks: 0
WidescreenStoryboard: 1

[Editor]
Bookmarks: 8307,24923,39692,47076,55384,77538,92307
DistanceSpacing: 1.1
BeatDivisor: 4
GridSize: 4
TimelineZoom: 3.499999

[Metadata]
Title:Asgard (Game Ver.)
TitleUnicode:Asgard (Game Ver.)
Artist:Yousei Teikoku
ArtistUnicode:妖精帝國
Creator:Gillstar
Version:Normal
Source:フォルテシモ アコルト:ビーサスフィーア
Tags:fortissimo//akkord:bsusvier agatsu impurepug fixxis black man coco cococolaco loli catgirl deca enryotoki sparhten amiya xenon- xehn xen japanese video game
BeatmapID:2349416
BeatmapSetID:1123448

[Difficulty]
HPDrainRate:4
CircleSize:3
OverallDifficulty:5
ApproachRate:6
SliderMultiplier:0.799999999999999
SliderTickRate:1

[Events]
//Background and Video events
0,0,"asgward.png",0,0
//Break Periods
//Storyboard Layer 0 (Background)
//Storyboard Layer 1 (Fail)
//Storyboard Layer 2 (Pass)
//Storyboard Layer 3 (Foreground)
//Storyboard Layer 4 (Overlay)
//Storyboard Sound Samples

[TimingPoints]
0,230.769230769231,4,2,1,50,1,0
6692,-100,4,2,1,55,0,0
6923,-100,4,2,1,60,0,0
7153,-100,4,2,1,65,0,0
7846,-100,4,2,1,70,0,0
24692,-100,4,2,1,50,0,0
24923,-100,4,2,1,60,0,0
34153,-100,4,2,1,65,0,0
47076,-100,4,2,1,70,0,0
55384,-100,4,2,1,80,0,0
77538,-100,4,2,1,70,0,0

[Colours]
Combo1 : 206,0,103
Combo2 : 255,79,79
Combo3 : 255,128,128
Combo4 : 255,100,177

[HitObjects]
75,251,923,5,2,0:0:0:0:
75,251,2769,5,2,0:0:0:0:
75,251,4615,5,2,0:0:0:0:
75,251,6461,5,2,0:3:0:0:
56,75,6923,1,2,0:3:0:0:
226,31,7384,2,0,L|274:39,1,40,8|0,0:0|1:0,0:0:0:0:
304,58,7615,2,0,L|353:49,1,40,0|0,1:0|1:0,0:0:0:0:
386,42,7846,2,0,L|373:170,1,120,2|8,1:0|0:0,0:0:0:0:
401,195,8307,6,0,P|316:216|296:292,1,160,4|2,1:0|1:2,0:0:0:0:
260,359,9000,1,10,0:0:0:0:
172,361,9230,2,0,P|118:303|135:214,1,160,2|2,1:2|0:1,0:0:0:0:
69,159,9923,1,10,0:0:0:0:
80,71,10153,6,0,L|248:37,1,160,2|2,1:2|1:2,0:0:0:0:
323,23,10846,1,10,0:0:0:0:
410,32,11076,2,0,L|416:120,1,79.9999999999999,2|0,1:2|1:0,0:0:0:0:
440,148,11423,2,2,L|446:236,1,79.9999999999999,0|0,1:2|1:0,0:1:0:0:
462,268,11769,1,8,0:0:0:0:
399,329,12000,6,0,P|313:343|293:280,1,160,4|2,1:2|1:2,0:0:0:0:
253,208,12692,1,10,0:0:0:0:
286,126,12923,2,0,P|220:88|140:121,1,160,2|2,1:2|0:1,0:0:0:0:
106,193,13615,1,10,0:0:0:0:
22,166,13846,6,0,P|3:243|54:308,1,160,2|2,1:2|1:2,0:0:0:0:
124,346,14538,1,10,0:0:0:0:
211,353,14769,2,0,P|240:308|269:290,1,79.9999999999999,2|10,1:2|0:0,0:0:0:0:
345,320,15230,1,0,1:0:0:0:
405,255,15461,1,8,0:0:0:0:
373,172,15692,6,0,P|280:154|253:94,1,160,4|2,1:0|1:2,0:0:0:0:
192,37,16384,1,10,0:0:0:0:
103,37,16615,2,0,P|43:118|51:186,1,160,2|2,1:2|0:1,0:0:0:0:
52,260,17307,1,10,0:0:0:0:
126,306,17538,6,0,P|179:292|248:378,1,160,2|2,1:2|1:2,0:0:0:0:
335,355,18230,1,10,0:0:0:0:
422,341,18461,2,0,L|401:257,1,79.9999999999999,2|0,1:2|1:0,0:0:0:0:
442,243,18807,2,2,L|463:159,1,79.9999999999999,0|0,1:0|1:0,0:1:0:0:
462,121,19153,1,8,0:0:0:0:
412,47,19384,6,0,P|335:19|280:72,1,160,4|2,1:2|1:2,0:0:0:0:
236,140,20076,1,10,0:0:0:0:
265,222,20307,2,0,P|218:281|134:271,1,160,2|2,1:2|0:1,0:0:0:0:
54,251,21000,1,10,0:0:0:0:
13,173,21230,6,0,P|37:98|111:84,1,160,2|2,1:2|1:2,0:0:0:0:
173,145,21923,1,10,0:0:0:0:
203,227,22153,2,0,P|253:210|372:208,1,160,2|0,1:2|1:2,0:0:0:0:
436,163,22846,2,0,P|441:121|426:67,1,79.9999999999999,8|4,0:0|1:2,0:0:0:0:
219,32,24461,6,0,L|166:45,1,40,8|8,0:0|0:0,0:0:0:0:
136,50,24692,1,8,0:0:0:0:
61,97,24923,6,0,P|39:168|78:256,1,160,4|2,1:2|1:2,0:0:0:0:
147,282,25615,1,10,0:0:0:0:
166,367,25846,2,0,L|333:332,1,160,2|2,0:0|0:0,0:0:0:0:
397,287,26538,1,10,0:0:0:0:
341,218,26769,6,0,P|334:172|345:136,1,79.9999999999999,0|10,1:0|0:0,0:0:0:0:
426,113,27230,2,0,P|433:67|422:31,1,79.9999999999999,2|10,1:2|0:0,0:0:0:0:
342,15,27692,2,0,L|250:35,1,79.9999999999999,0|10,1:0|0:0,0:0:0:0:
228,112,28153,1,2,0:0:0:0:
145,80,28384,1,10,0:0:0:0:
67,38,28615,6,0,P|34:94|55:199,1,160,0|2,1:0|1:2,0:0:0:0:
124,224,29307,1,10,0:0:0:0:
209,204,29538,2,0,P|242:260|221:365,1,160,2|2,0:0|0:0,0:0:0:0:
143,369,30230,1,10,0:0:0:0:
58,344,30461,6,0,P|46:298|35:254,1,79.9999999999999,2|10,1:2|0:0,0:0:0:0:
21,179,30923,1,2,1:2:0:0:
46,94,31153,1,2,1:2:0:0:
130,68,31384,2,0,L|217:45,1,79.9999999999999,4|10,1:2|0:0,0:0:0:0:
268,111,31846,2,0,P|289:174|239:266,1,160,2|2,1:2|1:2,0:0:0:0:
461,38,33692,6,0,L|455:89,1,40,2|0,1:2|0:0,0:0:0:0:
451,121,33923,1,10,0:0:0:0:
472,205,34153,6,0,P|427:242|330:215,1,160,4|2,1:2|1:2,0:0:0:0:
294,140,34846,1,8,0:0:0:0:
273,54,35076,2,0,P|200:27|135:69,1,160,0|2,1:0|0:0,0:0:0:0:
91,144,35769,1,10,0:0:0:0:
144,213,36000,6,0,L|120:301,1,79.9999999999999,0|10,1:0|0:0,0:0:0:0:
161,369,36461,2,0,P|191:348|243:348,1,79.9999999999999,2|10,1:2|0:0,0:0:0:0:
317,370,36923,2,0,P|337:313|311:203,1,160,2|2,0:0|0:0,0:0:0:0:
349,134,37615,1,10,0:0:0:0:
339,46,37846,6,0,L|261:26,1,79.9999999999999,2|10,1:2|0:0,0:0:0:0:
202,91,38307,2,0,L|124:111,1,79.9999999999999,2|10,1:2|0:0,0:0:0:0:
36,116,38769,2,0,P|21:153|30:203,1,79.9999999999999,4|8,1:2|0:0,0:0:0:0:
38,279,39230,1,0,1:0:0:0:
107,332,39461,2,0,L|163:340,1,40,8|8,0:0|0:0,0:0:0:0:
180,366,39692,6,0,L|345:329,1,160,4|10,1:2|0:0,0:0:0:0:
416,368,40384,2,0,P|436:331|421:283,1,79.9999999999999,2|2,1:2|0:0,0:0:0:0:
356,244,40846,2,0,P|336:207|351:159,1,79.9999999999999,2|10,1:2|0:0,0:0:0:0:
369,87,41307,1,2,1:2:0:0:
293,42,41538,6,0,P|194:36|161:86,1,160,0|10,1:0|0:0,0:0:0:0:
89,125,42230,2,0,L|58:286,1,160,2|2,1:2|1:2,0:0:0:0:
65,370,42923,2,0,P|108:364|140:334,1,79.9999999999999,10|8,0:0|0:0,0:0:0:0:
176,263,43384,6,0,P|233:240|314:290,1,160,4|10,1:2|0:2,0:0:0:0:
378,345,44076,1,2,1:2:0:0:
419,329,44192,2,0,P|442:298|439:203,1,120,0|2,1:0|1:2,0:0:0:0:
389,151,44769,1,10,0:0:0:0:
325,89,45000,2,0,L|288:51,1,40,2|0,1:2|1:0,1:2:0:0:
265,24,45230,6,0,L|101:60,1,160,0|10,1:0|0:0,0:0:0:0:
34,106,45923,2,0,P|25:152|45:190,1,79.9999999999999,0|2,1:0|0:0,0:0:0:0:
110,229,46384,1,2,0:0:0:0:
184,181,46615,1,10,0:0:0:0:
277,330,47076,6,0,P|351:346|429:155,1,320,4|0,1:0|1:0,0:0:0:0:
383,89,48230,1,10,0:0:0:0:
349,60,48346,2,0,L|218:80,1,120,2|10,1:2|0:0,0:0:0:0:
144,59,48923,6,0,P|106:84|89:130,1,79.9999999999999,2|8,1:2|0:0,0:0:0:0:
26,174,49384,2,0,P|51:211|97:229,1,79.9999999999999,2|10,0:3|0:0,0:0:0:0:
61,312,49846,6,0,L|230:335,1,160,2|2,1:2|0:3,0:0:0:0:
259,352,50423,1,0,1:0:0:0:
297,373,50538,1,8,0:0:0:0:
378,339,50769,6,0,P|453:234|378:116,1,280,4|0,1:2|0:0,0:0:0:0:
348,90,51692,2,0,L|181:109,1,160,2|2,1:2|0:3,0:0:0:0:
102,92,52384,1,10,0:0:0:0:
48,162,52615,2,0,P|6:239|102:336,1,240,2|10,1:2|0:0,0:0:0:0:
177,375,53538,2,0,B|364:385|231:239|452:255,1,320,2|14,1:2|0:0,0:0:0:0:
368,3,55153,6,0,L|310:11,1,40,8|8,0:0|0:0,0:0:0:0:
297,40,55384,2,0,P|239:89|146:73,1,160,4|2,1:0|1:2,0:0:0:0:
77,49,56076,2,0,L|49:212,1,160,10|10,0:0|0:0,0:0:0:0:
1,280,56769,2,0,P|6:320|42:358,1,79.9999999999999,2|10,0:0|0:0,0:0:0:0:
115,373,57230,5,4,1:2:0:0:
194,336,57461,1,10,0:0:0:0:
276,367,57692,2,0,P|318:323|268:236,1,160,2|0,1:2|0:0,0:0:0:0:
194,249,58384,2,0,P|176:204|187:165,1,79.9999999999999,10|2,0:0|1:2,0:0:0:0:
113,118,58846,1,10,0:0:0:0:
173,54,59076,6,0,P|259:31|341:58,1,160,4|0,1:2|1:0,0:0:0:0:
402,92,59769,1,8,0:0:0:0:
440,113,59884,2,0,L|467:275,1,160,2|2,1:2|1:2,0:0:0:0:
444,309,60461,2,0,P|422:335|365:342,1,79.9999999999999,2|10,1:2|0:0,0:0:0:0:
291,316,60923,6,0,P|203:302|146:362,2,160,4|2|2,1:2|1:3|1:3,0:0:0:0:
343,245,62076,1,8,0:0:0:0:
270,196,62307,2,0,P|260:165|267:115,1,79.9999999999999,2|8,1:3|0:0,0:0:0:0:
292,83,62653,1,8,0:0:0:0:
321,49,62769,6,0,L|158:79,1,160,4|2,1:0|1:2,0:0:0:0:
83,42,63461,2,0,P|34:105|54:190,1,160,10|10,0:0|0:0,0:0:0:0:
133,196,64153,2,0,P|140:243|123:279,1,79.9999999999999,0|10,1:2|0:0,0:0:0:0:
72,340,64615,1,4,1:2:0:0:
151,378,64846,5,10,0:0:0:0:
216,319,65076,2,0,L|305:330,1,79.9999999999999,2|10,1:2|0:0,0:0:0:0:
321,365,65423,2,0,P|366:312|329:224,1,160,2|2,1:2|1:2,0:0:0:0:
309,201,66000,2,0,L|214:221,1,79.9999999999999,2|10,1:2|0:0,0:0:0:0:
150,254,66461,1,4,1:2:0:0:
63,271,66692,5,10,0:0:0:0:
35,237,66807,2,0,P|20:208|26:152,1,79.9999999999999,2|2,0:0|1:2,0:0:0:0:
39,74,67269,2,0,L|243:27,1,200,2|2,1:2|1:2,0:0:0:0:
302,84,68076,1,10,0:0:0:0:
380,44,68307,5,2,1:3:0:0:
476,191,68769,1,2,1:3:0:0:
377,336,69230,1,2,1:3:0:0:
201,317,69692,2,0,L|118:336,1,79.9999999999999,2|8,1:3|0:0,0:0:0:0:
80,348,70038,1,8,0:0:0:0:
37,357,70153,6,0,P|6:314|69:154,1,240,4|8,1:0|0:0,0:0:0:0:
136,207,71076,2,0,L|227:188,1,79.9999999999999,2|10,0:0|0:0,0:0:0:0:
301,175,71538,1,2,1:2:0:0:
361,238,71769,1,10,0:0:0:0:
446,217,72000,6,0,P|464:170|424:67,1,160,2|2,1:2|1:2,0:0:0:0:
353,24,72692,1,8,0:0:0:0:
283,78,72923,2,0,L|117:112,1,160,2|2,0:0|1:2,0:0:0:0:
44,142,73615,1,8,0:0:0:0:
34,229,73846,6,0,P|31:282|85:341,1,120,4|2,1:2|1:2,0:0:0:0:
197,365,74538,1,10,0:0:0:0:
239,288,74769,6,0,P|287:269|359:276,1,120,2|2,1:2|1:2,0:0:0:0:
460,351,75461,1,12,0:0:0:0:
484,266,75692,6,0,L|453:104,1,160,2|2,1:0|1:0,0:0:0:0:
384,55,76384,2,0,P|298:33|231:66,1,160,2|2,1:0|1:0,0:0:0:0:
197,140,77076,1,0,1:0:0:0:
242,215,77307,1,0,1:0:0:0:
315,263,77538,6,0,P|255:318|177:302,1,160,4|2,1:0|1:2,0:0:0:0:
99,336,78231,1,10,0:0:0:0:
32,279,78461,2,0,L|10:110,1,160,2|2,1:2|0:1,0:0:0:0:
71,55,79153,1,10,0:0:0:0:
158,61,79384,6,0,P|229:82|312:38,1,160,2|2,1:2|1:2,0:0:0:0:
389,25,80077,1,10,0:0:0:0:
440,95,80307,2,0,L|424:185,1,79.9999999999999,2|0,1:2|1:0,0:0:0:0:
451,209,80653,2,2,L|435:299,1,79.9999999999999,2|0,1:2|1:0,0:1:0:0:
428,331,81000,1,8,0:0:0:0:
343,353,81230,6,0,P|283:337|276:240,1,160,4|2,1:2|1:2,0:0:0:0:
303,168,81923,1,10,0:0:0:0:
301,79,82154,2,0,P|235:41|155:74,1,160,2|2,1:2|0:1,0:0:0:0:
103,134,82846,1,10,0:0:0:0:
15,129,83077,6,0,L|37:295,1,160,2|2,1:2|1:2,0:0:0:0:
76,365,83769,1,10,0:0:0:0:
163,356,84000,2,0,L|252:322,1,79.9999999999999,2|10,1:2|0:0,0:0:0:0:
313,372,84461,1,0,1:0:0:0:
393,335,84692,1,8,0:0:0:0:
460,278,84923,6,0,P|494:212|459:123,1,160,4|2,1:0|1:2,0:0:0:0:
386,109,85615,1,10,0:0:0:0:
308,151,85846,2,0,L|136:126,1,160,2|2,1:2|0:1,0:0:0:0:
66,155,86538,1,10,0:0:0:0:
26,233,86769,6,0,P|17:279|103:337,1,160,2|2,1:2|1:2,0:0:0:0:
182,368,87461,1,10,0:0:0:0:
225,291,87692,2,0,L|306:272,1,79.9999999999999,2|0,1:2|1:0,0:0:0:0:
341,251,88038,2,2,L|422:270,1,79.9999999999999,0|0,1:0|1:0,0:1:0:0:
462,261,88384,1,8,0:0:0:0:
452,173,88615,6,0,P|395:129|305:158,1,160,4|2,1:2|1:2,0:0:0:0:
227,136,89307,1,10,0:0:0:0:
154,86,89538,2,0,P|92:149|100:231,1,160,2|2,1:2|0:1,0:0:0:0:
43,289,90230,1,10,0:0:0:0:
94,360,90461,6,0,L|251:330,1,160,2|2,1:2|1:2,0:0:0:0:
334,359,91153,1,10,0:0:0:0:
406,308,91384,2,0,P|412:253|416:219,1,79.9999999999999,2|10,1:2|0:0,0:0:0:0:
453,148,91846,1,4,1:2:0:0:
410,71,92076,2,0,L|324:58,1,79.9999999999999,8|4,0:0|1:0,0:0:0:0:
67,33,93000,5,2,0:0:0:0:
