osu file format v14

[General]
AudioFilename: audio.mp3
AudioLeadIn: 0
PreviewTime: 39692
Countdown: 0
SampleSet: Soft
StackLeniency: 0.7
Mode: 0
LetterboxInBreaks: 0
WidescreenStoryboard: 1

[Editor]
Bookmarks: 8307,24923,39692,47076,55384,77538,92307
DistanceSpacing: 1
BeatDivisor: 4
GridSize: 4
TimelineZoom: 3.099999

[Metadata]
Title:Asgard (Game Ver.)
TitleUnicode:Asgard (Game Ver.)
Artist:Yousei Teikoku
ArtistUnicode:妖精帝國
Creator:Gillstar
Version:Deca's Extra
Source:フォルテシモ アコルト:ビーサスフィーア
Tags:fortissimo//akkord:bsusvier agatsu impurepug fixxis black man coco cococolaco loli catgirl deca enryotoki sparhten amiya xenon- xehn xen japanese video game
BeatmapID:2348761
BeatmapSetID:1123448

[Difficulty]
HPDrainRate:6
CircleSize:4
OverallDifficulty:9
ApproachRate:9.5
SliderMultiplier:1.7
SliderTickRate:1

[Events]
//Background and Video events
0,0,"asgward.png",0,0
//Break Periods
2,23276,23936
2,32507,33167
//Storyboard Layer 0 (Background)
//Storyboard Layer 1 (Fail)
//Storyboard Layer 2 (Pass)
//Storyboard Layer 3 (Foreground)
//Storyboard Layer 4 (Overlay)
//Storyboard Sound Samples

[TimingPoints]
0,230.769230769231,4,2,1,50,1,0
923,-166.666666666667,4,2,1,50,0,0
6692,-166.666666666667,4,2,1,55,0,0
6923,-166.666666666667,4,2,1,60,0,0
7153,-166.666666666667,4,2,1,65,0,0
7846,-100,4,2,1,70,0,0
24692,-100,4,2,1,50,0,0
24923,-125,4,2,1,60,0,0
33923,-250,4,2,1,60,0,0
34153,-125,4,2,1,65,0,0
47076,-100,4,2,1,70,0,0
55384,-90.9090909090909,4,2,1,80,0,0
76846,-166.666666666667,4,2,1,80,0,0
77538,-100,4,2,1,70,0,0

[Colours]
Combo1 : 206,0,103
Combo2 : 255,79,79
Combo3 : 255,128,128
Combo4 : 255,100,177

[HitObjects]
188,97,923,6,0,P|191:134|200:206,1,101.999996887207,2|2,0:0|0:0,0:0:0:0:
282,219,1269,1,2,0:0:0:0:
282,219,1384,2,0,P|272:264|265:326,1,101.999996887207,2|2,0:0|0:0,0:0:0:0:
353,325,1846,1,2,0:0:0:0:
353,325,1961,1,2,0:0:0:0:
353,325,2076,2,0,P|387:320|417:317,1,50.9999984436036,2|0,0:0|0:0,0:0:0:0:
426,236,2307,2,0,P|376:231|368:166,1,101.999996887207,2|2,0:0|0:0,0:0:0:0:
403,74,2769,6,0,P|363:81|339:85,1,50.9999984436036,2|0,0:0|0:0,0:0:0:0:
288,138,3000,1,2,0:0:0:0:
288,138,3115,1,2,0:0:0:0:
288,138,3230,2,0,P|252:125|228:119,1,50.9999984436036,2|0,0:0|0:0,0:0:0:0:
169,68,3461,2,0,P|135:89|136:162,1,101.999996887207,2|2,0:0|0:0,0:0:0:0:
67,204,3807,1,2,0:0:0:0:
67,204,3923,2,0,P|82:254|91:313,1,101.999996887207,2|2,0:0|0:0,0:0:0:0:
316,126,4615,6,0,P|348:132|378:134,1,50.9999984436036,2|0,0:0|0:0,0:0:0:0:
376,212,4846,2,0,P|354:236|338:261,1,50.9999984436036,2|2,0:0|0:0,0:0:0:0:
271,220,5076,2,0,P|260:189|246:162,1,50.9999984436036,2|0,0:0|0:0,0:0:0:0:
178,139,5307,2,0,P|168:191|157:240,2,101.999996887207,2|2|2,0:0|0:0|0:0,0:0:0:0:
277,39,6000,2,0,P|312:35|344:34,1,50.9999984436036,2|0,0:0|0:0,0:0:0:0:
399,68,6230,2,0,P|405:124|416:189,1,101.999996887207,2|2,0:0|0:3,0:0:0:0:
472,245,6692,5,2,0:3:0:0:
472,245,6807,1,0,0:0:0:0:
472,245,6923,1,2,0:3:0:0:
398,290,7153,2,0,P|368:297|345:304,1,50.9999984436036,2|0,0:3|0:0,0:0:0:0:
310,216,7384,5,8,0:0:0:0:
218,159,7500,1,0,1:0:0:0:
321,123,7615,5,0,1:0:0:0:
197,251,7730,1,0,1:0:0:0:
104,80,7846,6,0,P|99:57|94:35,7,42.5,2|0|0|0|8|0|8|0,1:0|0:0|0:0|0:0|0:0|0:0|0:0|0:0,0:0:0:0:
49,132,8307,2,0,P|109:118|170:117,1,85,4|0,1:0|0:0,0:0:0:0:
353,126,8538,1,10,2:0:0:0:
219,206,8653,1,2,0:0:0:0:
276,24,8769,2,0,P|263:81|268:129,1,85,2|0,1:2|1:0,0:0:0:0:
460,214,9000,2,0,P|456:170|332:138,1,170,10|2,0:0|1:2,0:0:0:0:
245,298,9346,1,2,0:0:0:0:
357,338,9461,2,0,P|399:331|450:313,1,85,8|0,0:0|1:0,0:0:0:0:
304,200,9692,2,0,B|203:200|239:236|110:226,1,170,2|10,0:1|0:0,0:0:0:0:
12,38,10038,5,0,1:0:0:0:
16,42,10153,2,0,P|26:87|30:143,1,85,2|0,1:2|0:0,0:0:0:0:
171,141,10384,1,10,0:0:0:0:
56,254,10500,1,2,0:0:0:0:
98,36,10615,2,0,P|148:42|191:89,1,85,2|0,1:2|1:0,0:0:0:0:
144,291,10846,2,0,P|190:322|289:267,1,170,10|2,0:0|1:2,0:0:0:0:
342,84,11192,1,2,0:0:0:0:
174,62,11307,1,10,0:0:0:0:
174,62,11423,2,2,P|191:153|202:246,1,170,0|0,1:0|1:0,0:1:0:0:
217,378,11769,1,8,0:0:0:0:
486,216,12000,6,0,P|432:206|374:194,1,85,4|0,1:2|0:0,0:0:0:0:
260,138,12230,1,10,0:0:0:0:
319,256,12346,1,2,0:0:0:0:
427,115,12461,2,0,P|377:125|334:129,1,85,2|0,1:2|1:0,0:0:0:0:
114,218,12692,2,0,P|162:215|222:332,1,170,10|2,0:0|1:2,0:0:0:0:
134,370,13038,1,2,0:0:0:0:
20,262,13153,2,0,P|31:205|31:172,1,85,10|0,0:0|1:0,0:0:0:0:
267,170,13384,2,0,P|251:118|246:0,1,170,2|10,0:1|0:0,0:0:0:0:
180,224,13730,1,0,0:0:0:0:
354,135,13846,6,0,P|390:142|425:262,1,170,2|10,1:2|0:0,0:0:0:0:
302,359,14192,1,2,0:0:0:0:
251,279,14307,2,0,P|259:233|296:200,1,85,2|0,1:2|0:0,0:0:0:0:
476,321,14538,2,0,P|463:351|421:380,1,85,10|0,0:0|1:0,0:0:0:0:
175,321,14769,1,2,1:2:0:0:
345,275,14884,1,2,1:2:0:0:
170,210,15000,2,0,B|74:199|99:230|-1:207,1,170,10|0,0:0|1:0,0:0:0:0:
4,194,15307,1,0,1:0:0:0:
9,183,15384,1,0,1:0:0:0:
18,170,15461,1,8,0:0:0:0:
400,139,15692,6,0,P|354:126|291:95,1,85,4|0,1:0|0:0,0:0:0:0:
268,25,15923,1,10,2:0:0:0:
188,77,16038,1,2,0:0:0:0:
157,176,16153,5,2,1:2:0:0:
47,111,16269,1,0,1:0:0:0:
119,22,16384,6,0,P|131:79|81:188,1,170,10|2,0:0|1:2,0:0:0:0:
15,249,16730,1,2,0:0:0:0:
154,344,16846,2,0,P|141:303|143:260,1,85,8|0,0:0|1:0,0:0:0:0:
239,140,17076,2,0,B|336:153|285:182|411:192,1,170,2|10,0:1|0:0,0:0:0:0:
492,46,17423,5,0,1:0:0:0:
492,46,17538,2,0,P|482:93|459:130,1,85,2|0,1:2|0:0,0:0:0:0:
512,226,17769,2,0,P|472:252|432:262,1,85,10|2,0:0|0:0,0:0:0:0:
306,246,18000,1,2,1:2:0:0:
356,110,18115,1,0,0:0:0:0:
275,6,18230,2,0,P|260:79|280:183,1,170,10|2,0:0|1:2,0:0:0:0:
219,317,18576,1,2,0:0:0:0:
143,218,18692,2,0,P|155:182|157:119,1,85,10|0,0:0|1:0,0:0:0:0:
0,52,18923,2,0,B|94:41|52:78|173:54,1,170,2|8,0:0|0:0,0:0:0:0:
479,110,19384,6,0,P|430:122|422:232,1,170,4|10,1:2|0:0,0:0:0:0:
345,275,19730,1,2,0:0:0:0:
466,374,19846,2,0,P|483:330|469:276,1,85,2|0,1:2|1:0,0:0:0:0:
282,205,20076,2,0,P|265:246|271:303,1,85,10|0,0:0|0:0,0:0:0:0:
335,368,20307,1,2,1:2:0:0:
417,235,20423,1,2,0:0:0:0:
360,143,20538,2,0,P|322:131|267:107,1,85,10|0,0:0|1:0,0:0:0:0:
457,20,20769,2,0,P|504:58|451:155,1,170,2|10,0:1|0:0,0:0:0:0:
288,210,21115,1,0,0:0:0:0:
202,49,21230,6,0,P|236:44|298:25,1,85,2|0,1:2|0:0,0:0:0:0:
146,160,21461,1,10,0:0:0:0:
51,103,21576,1,2,0:0:0:0:
241,125,21692,2,0,P|283:130|338:124,1,85,2|0,1:2|0:0,0:0:0:0:
216,212,21923,2,0,P|262:233|314:246,1,85,10|0,0:0|1:0,0:0:0:0:
453,155,22153,2,0,P|411:184|374:222,1,85,2|0,1:2|0:0,0:0:0:0:
386,384,22384,2,0,P|381:333|366:282,1,85,2|0,1:2|0:0,0:0:0:0:
245,106,22615,6,0,P|173:123|69:146,1,170,0|8,1:2|0:0,0:0:0:0:
0,98,22961,1,8,0:0:0:0:
133,36,23076,1,4,1:2:0:0:
311,189,24461,5,8,0:0:0:0:
432,139,24576,1,8,0:0:0:0:
337,93,24692,1,8,0:0:0:0:
415,236,24807,1,8,0:0:0:0:
211,137,24923,6,0,B|129:141|160:172|68:167,2,136,4|10|2,1:2|0:0|1:2,0:0:0:0:
287,200,25500,1,0,0:0:0:0:
213,375,25615,1,10,0:0:0:0:
213,375,25730,2,0,P|258:379|329:308,1,136,2|0,0:0|0:0,0:0:0:0:
383,94,26076,2,0,P|378:139|366:173,1,68,10|0,0:0|1:0,0:0:0:0:
512,108,26307,2,0,P|475:81|451:53,1,68,2|0,0:0|1:0,0:0:0:0:
435,212,26538,2,0,P|476:193|512:186,1,68,10|0,0:0|0:0,0:0:0:0:
498,188,26769,1,0,1:0:0:0:
217,116,27000,6,0,P|163:124|125:132,1,68,10|0,0:0|0:0,0:0:0:0:
288,175,27230,2,0,P|246:202|266:303,1,136,2|10,1:2|0:0,0:0:0:0:
339,83,27576,2,0,P|394:95|429:174,1,136,2|2,0:0|0:0,0:0:0:0:
376,314,27923,1,10,0:0:0:0:
286,278,28038,1,0,1:0:0:0:
176,326,28153,2,0,P|130:339|101:344,1,68,2|0,0:0|1:0,0:0:0:0:
18,364,28384,2,0,P|34:301|36:215,1,136,10|0,0:0|1:0,0:0:0:0:
49,237,28846,6,0,P|53:187|54:159,1,68,10|0,0:0|0:0,0:0:0:0:
202,210,29076,2,0,P|188:159|186:60,1,136,2|10,1:2|0:0,0:0:0:0:
120,318,29423,2,0,B|213:324|159:351|263:358,1,136,2|0,0:0|0:0,0:0:0:0:
405,320,29769,1,10,0:0:0:0:
462,258,29884,1,0,1:0:0:0:
402,210,30000,2,0,P|361:203|327:197,1,68,2|0,0:0|1:0,0:0:0:0:
466,95,30230,2,0,P|422:105|395:109,1,68,10|0,0:0|0:0,0:0:0:0:
172,49,30461,6,0,P|226:72|229:159,2,136,2|10|2,1:2|0:0|1:2,0:0:0:0:
109,106,31038,1,0,1:0:0:0:
194,255,31153,1,2,1:2:0:0:
194,255,31269,2,0,P|245:244|337:262,1,136,2|0,1:2|0:0,0:0:0:0:
76,231,31615,2,0,P|104:205|137:187,1,68,10|0,0:0|0:0,0:0:0:0:
12,318,31846,1,2,1:2:0:0:
12,318,32076,1,8,0:0:0:0:
163,289,32192,1,8,0:0:0:0:
225,350,32307,1,4,1:2:0:0:
225,350,33692,5,2,1:2:0:0:
257,375,33769,1,0,1:0:0:0:
300,363,33846,1,0,1:0:0:0:
292,351,33923,2,0,P|284:326|280:304,1,34,10|0,0:0|0:0,0:0:0:0:
271,213,34153,6,0,B|364:210|320:241|411:224,1,136,4|10,1:2|0:0,0:0:0:0:
466,149,34500,1,0,0:0:0:0:
259,121,34615,2,0,B|176:142|209:155|119:164,1,136,2|8,1:2|0:0,0:0:0:0:
0,38,34961,2,0,B|83:59|50:72|140:81,1,136,2|2,0:0|0:0,0:0:0:0:
271,35,35307,1,10,0:0:0:0:
181,11,35423,1,0,1:0:0:0:
283,244,35538,2,0,P|306:223|318:179,1,68,2|0,0:0|1:0,0:0:0:0:
360,103,35769,2,0,P|291:115|211:132,1,136,10|0,0:0|1:0,0:0:0:0:
467,295,36115,5,0,0:0:0:0:
467,295,36230,2,0,P|437:316|411:352,1,68,10|0,0:0|0:0,0:0:0:0:
424,166,36461,2,0,P|445:196|481:222,1,68,2|0,1:2|1:0,0:0:0:0:
332,337,36692,1,10,0:0:0:0:
191,204,36807,2,0,B|94:218|151:238|48:246,1,136,2|0,0:0|0:0,0:0:0:0:
263,258,37153,2,0,P|272:222|277:181,1,68,10|0,0:0|1:0,0:0:0:0:
350,149,37384,2,0,P|342:108|324:78,1,68,2|0,0:0|1:0,0:0:0:0:
388,15,37615,2,0,P|369:3|321:-11,1,68,10|0,0:0|0:0,0:0:0:0:
171,121,37846,6,0,P|126:136|28:138,1,136,2|10,1:2|0:0,0:0:0:0:
81,63,38192,1,0,0:0:0:0:
212,204,38307,2,0,P|257:219|355:221,1,136,2|10,1:2|0:0,0:0:0:0:
469,115,38653,5,2,0:0:0:0:
469,115,38769,2,0,P|476:154|489:192,1,68,4|0,1:2|0:0,0:0:0:0:
343,60,39000,2,0,P|330:100|312:130,1,68,8|0,0:0|0:0,0:0:0:0:
254,377,39230,1,0,1:0:0:0:
178,280,39346,1,0,1:0:0:0:
275,203,39461,1,8,0:0:0:0:
347,299,39577,1,8,0:0:0:0:
261,297,39692,6,0,B|172:307|208:328|111:334,2,136,4|2|10,1:2|1:2|0:0,0:0:0:0:
490,365,40384,2,0,P|473:310|463:222,1,136,2|2,1:2|0:0,0:0:0:0:
303,203,40730,2,0,P|348:206|387:124,1,136,8|0,0:0|0:0,0:0:0:0:
330,55,41076,2,0,P|285:52|246:134,1,136,10|2,0:0|1:2,0:0:0:0:
238,146,41384,1,0,1:0:0:0:
234,157,41461,1,0,1:0:0:0:
229,172,41538,2,0,B|149:197|186:217|88:230,1,136,0|2,1:0|1:2,0:0:0:0:
400,248,42000,6,0,P|412:281|432:318,1,68,10|0,0:0|0:0,0:0:0:0:
280,275,42230,2,0,P|302:248|324:212,1,68,2|0,1:2|1:0,0:0:0:0:
364,366,42461,2,0,P|329:359|287:358,1,68,2|8,1:2|0:0,0:0:0:0:
412,242,42692,2,0,P|424:275|444:312,1,68,2|0,1:2|0:0,0:0:0:0:
270,267,42923,2,0,P|292:240|314:204,1,68,10|0,0:0|0:0,0:0:0:0:
362,381,43153,2,0,P|327:374|285:373,1,68,8|0,0:0|0:0,0:0:0:0:
257,155,43384,6,0,P|196:158|77:260,1,204,4|0,1:2|1:0,0:0:0:0:
47,335,43846,2,0,P|90:324|143:330,1,68,10|0,0:2|0:0,0:0:0:0:
195,260,44076,2,0,P|239:266|276:291,1,68,2|0,1:2|1:0,0:0:0:0:
395,102,44307,5,2,0:0:0:0:
395,102,44423,2,0,P|403:155|418:243,1,136,8|0,0:0|0:0,0:0:0:0:
496,186,44769,2,0,P|494:233|491:346,1,136,10|2,0:0|1:2,0:0:0:0:
486,338,45076,1,0,1:0:0:0:
482,350,45153,1,0,1:0:0:0:
476,364,45230,2,0,P|439:354|396:352,1,68,0|0,1:0|0:0,0:0:0:0:
369,250,45461,2,0,P|332:260|289:262,1,68,2|0,1:2|1:0,0:0:0:0:
253,349,45692,2,0,P|216:339|173:337,1,68,10|0,0:0|0:0,0:0:0:0:
92,281,45923,5,0,1:0:0:0:
92,281,46038,1,2,1:2:0:0:
92,281,46153,2,0,P|120:244|145:225,1,68,2|0,0:0|1:0,0:0:0:0:
155,84,46384,2,0,P|173:126|176:157,1,68,2|0,0:0|0:0,0:0:0:0:
294,237,46615,2,0,P|247:231|219:219,1,68,10|0,0:0|0:0,0:0:0:0:
225,237,47076,6,0,P|269:246|314:261,1,85,4|0,1:0|0:0,0:0:0:0:
484,269,47307,2,0,P|434:232|455:129,1,170,8|2,0:0|0:3,0:0:0:0:
256,91,47653,1,0,1:0:0:0:
392,39,47769,1,8,0:0:0:0:
345,148,47884,1,0,0:0:0:0:
306,7,48000,2,0,B|205:12|241:42|132:46,1,170,0|10,1:0|0:0,0:0:0:0:
0,198,48346,2,0,B|101:203|65:233|174:237,1,170,2|0,1:2|1:0,0:0:0:0:
366,281,48692,2,0,P|356:240|353:188,1,85,10|0,0:0|0:0,0:0:0:0:
191,342,48923,6,0,P|207:273|214:167,2,170,2|8|2,1:2|0:0|0:3,0:0:0:0:
108,354,49500,1,0,1:0:0:0:
299,288,49615,2,0,P|349:297|386:311,1,85,10|0,0:0|0:0,0:0:0:0:
481,215,49846,5,2,1:2:0:0:
481,215,49961,2,0,P|469:167|471:116,1,85,0|8,0:0|0:0,0:0:0:0:
257,205,50192,5,0,1:0:0:0:
258,157,50307,2,0,P|267:104|289:65,1,85,2|0,0:3|1:0,0:0:0:0:
42,191,50538,5,8,0:0:0:0:
86,106,50653,1,0,1:0:0:0:
167,241,50769,2,0,B|262:246|210:280|342:284,2,170,4|8|2,1:2|0:0|0:3,0:0:0:0:
428,177,51346,1,0,1:0:0:0:
428,177,51461,2,0,P|434:229|448:272,1,85,8|0,0:0|0:0,0:0:0:0:
432,63,51692,6,0,P|389:90|277:57,1,170,2|10,1:2|0:0,0:0:0:0:
58,125,52038,2,0,B|161:126|114:162|249:148,1,170,2|0,1:2|1:0,0:0:0:0:
303,180,52384,2,0,P|309:221|326:270,1,85,10|0,0:0|0:0,0:0:0:0:
46,343,52615,6,0,P|105:333|225:310,1,170,2|8,1:2|0:0,0:0:0:0:
474,340,52961,2,0,P|416:318|305:271,1,170,0|0,1:0|1:0,0:0:0:0:
84,40,53307,2,0,P|96:89|105:140,1,85,10|0,0:0|0:0,0:0:0:0:
303,77,53538,5,2,1:2:0:0:
303,77,53653,2,0,P|283:119|269:171,1,85,0|8,0:0|0:0,0:0:0:0:
447,214,53884,2,0,P|463:169|469:117,1,85,0|2,1:0|0:3,0:0:0:0:
359,15,54115,1,0,1:0:0:0:
382,147,54230,1,8,0:0:0:0:
382,147,54461,6,0,B|348:154|348:154|315:165|315:165|261:174,1,113.333333333333,14|0,0:0|1:0,0:0:0:0:
148,226,54692,2,0,P|156:181|154:136,1,85,14|0,0:0|1:0,0:0:0:0:
155,141,54865,1,0,1:0:0:0:
155,141,54923,1,8,0:0:0:0:
271,198,55038,1,0,1:0:0:0:
330,320,55153,5,8,0:0:0:0:
488,231,55269,1,8,0:0:0:0:
373,111,55384,6,0,P|335:120|271:125,1,93.5000028533936,4|0,1:0|0:0,0:0:0:0:
443,331,55615,2,0,P|410:282|446:154,1,187.000005706787,10|2,0:0|1:2,0:0:0:0:
432,40,55961,1,0,1:0:0:0:
492,241,56076,1,10,0:0:0:0:
288,241,56192,2,0,B|169:278|222:282|97:308,1,187.000005706787,2|0,1:2|1:0,0:0:0:0:
1,90,56538,2,0,P|36:67|76:20,1,93.5000028533936,10|0,0:0|0:0,0:0:0:0:
126,192,56769,2,0,P|88:172|28:161,1,93.5000028533936,2|0,0:0|1:0,0:0:0:0:
152,33,57000,2,0,P|153:74|174:132,1,93.5000028533936,10|0,0:0|1:0,0:0:0:0:
265,145,57230,6,0,B|374:167|308:209|445:219,1,187.000005706787,4|10,1:2|0:0,0:0:0:0:
376,98,57576,1,0,0:0:0:0:
229,227,57692,2,0,P|174:243|42:290,1,187.000005706787,2|10,1:2|0:0,0:0:0:0:
387,329,58038,2,0,P|356:317|289:314,1,93.5000028533936,2|0,1:2|0:0,0:0:0:0:
169,359,58269,1,2,1:2:0:0:
128,266,58384,1,10,0:0:0:0:
218,203,58500,1,2,1:2:0:0:
358,117,58615,2,0,P|380:76|361:25,1,93.5000028533936,2|0,1:2|0:0,0:0:0:0:
196,11,58846,2,0,P|177:38|184:106,1,93.5000028533936,10|0,0:0|0:0,0:0:0:0:
340,229,59076,6,0,P|400:216|459:212,1,93.5000028533936,4|0,1:2|0:0,0:0:0:0:
200,337,59307,1,10,0:0:0:0:
200,337,59423,2,0,P|255:289|213:182,1,187.000005706787,2|2,0:0|0:0,0:0:0:0:
157,125,59769,1,8,0:0:0:0:
280,46,59884,2,0,P|344:56|468:78,1,187.000005706787,2|0,1:2|1:0,0:0:0:0:
494,155,60230,1,10,0:0:0:0:
429,217,60346,1,2,1:2:0:0:
467,377,60461,2,0,P|485:333|484:272,1,93.5000028533936,2|0,1:2|0:0,0:0:0:0:
275,140,60692,2,0,P|248:193|254:247,1,93.5000028533936,10|0,0:0|0:0,0:0:0:0:
400,320,60923,6,0,L|208:364,1,187.000005706787,4|8,1:2|0:0,0:0:0:0:
63,147,61269,2,0,P|121:159|146:292,1,187.000005706787,0|0,1:0|1:0,0:0:0:0:
47,364,61615,2,0,P|32:305|58:250,1,93.5000028533936,8|0,0:0|1:0,0:0:0:0:
241,95,61846,6,0,P|279:108|347:123,1,93.5000028533936,2|0,1:3|1:0,0:0:0:0:
328,311,62076,2,0,P|376:300|438:292,1,93.5000028533936,8|0,0:0|1:0,0:0:0:0:
506,201,62307,5,2,1:3:0:0:
456,95,62423,1,0,1:0:0:0:
274,189,62538,5,8,0:0:0:0:
204,335,62653,1,8,0:0:0:0:
190,140,62769,6,0,P|133:132|85:114,1,93.5000028533936,4|0,1:0|0:0,0:0:0:0:
337,55,63000,2,0,P|352:94|349:177,1,93.5000028533936,10|0,0:0|0:0,0:0:0:0:
108,352,63230,2,0,P|98:307|108:262,1,93.5000028533936,2|0,1:2|0:0,0:0:0:0:
275,176,63461,1,10,0:0:0:0:
403,262,63576,2,0,P|456:277|498:287,1,93.5000028533936,2|0,1:2|0:0,0:0:0:0:
271,295,63807,5,2,1:2:0:0:
442,176,63923,1,10,0:0:0:0:
256,90,64038,1,2,1:2:0:0:
374,271,64153,2,0,P|362:211|363:152,1,93.5000028533936,0|0,1:2|1:0,0:0:0:0:
169,28,64384,2,0,P|160:86|149:132,1,93.5000028533936,10|0,0:0|0:0,0:0:0:0:
25,246,64615,6,0,B|145:263|85:286|207:298,1,187.000005706787,4|10,1:2|0:0,0:0:0:0:
425,355,64961,1,0,0:0:0:0:
486,251,65076,2,0,P|502:289|499:367,1,93.5000028533936,2|0,1:2|1:0,0:0:0:0:
271,372,65307,1,10,0:0:0:0:
271,372,65423,2,0,P|276:314|294:274,1,93.5000028533936,2|0,1:2|0:0,0:0:0:0:
459,109,65653,1,2,1:2:0:0:
305,178,65769,1,8,0:0:0:0:
437,215,65884,1,2,1:2:0:0:
317,54,66000,6,0,P|281:55|232:112,1,93.5000028533936,2|0,1:2|0:0,0:0:0:0:
264,278,66230,2,0,P|238:316|177:338,1,93.5000028533936,10|0,0:0|0:0,0:0:0:0:
63,171,66461,2,0,B|191:163|129:210|260:193,1,187.000005706787,4|10,1:2|0:0,0:0:0:0:
476,113,66807,2,0,P|487:174|499:211,1,93.5000028533936,2|0,0:0|1:0,0:0:0:0:
360,58,67038,2,0,P|345:104|339:165,1,93.5000028533936,2|8,1:2|0:0,0:0:0:0:
469,275,67269,2,0,P|422:268|386:396,1,187.000005706787,2|2,1:2|1:2,0:0:0:0:
215,286,67615,5,8,0:0:0:0:
317,246,67730,1,0,1:0:0:0:
310,148,67846,5,2,1:2:0:0:
216,120,67961,1,0,1:0:0:0:
140,221,68076,2,0,P|93:232|36:238,1,93.5000028533936,10|0,0:0|0:0,0:0:0:0:
308,62,68307,2,0,B|441:79|357:103|524:108,2,187.000005706787,2|8|2,1:3|0:0|1:3,0:0:0:0:
96,154,68884,1,0,1:0:0:0:
157,20,69000,2,0,P|168:77|176:115,1,93.5000028533936,8|0,0:0|1:0,0:0:0:0:
247,186,69230,5,2,1:3:0:0:
342,222,69346,1,0,1:0:0:0:
242,296,69461,1,8,0:0:0:0:
338,335,69576,1,0,1:0:0:0:
379,196,69692,5,2,1:3:0:0:
199,291,69807,1,0,1:0:0:0:
363,361,69923,5,8,0:0:0:0:
237,164,70038,1,8,0:0:0:0:
465,99,70153,2,0,P|475:145|466:212,1,93.5000028533936,4|0,1:0|0:0,0:0:0:0:
152,177,70384,2,0,P|156:114|288:88,1,187.000005706787,8|2,0:0|1:2,0:0:0:0:
456,309,70730,1,0,1:0:0:0:
396,238,70846,2,0,B|272:235|335:270|196:277,1,187.000005706787,8|2,0:0|0:0,0:0:0:0:
150,18,71192,5,0,0:0:0:0:
150,18,71307,2,0,P|166:62|198:105,1,93.5000028533936,10|0,0:0|0:0,0:0:0:0:
9,115,71538,2,0,P|39:79|60:29,1,93.5000028533936,2|0,1:2|1:0,0:0:0:0:
164,189,71769,2,0,P|117:180|64:187,1,93.5000028533936,10|0,0:0|0:0,0:0:0:0:
254,54,72000,6,0,P|308:63|457:74,1,187.000005706787,2|8,1:2|0:0,0:0:0:0:
487,268,72346,1,0,0:0:0:0:
418,209,72461,2,0,P|332:220|196:243,1,187.000005706787,2|8,1:2|0:0,0:0:0:0:
72,342,72807,1,0,1:0:0:0:
121,183,72923,2,0,P|146:254|142:383,1,187.000005706787,2|8,0:0|0:0,0:0:0:0:
0,132,73269,1,0,1:0:0:0:
0,132,73384,2,0,P|45:115|97:88,1,93.5000028533936,2|0,1:2|0:0,0:0:0:0:
161,14,73615,2,0,P|212:42|253:58,1,93.5000028533936,8|8,0:0|0:0,0:0:0:0:
453,134,73846,5,4,1:2:0:0:
314,220,73961,1,0,0:0:0:0:
363,61,74076,2,0,P|365:114|377:176,1,93.5000028533936,8|2,0:0|1:2,0:0:0:0:
191,134,74307,2,0,P|178:187|161:238,1,93.5000028533936,2|0,1:2|0:0,0:0:0:0:
408,237,74538,2,0,P|410:290|422:352,1,93.5000028533936,10|0,0:0|1:0,0:0:0:0:
293,318,74769,5,2,1:2:0:0:
186,370,74884,1,0,1:0:0:0:
96,309,75000,1,8,0:0:0:0:
110,228,75115,1,2,1:2:0:0:
179,187,75230,1,0,1:0:0:0:
212,169,75307,1,0,1:0:0:0:
211,137,75384,1,0,1:0:0:0:
200,124,75461,1,12,0:0:0:0:
201,124,75692,5,2,1:0:0:0:
288,83,75807,1,0,1:0:0:0:
356,158,75923,5,2,1:0:0:0:
457,214,76038,1,0,1:0:0:0:
507,109,76153,5,2,1:0:0:0:
507,109,76384,5,2,1:0:0:0:
404,39,76500,1,0,1:0:0:0:
385,141,76615,1,2,1:0:0:0:
512,0,76730,1,0,1:0:0:0:
274,91,76846,2,0,B|166:120|220:147|71:175,1,203.999993774414,2|0,1:0|1:0,0:0:0:0:
278,81,77538,6,0,P|237:73|197:52,1,85,4|0,1:0|0:0,0:0:0:0:
287,193,77769,1,10,2:0:0:0:
406,84,77884,1,2,0:0:0:0:
405,187,78000,2,0,P|415:244|443:368,1,170,2|10,1:2|0:0,0:0:0:0:
497,208,78346,1,0,0:0:0:0:
300,210,78461,2,0,P|256:218|195:239,1,85,2|2,1:2|0:0,0:0:0:0:
257,124,78692,2,0,P|220:115|202:1,1,170,8|2,0:0|0:1,0:0:0:0:
388,31,79038,1,0,0:0:0:0:
388,31,79153,2,0,P|403:77|383:131,1,85,10|0,0:0|1:0,0:0:0:0:
213,257,79384,6,0,P|276:218|383:272,1,170,2|10,1:2|0:0,0:0:0:0:
451,204,79730,1,2,0:0:0:0:
497,326,79846,2,0,P|454:336|400:353,1,85,2|0,1:2|0:0,0:0:0:0:
223,373,80076,2,0,P|163:356|33:341,1,170,10|2,0:0|1:2,0:0:0:0:
213,257,80423,1,2,0:2:0:0:
85,246,80538,2,0,P|77:202|193:125,2,170,10|0|8,0:0|0:0|0:0,0:0:0:0:
456,308,81230,6,0,P|485:215|482:128,1,170,4|10,1:2|0:0,0:0:0:0:
351,77,81576,1,2,0:0:0:0:
296,185,81692,2,0,P|343:195|396:212,1,85,2|0,1:2|1:0,0:0:0:0:
393,3,81923,2,0,P|344:0|252:93,1,170,10|2,0:0|1:2,0:0:0:0:
104,227,82269,1,2,0:0:0:0:
40,184,82384,2,0,P|53:146|62:88,1,85,10|0,0:0|1:0,0:0:0:0:
174,192,82615,2,0,P|200:222|246:259,1,85,2|0,0:1|1:0,0:0:0:0:
100,304,82846,2,0,P|60:311|5:332,1,85,10|0,0:0|0:0,0:0:0:0:
281,188,83076,6,0,B|382:204|323:244|448:255,1,170,2|10,1:2|0:0,0:0:0:0:
429,164,83423,1,2,0:0:0:0:
272,286,83538,2,0,P|250:323|252:376,1,85,2|0,1:2|0:0,0:0:0:0:
482,384,83769,2,0,P|499:347|494:287,1,85,10|0,0:0|1:0,0:0:0:0:
424,155,84000,1,2,1:2:0:0:
353,106,84115,1,0,0:0:0:0:
283,162,84230,2,0,P|239:168|191:184,1,85,10|0,0:0|0:0,0:0:0:0:
52,272,84461,5,0,1:0:0:0:
21,237,84538,1,0,1:0:0:0:
39,197,84615,1,0,1:0:0:0:
54,195,84692,1,8,0:0:0:0:
125,137,84807,1,0,1:0:0:0:
100,43,84923,6,0,P|72:28|-11:122,2,170,4|10|2,1:0|2:0|1:2,0:0:0:0:
232,36,85500,1,0,1:0:0:0:
320,120,85615,2,0,P|365:141|414:141,1,85,10|0,0:0|0:0,0:0:0:0:
369,20,85846,1,2,1:2:0:0:
231,123,85961,1,2,0:0:0:0:
428,255,86076,2,0,P|408:198|402:148,1,85,8|0,0:0|1:0,0:0:0:0:
212,329,86307,2,0,P|225:288|231:229,1,85,2|0,0:1|1:0,0:0:0:0:
151,161,86538,2,0,P|89:172|49:177,1,85,10|0,0:0|1:0,0:0:0:0:
328,159,86769,6,0,P|380:137|373:15,1,170,2|10,1:2|0:0,0:0:0:0:
225,72,87115,1,2,0:0:0:0:
216,241,87230,2,0,P|264:247|322:273,1,85,2|0,1:2|1:0,0:0:0:0:
111,376,87461,2,0,P|159:365|212:364,1,85,10|0,0:0|0:0,0:0:0:0:
305,376,87692,1,2,1:2:0:0:
292,276,87807,1,2,0:0:0:0:
368,135,87923,1,10,0:0:0:0:
368,135,88038,2,2,P|397:241|405:334,1,170,0|0,1:0|1:0,0:1:0:0:
393,384,88384,1,8,0:0:0:0:
154,185,88615,6,0,P|111:194|54:216,1,85,4|0,1:2|0:0,0:0:0:0:
109,39,88846,2,0,P|138:71|185:110,1,85,10|2,0:0|0:0,0:0:0:0:
6,151,89076,2,0,P|19:109|29:48,1,85,2|0,1:2|1:0,0:0:0:0:
351,276,89307,6,0,P|309:262|248:252,1,85,10|0,0:0|0:0,0:0:0:0:
385,127,89538,1,2,1:2:0:0:
407,208,89653,1,0,0:0:0:0:
239,172,89768,2,0,P|271:142|310:95,1,85,10|0,0:0|1:0,0:0:0:0:
449,37,90000,2,0,P|512:55|505:156,2,170,2|10|2,0:1|0:0|1:2,0:0:0:0:
295,9,90576,5,0,0:0:0:0:
216,86,90692,2,0,P|156:97|105:114,1,85,10|2,0:0|0:0,0:0:0:0:
20,44,90923,2,0,P|34:116|47:222,1,170,2|10,1:2|0:0,0:0:0:0:
244,226,91269,1,0,1:0:0:0:
140,308,91384,1,2,1:2:0:0:
149,219,91500,1,2,0:0:0:0:
242,316,91615,2,0,P|280:329|350:330,1,85,10|0,0:0|0:0,0:0:0:0:
475,134,91846,2,0,P|432:137|392:150,1,85,4|0,1:2|0:0,0:0:0:0:
239,230,92076,1,8,0:0:0:0:
348,47,92192,1,8,0:0:0:0:
249,86,92307,5,4,1:0:0:0:
466,323,93000,5,2,0:0:0:0:
