osu file format v14

[General]
AudioFilename: audio.mp3
AudioLeadIn: 0
PreviewTime: 162320
Countdown: 0
SampleSet: Drum
StackLeniency: 0.3
Mode: 0
LetterboxInBreaks: 0
WidescreenStoryboard: 1

[Editor]
Bookmarks: 41057,51162,61267,66320,76425,86530,96636,106741,116846,121899,132004,142109,152215,162320,182530,202741,212846,222952,233057,245688,255794,265899
DistanceSpacing: 1.2
BeatDivisor: 4
GridSize: 32
TimelineZoom: 1.7

[Metadata]
Title:Aru Tsuioku, Bouchou Uchuu ni Okeru Shinkai Sunawachi Suiten
TitleUnicode:或る追憶、膨張宇宙に於ける深海乃ち萃点
Artist:Yousei Teikoku
ArtistUnicode:妖精帝國
Creator:IsomirDiAngelo
Version:Hard
Source:
Tags:the age of villains das feenreich fairy empire yui itsuki japanese metal
BeatmapID:3305780
BeatmapSetID:1607459

[Difficulty]
HPDrainRate:4
CircleSize:3.8
OverallDifficulty:6
ApproachRate:8
SliderMultiplier:1.3
SliderTickRate:1

[Events]
//Background and Video events
0,0,"deep sea dark.png",0,0
//Break Periods
2,99046,105991
2,154941,161570
2,205467,211583
2,233257,237359
//Storyboard Layer 0 (Background)
//Storyboard Layer 1 (Fail)
//Storyboard Layer 2 (Pass)
//Storyboard Layer 3 (Foreground)
//Storyboard Layer 4 (Overlay)
//Storyboard Sound Samples

[TimingPoints]
21005,315.789473684211,4,3,1,80,1,0
30952,315.789473684211,4,3,1,80,1,0
66320,-125,4,2,1,70,0,0
68215,-125,4,2,1,80,0,0
73740,-125,4,2,1,5,0,0
73820,-125,4,3,1,5,0,0
73899,-125,4,3,1,80,0,0
75004,-125,4,3,1,5,0,0
75057,-125,4,3,1,80,0,0
75083,-125,4,3,1,80,0,0
85267,-100,4,3,1,80,0,0
86530,-90.9090909090909,4,3,1,80,0,1
87557,-90.9090909090909,4,3,1,5,0,1
87636,-90.9090909090909,4,3,1,80,0,1
96636,-100,4,3,1,80,0,0
121307,-100,4,3,1,5,0,0
121583,-100,4,3,1,80,0,0
121623,-100,4,3,1,5,0,0
121899,-125,4,2,1,80,0,0
129319,-125,4,2,1,5,0,0
129478,-125,4,3,1,80,0,0
130346,-125,4,3,1,5,0,0
130425,-125,4,3,1,80,0,0
140846,-100,4,3,1,80,0,0
142109,-90.9090909090909,4,3,1,80,0,1
152215,-100,4,3,1,80,0,0
162320,-125,4,3,1,80,0,0
162478,-125,4,2,1,70,0,0
172425,-111.111111111111,4,3,1,80,0,0
182530,-100,4,3,1,80,0,0
192636,-100,4,2,1,80,0,1
197373,-100,4,3,1,80,0,1
202741,-100,4,3,1,80,0,0
212846,-100,4,3,1,80,0,1
222320,-100,4,3,1,80,0,0
222952,-90.9090909090909,4,3,1,80,0,1
233057,-90.9090909090909,4,3,1,80,0,0
238109,-90.9090909090909,4,3,1,80,0,1
242530,-90.9090909090909,4,3,1,80,0,0
243162,-90.9090909090909,4,2,1,60,0,0
245688,-100,4,3,1,80,0,0

[Colours]
Combo1 : 193,136,166
Combo2 : 255,70,70
Combo3 : 179,138,136

[HitObjects]
294,32,30952,6,0,P|328:27|376:23,1,65,2|0,0:0|0:0,0:0:0:0:
212,80,31425,2,0,P|177:76|130:71,1,65,2|0,0:0|0:0,0:0:0:0:
284,148,31899,2,0,P|318:144|366:139,1,65,2|0,0:0|0:0,0:0:0:0:
202,196,32372,2,0,P|167:192|120:187,1,65,2|0,0:0|0:0,0:0:0:0:
273,266,32846,2,0,P|272:287|269:313,2,32.5,2|0|0,0:0|0:0|0:0,0:0:0:0:
340,225,33162,2,0,P|341:204|344:178,2,32.5,2|0|0,0:0|0:0|0:0,0:0:0:0:
402,272,33478,6,0,B|407:305|407:305|404:313|404:313|409:357,1,65,2|0,0:0|0:0,0:0:0:0:
491,204,33952,2,0,B|496:171|496:171|493:163|493:163|498:119,1,65,2|0,0:0|0:0,0:0:0:0:
381,33,34425,2,0,B|386:66|386:66|383:74|383:74|388:118,1,65,2|0,0:0|0:0,0:0:0:0:
304,231,34899,2,0,B|292:199|292:199|294:191|294:191|287:169,1,65,2|0,0:0|0:0,0:0:0:0:
181,53,35373,6,0,B|187:70|187:70|196:51,2,32.5,6|4|4,0:0|0:0|0:0,0:0:0:0:
104,69,35688,2,0,B|110:52|110:52|119:71,2,32.5,6|4|4,0:0|0:0|0:0,0:0:0:0:
26,79,36004,6,0,B|6:111|6:111|14:157,1,65,6|0,0:1|0:0,0:0:0:0:
17,294,36478,2,0,B|49:314|49:314|95:306,1,65,2|0,0:0|0:0,0:0:0:0:
222,253,36952,2,0,B|242:221|242:221|234:175,1,65,2|0,0:0|0:0,0:0:0:0:
246,38,37425,2,0,B|214:18|214:18|168:26,1,65,2|0,0:0|0:0,0:0:0:0:
316,111,37899,6,0,L|312:149,2,32.5,2|0|0,0:0|0:0|0:0,0:0:0:0:
381,68,38215,2,0,L|385:30,2,32.5,2|0|0,0:0|0:0|0:0,0:0:0:0:
440,118,38530,6,0,B|471:115|471:115|478:111|478:111|513:106,1,65,2|0,0:0|0:0,0:0:0:0:
377,200,39004,2,0,B|346:197|346:197|339:193|339:193|304:188,1,65,2|0,0:0|0:0,0:0:0:0:
181,104,39478,2,0,B|212:101|212:101|219:97|219:97|254:92,1,65,2|0,0:0|0:0,0:0:0:0:
141,210,39952,2,0,B|110:207|110:207|103:203|103:203|68:198,1,65,2|0,0:0|0:0,0:0:0:0:
178,318,40425,6,0,P|176:338|174:359,2,32.5,10|8|8,0:0|0:0|0:0,0:0:0:0:
245,277,40741,1,10,0:0:0:0:
245,277,40820,1,8,0:0:0:0:
245,277,40899,2,0,B|276:271|276:271|284:274|284:274|329:266,1,65,8|4,0:0|0:1,0:0:0:0:
386,331,41215,5,10,0:2:0:0:
386,331,41373,2,0,B|404:299|404:299|399:263,1,65,2|10,0:2|0:2,0:0:0:0:
476,253,41688,2,0,B|458:221|458:221|463:185,1,65,2|10,0:2|0:2,0:0:0:0:
500,124,42004,1,2,0:2:0:0:
424,104,42162,2,0,P|344:113|281:120,1,130,10|10,0:2|0:2,0:0:0:0:
228,43,42636,5,2,0:2:0:0:
228,43,42794,2,0,P|190:42|154:19,1,65,8|0,0:0|0:0,0:0:0:0:
90,13,43109,2,0,P|108:46|106:89,1,65,8|0,0:0|0:0,0:0:0:0:
132,147,43425,2,0,P|151:114|189:94,1,65,8|0,0:0|0:0,0:0:0:0:
175,219,43741,6,0,B|145:222|145:222|138:225|138:225|104:229,2,65,10|2|10,0:2|0:2|0:2,0:0:0:0:
227,160,44215,1,2,0:2:0:0:
302,141,44373,1,10,0:2:0:0:
360,191,44530,2,0,B|353:253|353:253|356:264|356:264|348:349,1,130,2|0,0:2|0:0,0:0:0:0:
427,358,45004,5,10,0:2:0:0:
500,321,45162,2,0,B|494:265|494:265|497:254|497:254|490:192,1,130,2|0,0:2|0:0,0:0:0:0:
512,117,45636,1,12,0:2:0:0:
356,107,45952,1,12,0:2:0:0:
344,262,46267,6,0,L|262:251,1,65,10|2,0:2|0:2,0:0:0:0:
213,295,46583,1,10,0:2:0:0:
163,234,46741,2,0,L|172:160,1,65,2|10,0:2|0:2,0:0:0:0:
105,125,47057,1,2,0:2:0:0:
42,171,47215,2,0,L|55:316,1,130,10|10,0:2|0:2,0:0:0:0:
111,352,47688,5,2,0:2:0:0:
111,352,47846,2,0,L|181:343,1,65,8|0,0:0|0:0,0:0:0:0:
246,376,48162,2,0,L|316:385,1,65,8|0,0:0|0:0,0:0:0:0:
377,343,48478,2,0,L|447:334,1,65,8|0,0:0|0:0,0:0:0:0:
438,238,48794,6,0,B|478:238|478:238|504:263,2,65,10|2|10,0:2|0:2|0:2,0:0:0:0:
360,250,49267,1,2,0:2:0:0:
305,196,49425,1,10,0:2:0:0:
334,123,49583,2,0,B|395:117|395:117|404:109|404:109|484:102,1,130,2|2,0:2|0:2,0:0:0:0:
495,28,50057,1,10,0:2:0:0:
412,16,50215,2,0,B|382:43|382:43|401:80,1,65,2|8,0:2|0:0,0:0:0:0:
334,123,50530,5,10,0:0:0:0:
334,123,50609,1,8,0:0:0:0:
334,123,50688,1,8,0:0:0:0:
269,167,50846,2,0,L|264:210,2,32.5,10|8|8,0:0|0:0|0:0,0:0:0:0:
217,107,51162,1,4,0:1:0:0:
142,82,51320,6,0,P|101:88|47:95,1,65,2|10,0:2|0:2,0:0:0:0:
7,55,51636,1,2,0:2:0:0:
28,209,51952,2,0,P|69:203|123:196,1,65,2|10,0:2|0:2,0:0:0:0:
163,236,52268,1,2,0:2:0:0:
246,367,52583,2,0,P|282:362|324:357,1,65,2|10,0:2|0:2,0:0:0:0:
388,370,52899,2,0,P|423:317|370:255,1,130,2|2,0:2|0:2,0:0:0:0:
453,200,53373,1,10,0:2:0:0:
413,49,53688,1,0,0:2:0:0:
335,64,53846,6,0,P|334:99|330:150,1,65,2|10,0:2|0:2,0:0:0:0:
265,170,54162,1,2,0:2:0:0:
119,114,54478,2,0,P|120:79|124:28,1,65,2|10,0:2|0:2,0:0:0:0:
189,10,54794,1,2,0:2:0:0:
185,165,55109,2,0,P|182:197|182:229,1,65,2|10,0:2|0:2,0:0:0:0:
227,293,55425,2,0,P|287:300|326:222,1,130,2|6,0:2|0:2,0:0:0:0:
401,275,55899,2,0,P|399:312|398:365,2,65,10|0|0,0:2|0:0|0:0,0:0:0:0:
396,196,56373,6,0,B|426:177|426:177|477:182,1,65,2|10,0:2|0:2,0:0:0:0:
500,116,56688,1,2,0:2:0:0:
344,126,57004,2,0,B|314:107|314:107|263:112,1,65,2|10,0:2|0:2,0:0:0:0:
240,46,57319,1,2,0:2:0:0:
180,189,57636,2,0,B|210:170|210:170|261:175,1,65,2|10,0:2|0:2,0:0:0:0:
284,109,57952,2,0,L|269:252,1,130,2|2,0:2|0:2,0:0:0:0:
329,303,58425,1,10,0:2:0:0:
178,344,58741,1,0,0:0:0:0:
105,315,58899,6,0,P|66:306|35:293,1,65,2|10,0:2|0:2,0:0:0:0:
26,220,59215,1,2,0:2:0:0:
178,252,59530,2,0,P|217:243|248:230,1,65,2|10,0:2|0:2,0:0:0:0:
257,157,59846,1,2,0:2:0:0:
105,194,60162,2,0,P|66:185|35:172,1,65,2|10,0:2|0:2,0:0:0:0:
26,99,60478,1,2,0:2:0:0:
86,49,60636,6,0,B|121:47|121:47|127:44|127:44|164:42,1,65,0|8,0:0|0:0,0:0:0:0:
223,70,60952,6,0,B|258:68|258:68|264:65|264:65|301:63,1,65,4|4,0:0|0:0,0:0:0:0:
360,35,61267,6,0,L|392:39,2,32.5,2|0|0,0:0|0:0|0:0,0:0:0:0:
349,112,61583,2,0,L|385:118,2,32.5,2|0|0,0:0|0:0|0:0,0:0:0:0:
341,190,61899,2,0,B|441:206|441:206|458:113,1,195,10|6,0:0|0:0,0:0:0:0:
503,275,62688,6,0,L|508:312,1,32.5,2|0,0:0|0:0,0:0:0:0:
425,286,62925,2,0,L|431:342,2,32.5,2|0|0,0:0|0:0|0:0,0:0:0:0:
346,291,63241,2,0,B|296:295|296:295|291:298|291:298|248:301|248:301|244:261|244:261|248:253|248:253|244:211,1,178.75,10|6,0:0|0:0,0:0:0:0:
176,177,63794,6,0,L|144:173,2,32.5,2|0|0,0:0|0:0|0:0,0:0:0:0:
187,100,64110,2,0,L|151:94,2,32.5,2|0|0,0:0|0:0|0:0,0:0:0:0:
195,22,64426,2,0,B|95:9|95:9|74:111,1,195,10|6,0:0|0:0,0:0:0:0:
32,251,65215,6,0,L|36:289,1,32.5,2|0,0:0|0:0,0:0:0:0:
114,245,65452,2,0,L|118:288,1,32.5,2|0,0:0|0:0,0:0:0:0:
184,316,65688,5,2,0:0:0:0:
339,328,66004,1,6,0:0:0:0:
500,339,66320,2,0,P|441:270|503:161,1,208,4|4,3:1|0:3,0:0:0:0:
470,47,67267,5,4,0:3:0:0:
346,27,67583,2,0,P|287:17|236:47,1,104,4|0,0:3|0:0,0:0:0:0:
126,11,68215,6,0,B|140:74|140:74|130:100|130:100|147:184,1,156,12|0,0:1|0:0,0:0:0:0:
78,208,68846,6,0,P|40:300|126:356,2,208,2|2|4,3:0|3:0|0:3,0:0:0:0:
207,343,70583,1,8,0:0:0:0:
207,343,70741,2,0,B|261:329|261:329|285:375,1,104,2|2,0:3|0:3,0:0:0:0:
386,301,71373,6,0,B|276:318|285:226|176:235,1,208,4|4,3:1|0:3,0:0:0:0:
79,280,72320,1,4,0:3:0:0:
39,162,72636,2,0,B|101:168|85:127|151:135,1,104,4|0,0:3|0:0,0:0:0:0:
191,21,73267,6,0,L|361:39,1,156,12|0,0:1|0:0,0:0:0:0:
421,16,73899,1,0,3:0:0:0:
256,192,73978,12,4,75794,0:0:0:0:
300,210,76425,6,0,L|307:156,1,52,6|0,0:2|0:2,0:0:0:0:
341,106,76741,2,0,L|286:98,1,52,0|0,0:2|0:2,0:0:0:0:
236,64,77057,2,0,B|217:90|217:90|229:118,1,52,12|0,0:2|0:2,0:0:0:0:
195,164,77373,2,0,L|249:171,1,52,2|0,0:2|0:2,0:0:0:0:
300,210,77688,5,6,0:2:0:0:
361,197,77846,1,0,0:2:0:0:
407,238,78004,1,0,0:2:0:0:
399,299,78162,1,0,0:2:0:0:
322,332,78320,6,0,L|314:392,3,52,14|0|0|0,0:2|0:2|0:2|0:2,0:0:0:0:
268,297,78952,6,0,L|323:273,3,52,6|0|0|0,0:2|0:2|0:2|0:2,0:0:0:0:
256,361,79583,6,0,L|207:324,3,52,14|0|0|0,0:2|0:2|0:2|0:2,0:0:0:0:
139,366,80215,6,0,P|111:368|84:366,1,52,6|0,0:2|0:2,0:0:0:0:
53,314,80530,2,0,P|19:311|-14:314,1,52,0|0,0:2|0:2,0:0:0:0:
20,232,80846,5,12,0:2:0:0:
76,205,81004,1,6,0:0:0:0:
129,236,81162,2,0,B|129:262|129:262|131:268|131:268|130:292,1,52,2|6,0:0|0:0,0:0:0:0:
213,256,81478,6,0,L|217:183,1,52,6|0,0:2|0:2,0:0:0:0:
171,160,81794,2,0,L|167:87,1,52,0|0,0:2|0:2,0:0:0:0:
217,69,82109,2,0,L|290:72,1,52,12|0,0:2|0:2,0:0:0:0:
313,27,82425,2,0,L|386:23,1,52,2|0,0:2|0:2,0:0:0:0:
407,70,82741,5,6,0:2:0:0:
468,81,82899,1,0,0:2:0:0:
494,137,83057,1,0,0:2:0:0:
477,197,83215,1,0,0:2:0:0:
401,234,83373,6,0,L|395:307,3,52,14|0|0|0,0:2|0:2|0:2|0:2,0:0:0:0:
457,343,84004,5,4,2:2:0:0:
457,343,84636,5,4,2:0:0:0:
457,343,85267,6,0,L|463:294,7,32.5,8|0|0|0|0|0|0|0,0:0|0:0|0:0|0:0|0:0|0:0|0:0|0:0,0:0:0:0:
444,274,85899,2,0,B|411:270|411:270|398:263|398:263|351:261,1,65,10|2,0:0|0:0,0:0:0:0:
327,320,86215,2,0,L|283:324,1,32.5,10|10,0:0|0:0,0:0:0:0:
262,299,86373,2,0,L|223:301,1,32.5,10|10,0:0|0:0,0:0:0:0:
199,330,86530,6,0,B|139:327|139:327|123:314|123:314|44:312,1,143.000004364014,6|2,0:2|0:2,0:0:0:0:
21,235,87004,1,8,0:0:0:0:
52,155,87162,2,0,L|37:26,2,107.25000327301,2|2|10,0:2|0:2|0:2,0:0:0:0:
124,201,87794,2,0,L|109:330,2,107.25000327301,2|2|10,0:2|0:2|0:2,0:0:0:0:
183,138,88425,5,2,0:2:0:0:
257,180,88583,1,10,0:0:0:0:
319,121,88741,1,2,0:0:0:0:
401,145,88899,2,0,P|404:108|409:65,1,71.5000021820069,10|6,0:0|0:2,0:0:0:0:
471,190,89215,6,0,L|516:185,2,35.7500010910034,10|0|2,0:2|0:0|0:2,0:0:0:0:
455,274,89530,2,0,B|396:262|396:262|377:270|377:270|291:256,1,143.000004364014,10|10,0:2|0:2,0:0:0:0:
268,332,90004,1,0,0:0:0:0:
190,369,90162,1,8,0:2:0:0:
110,336,90320,6,0,B|87:305|87:305|101:252,1,71.5000021820069,6|10,0:2|0:2,0:0:0:0:
63,251,90557,1,2,0:2:0:0:
63,251,90636,2,0,B|86:220|86:220|72:167,1,71.5000021820069,0|10,0:0|0:2,0:0:0:0:
136,125,90952,5,6,0:2:0:0:
219,107,91109,1,8,0:0:0:0:
192,188,91267,2,0,B|206:201|206:201|211:181,4,35.7500010910034,4|4|4|4|4,0:0|0:0|0:0|0:0|0:0,0:0:0:0:
291,198,91741,6,0,B|329:189|329:189|339:193|339:193|372:188,1,71.5000021820069,6|0,0:2|0:2,0:0:0:0:
439,223,92057,1,8,0:2:0:0:
503,166,92215,2,0,B|465:157|465:157|455:161|455:161|422:156,1,71.5000021820069,2|8,0:2|0:0,0:0:0:0:
394,81,92530,2,0,B|356:72|356:72|346:76|346:76|313:71,1,71.5000021820069,2|8,0:2|0:0,0:0:0:0:
247,112,92846,6,0,L|237:-10,2,107.25000327301,2|2|10,0:2|0:2|0:2,0:0:0:0:
165,82,93478,1,2,0:2:0:0:
107,146,93636,1,10,0:0:0:0:
151,219,93794,1,2,0:0:0:0:
233,193,93952,2,0,P|276:200|321:206,1,71.5000021820069,10|6,0:0|0:2,0:0:0:0:
340,281,94267,6,0,L|381:280,3,35.7500010910034,2|2|2|2,0:0|0:0|0:0|0:0,0:0:0:0:
405,315,94583,2,0,B|417:248|417:248|412:231|412:231|425:152,1,143.000004364014,10|10,0:2|0:2,0:0:0:0:
484,115,95057,1,0,0:0:0:0:
460,32,95215,1,8,0:0:0:0:
374,39,95373,6,0,B|334:39|334:39|325:45|325:45|278:44,1,71.5000021820069,2|10,0:2|0:2,0:0:0:0:
284,12,95609,1,2,0:2:0:0:
284,12,95688,2,0,B|244:12|244:12|235:6|235:6|188:7,1,71.5000021820069,0|10,0:0|0:2,0:0:0:0:
139,49,96004,5,10,0:2:0:0:
139,49,96083,1,8,0:0:0:0:
139,49,96162,2,0,L|128:96,1,35.7500010910034,8|8,0:0|0:0,0:0:0:0:
96,110,96320,2,0,B|61:125|61:125|12:104,1,71.5000021820069,8|8,0:0|0:0,0:0:0:0:
24,205,96636,5,4,0:1:0:0:
256,192,96715,12,0,98846,0:0:0:0:
421,67,106741,6,0,L|340:56,1,65,6|0,0:1|0:0,0:0:0:0:
219,133,107215,2,0,L|283:124,1,65,2|0,0:0|0:0,0:0:0:0:
420,198,107688,2,0,L|339:187,1,65,2|0,0:0|0:0,0:0:0:0:
218,264,108162,2,0,L|282:255,1,65,2|0,0:0|0:0,0:0:0:0:
137,314,108636,6,0,L|130:370,2,32.5,10|8|8,0:0|0:0|0:0,0:0:0:0:
88,266,108952,1,10,0:0:0:0:
88,266,109030,1,8,0:0:0:0:
88,266,109109,1,8,0:0:0:0:
11,280,109267,6,0,B|14:313|14:313|12:321|12:321|16:359,1,65,2|0,0:0|0:0,0:0:0:0:
169,319,109741,2,0,B|172:286|172:286|170:278|170:278|174:240,1,65,2|0,0:0|0:0,0:0:0:0:
94,118,110215,2,0,B|97:151|97:151|95:159|95:159|99:197,1,65,2|0,0:0|0:0,0:0:0:0:
252,157,110689,2,0,B|255:124|255:124|253:116|253:116|257:78,1,65,2|0,0:0|0:0,0:0:0:0:
394,22,111162,1,10,0:0:0:0:
394,22,111241,1,8,0:0:0:0:
394,22,111320,1,8,0:0:0:0:
468,45,111478,2,0,L|507:39,2,32.5,10|8|8,0:0|0:0|0:0,0:0:0:0:
438,117,111794,6,0,B|407:100|407:100|355:108,1,65,6|0,0:1|0:0,0:0:0:0:
232,47,112267,2,0,B|215:78|215:78|223:130,1,65,2|0,0:0|0:0,0:0:0:0:
174,257,112741,2,0,B|205:274|205:274|257:266,1,65,2|0,0:0|0:0,0:0:0:0:
380,327,113215,2,0,B|397:296|397:296|389:244,1,65,2|0,0:0|0:0,0:0:0:0:
294,144,113688,6,0,L|301:99,2,32.5,10|8|8,0:0|0:0|0:0,0:0:0:0:
230,190,114004,1,10,0:0:0:0:
230,190,114083,1,8,0:0:0:0:
230,190,114162,1,8,0:0:0:0:
168,141,114320,6,0,B|134:135|134:135|127:136|127:136|86:129,1,65,2|0,0:0|0:0,0:0:0:0:
232,42,114794,2,0,B|266:36|266:36|273:37|273:37|314:30,1,65,2|0,0:0|0:0,0:0:0:0:
372,168,115267,2,0,B|338:162|338:162|331:163|331:163|290:156,1,65,2|0,0:0|0:0,0:0:0:0:
436,69,115741,2,0,B|470:63|470:63|477:64|477:64|518:57,1,65,2|0,0:0|0:0,0:0:0:0:
449,208,116215,6,0,B|429:208|429:208|443:197,2,32.5,6|4|4,0:0|0:0|0:0,0:0:0:0:
473,282,116530,2,0,B|493:282|493:282|479:271,2,32.5,6|4|4,0:0|0:0|0:0,0:0:0:0:
402,336,116846,6,0,L|398:304,2,32.5,2|0|0,0:0|0:0|0:0,0:0:0:0:
325,347,117162,2,0,L|319:311,2,32.5,2|0|0,0:0|0:0|0:0,0:0:0:0:
247,355,117478,2,0,B|231:255|231:255|324:238,1,195,10|6,0:0|0:0,0:0:0:0:
157,308,118267,6,0,L|120:313,1,32.5,2|0,0:0|0:0,0:0:0:0:
146,230,118504,2,0,L|90:236,2,32.5,2|0|0,0:0|0:0|0:0,0:0:0:0:
141,151,118820,2,0,B|137:101|137:101|134:96|134:96|131:53|131:53|171:49|171:49|179:53|179:53|221:49,1,178.75,10|6,0:0|0:0,0:0:0:0:
284,78,119373,6,0,L|288:110,2,32.5,2|0|0,0:0|0:0|0:0,0:0:0:0:
361,67,119689,2,0,L|367:103,2,32.5,2|0|0,0:0|0:0|0:0,0:0:0:0:
439,59,120005,2,0,B|452:158|452:158|350:179,1,195,10|6,0:0|0:0,0:0:0:0:
474,283,120794,6,0,L|470:321,1,32.5,2|0,0:0|0:0,0:0:0:0:
392,277,121031,2,0,L|388:320,1,32.5,2|0,0:0|0:0,0:0:0:0:
322,348,121267,5,2,0:0:0:0:
168,362,121583,1,2,0:0:0:0:
10,371,121899,2,0,B|100:363|63:268|184:267,1,208,4|4,3:1|0:3,0:0:0:0:
221,149,122846,5,4,0:3:0:0:
98,127,123162,2,0,B|50:121|54:77|1:66,1,104,4|0,0:3|0:0,0:0:0:0:
134,36,123794,6,0,B|197:22|197:22|223:32|223:32|307:15,1,156,12|0,0:1|0:0,0:0:0:0:
338,83,124425,6,0,B|453:83|416:178|506:186,2,208,2|2|4,3:0|3:0|0:3,0:0:0:0:
289,266,126162,1,8,0:0:0:0:
289,266,126320,2,0,B|343:280|343:280|367:234,1,104,2|2,0:3|0:3,0:0:0:0:
264,162,126952,6,0,P|191:212|206:337,1,208,4|4,3:1|0:3,0:0:0:0:
73,352,127899,1,4,0:3:0:0:
1,249,128215,2,0,P|42:218|51:165,1,104,4|0,0:3|0:0,0:0:0:0:
22,47,128846,6,0,L|192:29,1,156,12|0,0:1|0:0,0:0:0:0:
240,77,129478,1,0,3:0:0:0:
256,192,129557,12,4,131373,0:0:0:0:
222,153,132004,6,0,L|215:207,1,52,6|0,0:2|0:2,0:0:0:0:
279,204,132320,2,0,L|334:212,1,52,0|0,0:2|0:2,0:0:0:0:
336,148,132636,2,0,B|355:122|355:122|343:94,1,52,12|0,0:2|0:2,0:0:0:0:
278,101,132952,2,0,L|224:94,1,52,2|0,0:2|0:2,0:0:0:0:
179,53,133267,5,6,0:2:0:0:
156,111,133425,1,0,0:2:0:0:
180,169,133583,1,0,0:2:0:0:
153,225,133741,1,0,0:2:0:0:
206,293,133899,6,0,L|198:353,3,52,14|0|0|0,0:2|0:2|0:2|0:2,0:0:0:0:
278,248,134530,6,0,L|270:188,3,52,6|0|0|0,0:2|0:2|0:2|0:2,0:0:0:0:
340,301,135162,6,0,L|332:361,3,52,14|0|0|0,0:2|0:2|0:2|0:2,0:0:0:0:
414,271,135794,6,0,P|420:243|422:216,1,52,6|0,0:2|0:2,0:0:0:0:
376,178,136109,2,0,P|378:143|386:111,1,52,0|0,0:2|0:2,0:0:0:0:
407,55,136425,5,12,0:2:0:0:
344,48,136583,1,8,0:0:0:0:
281,44,136741,2,0,B|281:70|281:70|279:76|279:76|280:100,1,52,0|8,0:0|0:0,0:0:0:0:
211,143,137057,6,0,B|189:129|189:129|152:135,1,52,6|0,0:2|0:2,0:0:0:0:
108,162,137373,2,0,B|82:166|82:166|60:152,1,52,0|0,0:2|0:2,0:0:0:0:
56,237,137688,2,0,B|78:223|78:223|115:229,1,52,12|0,0:2|0:2,0:0:0:0:
159,256,138004,2,0,B|184:260|184:260|206:246,1,52,2|0,0:2|0:2,0:0:0:0:
257,282,138320,5,6,0:2:0:0:
318,271,138478,1,0,0:2:0:0:
344,215,138636,1,0,0:2:0:0:
327,155,138794,1,0,0:2:0:0:
251,118,138952,6,0,L|245:45,3,52,14|0|0|0,0:2|0:2|0:2|0:2,0:0:0:0:
307,10,139583,5,4,2:2:0:0:
307,10,140215,5,4,2:0:0:0:
307,10,140846,6,0,L|348:18,3,32.5,8|0|0|0,0:0|0:0|0:0|0:0,0:0:0:0:
372,54,141162,2,0,L|413:62,3,32.5,8|0|0|0,0:0|0:0|0:0|0:0,0:0:0:0:
431,102,141478,2,0,B|427:135|427:135|420:148|420:148|418:195,1,65,10|2,0:0|0:0,0:0:0:0:
361,218,141794,2,0,L|357:256,1,32.5,10|10,0:0|0:0,0:0:0:0:
382,281,141952,2,0,L|378:320,1,32.5,10|10,0:0|0:0,0:0:0:0:
344,338,142109,6,0,B|317:330|284:335|284:335|249:296|258:238,1,143.000004364014,6|2,0:2|0:2,0:0:0:0:
195,197,142583,1,8,0:0:0:0:
116,162,142741,2,0,B|77:152|77:152|-13:177,2,107.25000327301,2|2|10,0:2|0:2|0:2,0:0:0:0:
120,75,143373,2,0,B|81:85|81:85|-9:60,2,107.25000327301,2|2|10,0:2|0:2|0:2,0:0:0:0:
173,7,144004,5,2,0:2:0:0:
256,27,144162,1,10,0:0:0:0:
236,110,144320,1,2,0:0:0:0:
319,128,144478,2,0,P|355:121|398:115,1,71.5000021820069,10|6,0:0|0:2,0:0:0:0:
454,59,144794,6,0,L|448:14,2,35.7500010910034,10|0|2,0:2|0:0|0:2,0:0:0:0:
503,129,145109,2,0,B|491:188|491:188|499:207|499:207|485:293,1,143.000004364014,10|10,0:2|0:2,0:0:0:0:
403,280,145583,1,0,0:0:0:0:
317,288,145741,1,8,0:2:0:0:
231,288,145899,6,0,B|192:282|192:282|165:234,1,71.5000021820069,6|10,0:2|0:2,0:0:0:0:
193,216,146136,1,2,0:2:0:0:
193,216,146215,2,0,B|231:210|231:210|258:162,1,71.5000021820069,0|10,0:0|0:2,0:0:0:0:
331,160,146531,5,6,0:2:0:0:
349,77,146688,1,8,0:0:0:0:
268,104,146846,2,0,B|255:90|255:90|275:85,4,35.7500010910034,4|4|4|4|4,0:0|0:0|0:0|0:0|0:0,0:0:0:0:
212,34,147320,6,0,B|174:43|174:43|164:39|164:39|131:44,1,71.5000021820069,6|0,0:2|0:2,0:0:0:0:
64,9,147636,1,8,0:2:0:0:
0,66,147794,2,0,B|-8:104|-8:104|-4:113|-4:113|-9:147,1,71.5000021820069,2|8,0:2|0:0,0:0:0:0:
42,204,148109,2,0,B|33:241|33:241|37:251|37:251|32:284,1,71.5000021820069,2|8,0:2|0:0,0:0:0:0:
106,320,148425,6,0,L|-16:310,2,107.25000327301,2|2|10,0:2|0:2|0:2,0:0:0:0:
180,276,149057,1,2,0:2:0:0:
256,315,149215,1,10,0:0:0:0:
328,269,149373,1,2,0:0:0:0:
401,313,149531,2,0,P|444:306|489:300,1,71.5000021820069,10|6,0:0|0:2,0:0:0:0:
494,219,149846,6,0,L|476:171,3,35.7500010910034,2|2|2|2,0:0|0:0|0:0|0:0,0:0:0:0:
506,149,150162,2,0,B|439:137|439:137|422:142|422:142|343:129,1,143.000004364014,10|10,0:2|0:2,0:0:0:0:
289,90,150636,1,0,0:0:0:0:
218,138,150794,1,8,0:0:0:0:
240,220,150952,2,0,B|240:260|240:260|246:269|246:269|245:316,1,71.5000021820069,6|8,0:2|0:0,0:0:0:0:
171,333,151267,6,0,L|131:321,3,35.7500010910034,8|8|0|0,0:0|0:0|0:0|0:0,0:0:0:0:
95,334,151583,2,0,L|55:322,3,35.7500010910034,8|8|0|0,0:0|0:0|0:0|0:0,0:0:0:0:
35,288,151899,1,4,0:0:0:0:
35,288,151978,1,4,0:0:0:0:
35,288,152057,2,0,L|-7:274,2,35.7500010910034,4|4|4,0:0|0:0|0:1,0:0:0:0:
256,192,152294,12,0,154741,0:0:0:0:
168,154,162320,5,4,2:1:0:0:
168,154,162478,2,0,P|171:119|172:91,2,52,2|0|0,3:2|3:0|3:0,0:0:0:0:
218,191,162952,2,0,P|219:216|221:242,1,52,10|0,0:2|3:0,0:0:0:0:
181,290,163267,1,0,0:0:0:0:
181,290,163425,1,2,3:2:0:0:
303,313,163741,6,0,P|306:348|307:376,2,52,2|0|0,3:2|3:0|3:0,0:0:0:0:
352,273,164215,2,0,P|353:247|355:221,1,52,10|0,0:2|3:0,0:0:0:0:
312,183,164530,1,0,0:0:0:0:
312,183,164688,1,2,3:2:0:0:
383,80,165004,6,0,P|407:83|446:94,2,52,2|0|2,3:2|3:0|3:0,0:0:0:0:
257,72,165636,6,0,P|247:49|237:10,2,52,2|0|2,3:2|0:0|3:2,0:0:0:0:
312,183,166267,6,0,P|297:202|268:230,2,52,2|0|0,3:2|3:0|3:0,0:0:0:0:
374,183,166741,1,10,0:0:0:0:
374,183,166820,1,0,0:0:0:0:
374,183,166899,2,0,P|389:206|426:236,1,52,0|0,3:0|0:0,0:0:0:0:
468,217,167215,1,10,0:0:0:0:
380,306,167530,6,0,P|394:329|424:353,2,52,2|0|0,3:2|3:0|3:0,0:0:0:0:
319,306,168004,1,10,0:2:0:0:
319,306,168083,1,0,0:0:0:0:
319,306,168162,2,0,P|304:329|267:359,1,52,0|0,3:0|0:0,0:0:0:0:
225,340,168478,2,0,P|211:316|207:277,1,52,2|0,3:2|0:0,0:0:0:0:
143,286,168794,2,0,P|127:316|100:340,1,52,2|2,3:2|3:2,0:0:0:0:
52,329,169109,1,2,3:2:0:0:
80,207,169425,6,0,P|53:204|11:191,2,52,2|0|0,3:2|0:0|3:0,0:0:0:0:
120,159,169899,1,6,0:0:0:0:
120,159,170057,2,0,P|151:163|184:174,2,52,0|0|0,0:0|3:0|3:0,0:0:0:0:
75,115,170530,2,0,P|69:82|77:45,1,52,10|0,0:0|3:0,0:0:0:0:
118,22,170846,2,0,P|149:25|186:9,1,52,0|0,0:0|3:0,0:0:0:0:
220,55,171162,6,0,L|227:118,1,52,2|0,0:0|3:0,0:0:0:0:
280,136,171478,2,0,L|288:200,1,52,0|0,3:0|3:0,0:0:0:0:
242,232,171794,5,10,0:0:0:0:
213,287,171952,1,4,3:3:0:0:
236,344,172109,1,4,0:3:0:0:
290,374,172267,2,0,B|320:370|320:370|329:364|329:364|355:362,1,52,0|4,3:0|0:1,0:0:0:0:
404,334,172583,6,0,P|438:342|470:343,1,58.4999982147217,2|0,0:2|0:0,0:0:0:0:
490,278,172899,2,0,L|480:201,1,58.4999982147217,2|8,0:2|0:0,0:0:0:0:
414,200,173215,6,0,P|403:166|388:138,1,58.4999982147217,2|0,0:2|0:0,0:0:0:0:
323,153,173531,2,0,L|261:200,1,58.4999982147217,2|0,0:2|0:0,0:0:0:0:
294,256,173846,6,0,P|270:281|253:308,1,58.4999982147217,2|0,0:2|0:0,0:0:0:0:
298,358,174162,2,0,L|369:387,1,58.4999982147217,2|8,0:2|0:0,0:0:0:0:
227,363,174478,5,2,0:2:0:0:
158,380,174636,1,0,0:0:0:0:
100,339,174794,1,0,0:0:0:0:
68,262,174952,6,0,L|55:187,1,58.4999982147217,6|0,0:2|0:0,0:0:0:0:
5,157,175267,2,0,L|72:121,1,58.4999982147217
82,63,175583,2,0,L|136:116,1,58.4999982147217,8|0,0:0|0:0,0:0:0:0:
196,107,175899,2,0,L|162:175,1,58.4999982147217
221,207,176215,1,0,0:0:0:0:
280,169,176373,6,0,L|263:93,2,58.4999982147217
338,207,176846,2,0,L|330:268,1,58.4999982147217,10|0,0:2|0:0,0:0:0:0:
385,309,177162,2,0,L|393:370,1,58.4999982147217
469,332,177478,6,0,B|474:303|474:303|471:293|471:293|476:251,1,58.4999982147217,6|0,0:2|0:0,0:0:0:0:
422,233,177794,1,8,0:0:0:0:
422,233,177952,2,0,B|417:204|417:204|420:194|420:194|415:152,1,58.4999982147217,2|0,0:2|0:0,0:0:0:0:
444,110,178267,2,0,B|421:128|421:128|411:131|411:131|377:156,1,58.4999982147217,2|8,0:2|0:0,0:0:0:0:
325,148,178583,2,0,B|352:158|352:158|359:165|359:165|398:182,1,58.4999982147217,2|0,0:2|0:0,0:0:0:0:
339,233,178899,5,2,0:2:0:0:
269,245,179057,1,10,0:2:0:0:
224,190,179215,2,0,L|229:122,1,58.4999982147217,2|0,0:2|0:0,0:0:0:0:
171,89,179530,2,0,L|180:16,1,58.4999982147217,2|8,0:2|0:0,0:0:0:0:
112,3,179846,1,2,0:2:0:0:
30,20,180004,5,2,0:2:0:0:
2,84,180162,1,0,0:0:0:0:
46,138,180320,2,0,B|79:136|79:136|85:132|85:132|113:132,1,58.4999982147217,10|0,0:2|0:0,0:0:0:0:
103,202,180636,1,2,0:2:0:0:
131,266,180794,1,0,0:0:0:0:
87,320,180952,2,0,B|54:318|54:318|48:314|48:314|20:314,1,58.4999982147217,10|0,0:2|0:0,0:0:0:0:
156,353,181267,6,0,L|161:387,3,29.2499991073609,4|4|4|4,0:0|0:0|0:0|0:0,0:0:0:0:
201,333,181583,2,0,L|206:299,3,29.2499991073609,4|4|4|4,0:0|0:0|0:0|0:0,0:0:0:0:
248,354,181899,2,0,L|253:388,3,29.2499991073609,4|4|4|4,0:0|0:0|0:0|0:0,0:0:0:0:
293,334,182215,2,0,L|298:300,3,29.2499991073609,4|4|4|4,0:0|0:0|0:0|0:0,0:0:0:0:
333,363,182530,1,4,0:0:0:0:
410,358,182688,6,0,L|491:367,2,65,10|0|8,0:2|0:0|0:0,0:0:0:0:
371,289,183162,2,0,L|291:291,1,65,2|10,0:2|0:2,0:0:0:0:
252,233,183478,1,2,0:2:0:0:
218,162,183636,1,8,0:0:0:0:
261,97,183794,2,0,B|320:86|320:86|358:111|358:111|410:104|410:104|441:130|441:130|507:117,2,260,2|0|2,0:2|0:0|0:0,0:0:0:0:
193,57,185215,6,0,L|185:-16,2,65,10|0|8,0:2|0:0|0:2,0:0:0:0:
120,86,185688,2,0,L|112:150,1,65,2|10,0:2|0:2,0:0:0:0:
41,183,186004,1,2,0:2:0:0:
17,257,186162,1,8,0:0:0:0:
67,316,186320,2,0,B|110:297|110:297|149:310|149:310|188:273|264:284,1,195,2|8,0:2|0:0,0:0:0:0:
281,210,186952,2,0,B|284:169|284:169|254:142,1,65,2|8,0:2|0:0,0:0:0:0:
310,89,187267,2,0,B|307:48|307:48|337:21,1,65,2|8,0:2|0:0,0:0:0:0:
398,59,187583,6,0,B|431:44|431:44|511:91|468:183,1,195,6|8,0:2|0:0,0:0:0:0:
411,233,188215,1,0,0:0:0:0:
333,236,188373,1,10,0:2:0:0:
255,237,188530,2,0,P|271:116|92:53,1,325,2|8,0:2|0:0,0:0:0:0:
93,122,189478,2,0,B|43:124|43:124|36:132|36:132|-8:136,2,97.5,2|2|10,0:2|0:2|0:2,0:0:0:0:
142,182,190109,6,0,L|188:190,4,32.5,2|0|8|0|0,0:2|0:0|0:0|0:0|0:0,0:0:0:0:
81,232,190583,1,10,0:2:0:0:
81,232,190662,1,0,0:0:0:0:
81,232,190741,2,0,B|59:262|59:262|64:314,1,65,0|8,0:0|0:0,0:0:0:0:
124,349,191057,2,0,L|212:338,1,65,2|10,0:2|0:2,0:0:0:0:
262,367,191373,5,2,0:2:0:0:
274,290,191530,1,8,0:0:0:0:
231,224,191688,1,0,0:0:0:0:
245,147,191846,2,0,B|377:168|377:168|440:46,1,260,10|8,0:2|0:0,0:0:0:0:
356,54,192636,6,0,B|312:58|312:58|303:53|303:53|233:60,1,86.6666666666667,6|0,0:2|0:0,0:0:0:0:
233,93,192952,2,0,L|238:140,2,43.3333333333333
184,73,193267,2,0,B|140:69|140:69|131:74|131:74|61:67,1,86.6666666666667,2|0,0:2|0:0,0:0:0:0:
50,50,193583,2,0,L|44:7,2,43.3333333333333
10,84,193899,1,2,0:2:0:0:
6,187,194109,5,0,0:0:0:0:
6,187,194215,2,0,B|9:212|9:212|12:218|12:218|16:246,2,43.3333333333333
44,152,194530,2,0,B|20:142|20:142|14:141|14:141|-12:131,2,43.3333333333333,2|0|0,0:2|0:0|0:0,0:0:0:0:
59,201,194846,2,0,B|79:185|79:185|82:180|82:180|105:162,2,43.3333333333333,2|2|2,0:2|0:2|0:2,0:0:0:0:
13,229,195162,6,0,B|4:290|4:290|16:316,1,86.6666666666667,6|0,0:2|0:0,0:0:0:0:
63,331,195478,2,0,L|64:378,2,43.3333333333333
110,309,195794,2,0,B|120:286|120:286|111:225,1,86.6666666666667,2|0,0:2|0:0,0:0:0:0:
145,185,196109,2,0,L|138:136,2,43.3333333333333
194,203,196425,1,2,0:2:0:0:
250,296,196636,5,0,0:0:0:0:
250,296,196741,2,0,L|182:286,2,43.3333333333333
272,248,197057,2,0,L|340:238,2,43.3333333333333,2|2|2,0:2|0:2|0:2,0:0:0:0:
249,200,197373,2,0,L|181:190,2,43.3333333333333,2|0|0,0:2|0:0|0:0,0:0:0:0:
264,153,197688,5,6,0:2:0:0:
264,153,197846,2,0,B|297:153|297:153|306:148|306:148|342:146,1,65,8|0,0:0|0:0,0:0:0:0:
365,215,198162,2,0,B|388:238|388:238|398:241|398:241|425:265,1,65,8|0,0:0|0:0,0:0:0:0:
369,321,198478,1,8,0:0:0:0:
369,321,198557,1,0,0:0:0:0:
369,321,198636,2,0,B|369:354|369:354|374:363|374:363|376:399,1,65,2|8,0:2|0:0,0:0:0:0:
253,350,198952,5,2,0:2:0:0:
253,350,199110,2,0,B|220:350|220:350|211:355|211:355|175:357,1,65,8|0,0:0|0:0,0:0:0:0:
171,279,199426,2,0,B|147:255|147:255|137:252|137:252|110:228,1,65,8|0,0:0|0:0,0:0:0:0:
173,179,199741,2,0,B|173:146|173:146|168:137|168:137|166:101,1,65,8|0,0:0|0:0,0:0:0:0:
236,78,200057,5,10,0:2:0:0:
236,78,200136,1,2,0:2:0:0:
236,78,200215,2,0,L|286:88,3,32.5,2|0|8|0,0:2|0:0|0:0|0:0,0:0:0:0:
304,31,200530,2,0,L|297:73,3,32.5,2|0|8|0,0:2|0:0|0:0|0:0,0:0:0:0:
352,102,200846,2,0,L|320:95,3,32.5,2|0|8|0,0:2|0:0|0:0|0:0,0:0:0:0:
284,152,201162,2,0,L|289:119,3,32.5,2|0|8|0,0:2|0:0|0:0|0:0,0:0:0:0:
248,184,201478,5,2,0:2:0:0:
250,262,201636,1,8,0:0:0:0:
323,289,201794,2,0,B|358:284|358:284|364:278|364:278|396:274,1,65,8|4,0:0|0:1,0:0:0:0:
409,311,202030,1,8,0:0:0:0:
409,311,202109,2,0,L|406:353,6,32.5,12|4|12|4|4|4|12,0:0|0:0|0:0|0:0|0:0|0:0|0:0,0:0:0:0:
473,266,202741,5,6,0:1:0:0:
256,192,202820,12,6,205267,0:1:0:0:
350,39,212688,5,10,0:0:0:0:
350,39,212767,1,8,0:0:0:0:
350,39,212846,2,0,B|413:31|413:31|466:93,1,130,6|0,0:2|0:0,0:0:0:0:
464,159,213320,1,8,0:0:0:0:
407,213,213478,1,0,0:0:0:0:
334,184,213636,2,0,P|340:150|345:119,1,65,8|0,0:0|0:0,0:0:0:0:
278,77,213952,1,8,0:0:0:0:
198,40,214109,6,0,B|137:38|137:38|126:44|126:44|69:52,1,130,2|0,0:2|0:0,0:0:0:0:
53,89,214504,1,0,0:0:0:0:
53,89,214583,2,0,B|21:150|21:150|56:225,1,130,10|8,0:2|0:0,0:0:0:0:
27,281,215057,2,0,L|112:264,1,65,2|8,0:2|0:0,0:0:0:0:
146,340,215373,6,0,L|293:360,1,130,6|0,0:2|0:0,0:0:0:0:
297,316,215767,1,0,0:0:0:0:
297,316,215846,2,0,B|306:274|306:274|288:235,1,65,8|0,0:0|0:0,0:0:0:0:
231,210,216162,2,0,B|222:168|222:168|240:129,1,65,8|0,0:0|0:0,0:0:0:0:
190,81,216478,1,8,0:0:0:0:
246,26,216636,6,0,P|296:3|388:21,1,130,2|2,0:2|0:0,0:0:0:0:
384,46,217030,1,2,0:0:0:0:
384,46,217109,2,0,P|418:64|431:170,1,130,10|8,0:2|0:0,0:0:0:0:
396,211,217583,2,0,L|409:289,1,65,2|8,0:2|0:0,0:0:0:0:
341,319,217899,6,0,B|268:327|292:262|200:273,1,130,6|0,0:2|0:0,0:0:0:0:
147,285,218373,1,8,0:0:0:0:
85,237,218530,2,0,L|100:157,1,65,0|8,0:0|0:0,0:0:0:0:
37,122,218846,2,0,L|27:48,1,65,0|8,0:0|0:0,0:0:0:0:
104,38,219162,6,0,L|192:27,1,65,0|8,0:0|0:0,0:0:0:0:
233,90,219478,1,0,0:0:0:0:
233,90,219557,1,0,0:0:0:0:
233,90,219636,2,0,B|249:121|249:121|229:151,1,65,8|0,0:0|0:0,0:0:0:0:
298,206,219952,1,8,0:0:0:0:
298,206,220030,1,8,0:0:0:0:
298,206,220109,2,0,L|351:196,3,32.5,8|8|8|8,0:0|0:0|0:0|0:0,0:0:0:0:
358,227,220425,5,14,0:0:0:0:
351,304,220583,2,0,B|345:337|345:337|350:346|350:346|344:394,1,65,4|0,0:0|0:0,0:0:0:0:
257,335,220899,5,14,0:0:0:0:
250,258,221057,2,0,B|244:225|244:225|249:216|249:216|243:168,1,65,4|4,0:0|0:0,0:0:0:0:
144,182,221373,5,14,0:0:0:0:
67,169,221530,1,14,0:0:0:0:
49,84,221688,6,0,L|102:93,3,32.5,10|10|10|10,0:0|0:0|0:0|0:0,0:0:0:0:
128,65,222004,1,10,0:0:0:0:
128,65,222083,1,10,0:0:0:0:
128,65,222162,2,0,L|187:60,2,32.5,10|10|10,0:0|0:0|0:0,0:0:0:0:
313,54,222952,6,0,B|373:57|373:57|389:70|389:70|468:72,1,143.000004364014,6|2,0:2|0:2,0:0:0:0:
491,149,223426,1,8,0:0:0:0:
460,229,223584,2,0,L|475:358,2,107.25000327301,2|2|10,0:2|0:2|0:2,0:0:0:0:
388,183,224216,2,0,L|403:54,2,107.25000327301,2|2|10,0:2|0:2|0:2,0:0:0:0:
329,246,224847,5,2,0:2:0:0:
254,289,225005,1,10,0:0:0:0:
173,260,225163,1,2,0:0:0:0:
129,186,225321,2,0,P|126:149|121:106,1,71.5000021820069,10|6,0:0|0:2,0:0:0:0:
38,92,225637,6,0,L|-7:97,2,35.7500010910034,10|0|2,0:2|0:0|0:2,0:0:0:0:
92,25,225952,2,0,B|151:37|151:37|170:29|170:29|256:43,1,143.000004364014,10|10,0:2|0:2,0:0:0:0:
301,0,226426,1,0,0:0:0:0:
305,85,226584,1,8,0:2:0:0:
305,170,226742,6,0,B|274:193|274:193|221:179,1,71.5000021820069,6|10,0:2|0:2,0:0:0:0:
220,217,226979,1,2,0:2:0:0:
220,217,227058,2,0,B|189:194|189:194|136:208,1,71.5000021820069,0|10,0:0|0:2,0:0:0:0:
77,236,227374,5,6,0:2:0:0:
59,319,227531,1,8,0:0:0:0:
140,292,227689,2,0,B|153:306|153:306|133:311,4,35.7500010910034,4|4|4|4|4,0:0|0:0|0:0|0:0|0:0,0:0:0:0:
194,359,228163,6,0,B|232:368|232:368|242:364|242:364|275:369,1,71.5000021820069,6|0,0:2|0:2,0:0:0:0:
337,321,228479,1,8,0:2:0:0:
283,253,228637,2,0,B|272:214|272:214|293:172,1,71.5000021820069,2|8,0:2|0:0,0:0:0:0:
208,148,228952,2,0,B|197:109|197:109|218:67,1,71.5000021820069,2|8,0:2|0:0,0:0:0:0:
267,15,229268,6,0,L|145:25,2,107.25000327301,2|2|10,0:2|0:2|0:2,0:0:0:0:
353,14,229900,1,2,0:2:0:0:
431,49,230058,1,10,0:0:0:0:
451,132,230216,1,2,0:0:0:0:
413,209,230374,2,0,P|370:216|325:222,1,71.5000021820069,10|6,0:0|0:2,0:0:0:0:
268,175,230689,6,0,L|223:172,3,35.7500010910034,6|2|2|2,0:2|0:0|0:0|0:0,0:0:0:0:
202,204,231005,2,0,B|135:216|135:216|118:211|118:211|38:224,1,143.000004364014,10|10,0:2|0:2,0:0:0:0:
45,305,231479,1,0,0:0:0:0:
90,377,231637,1,8,0:0:0:0:
166,339,231794,6,0,L|256:324,1,71.5000021820069,6|8,0:2|0:0,0:0:0:0:
266,357,232030,1,2,0:2:0:0:
266,357,232109,2,0,L|356:372,1,71.5000021820069,0|10,0:0|0:2,0:0:0:0:
419,343,232425,5,2,0:2:0:0:
422,257,232583,2,0,L|419:216,5,35.7500010910034,8|8|8|8|8|8,0:0|0:0|0:0|0:0|0:0|0:0,0:0:0:0:
452,193,233057,1,6,0:2:0:0:
311,333,238109,6,0,B|276:333|276:333|269:338|269:338|235:342,1,71.5000021820069,2|8,0:2|0:0,0:0:0:0:
211,309,238346,1,2,0:2:0:0:
211,309,238425,2,0,B|174:301|174:301|165:303|165:303|119:295,2,71.5000021820069,0|10|0,0:0|0:2|0:0,0:0:0:0:
274,250,238899,6,0,L|278:201,1,35.7500010910034,10|0,0:2|0:0,0:0:0:0:
244,185,239057,2,0,L|240:136,1,35.7500010910034,2|0,0:2|0:0,0:0:0:0:
270,117,239215,2,0,L|274:68,1,35.7500010910034,10|0,0:2|0:0,0:0:0:0:
240,52,239373,6,0,B|275:32|275:32|326:37,1,71.5000021820069,2|8,0:2|0:0,0:0:0:0:
342,12,239609,1,2,0:2:0:0:
342,12,239688,2,0,B|377:25|377:25|405:83,1,71.5000021820069,0|10,0:0|0:2,0:0:0:0:
464,102,240004,6,0,L|456:188,1,71.5000021820069,2|10,0:2|0:2,0:0:0:0:
485,264,240320,1,2,0:2:0:0:
485,264,240399,1,2,0:2:0:0:
485,264,240478,1,10,0:2:0:0:
420,321,240636,6,0,B|386:309|386:309|376:314|376:314|321:302,1,71.5000021820069,2|8,0:2|0:0,0:0:0:0:
329,278,240873,1,2,0:2:0:0:
329,278,240952,2,0,B|317:244|317:244|322:234|322:234|310:179,2,71.5000021820069,0|10|0,0:0|0:2|0:0,0:0:0:0:
268,339,241425,6,0,L|221:330,1,35.7500010910034,10|0,0:2|0:0,0:0:0:0:
192,348,241583,2,0,L|145:355,1,35.7500010910034,2|0,0:2|0:0,0:0:0:0:
116,336,241741,2,0,L|71:328,1,35.7500010910034,10|0,0:2|0:0,0:0:0:0:
58,292,241899,6,0,B|37:256|37:256|47:215,1,71.5000021820069,2|8,0:2|0:0,0:0:0:0:
28,186,242136,1,2,0:2:0:0:
28,186,242215,2,0,B|69:185|69:185|100:214,1,71.5000021820069,0|10,0:0|0:0,0:0:0:0:
134,210,242452,1,10,0:0:0:0:
134,210,242530,1,4,0:1:0:0:
256,192,242609,12,0,245057,0:0:0:0:
213,269,245688,5,4,0:1:0:0:
296,296,245846,1,10,0:2:0:0:
296,296,246004,2,0,B|314:264|314:264|309:228,1,65,2|10,0:2|0:2,0:0:0:0:
227,208,246320,2,0,B|209:240|209:240|214:276,1,65,2|10,0:2|0:2,0:0:0:0:
158,324,246635,1,2,0:2:0:0:
88,288,246793,2,0,P|79:208|72:145,1,130,10|10,0:2|0:2,0:0:0:0:
95,70,247267,5,2,0:2:0:0:
95,70,247425,2,0,P|123:51|169:46,1,65,8|0,0:0|0:0,0:0:0:0:
227,22,247741,2,0,P|231:60|211:98,1,65,8|0,0:0|0:0,0:0:0:0:
208,161,248057,2,0,P|165:144|151:108,1,65,8|0,0:0|0:0,0:0:0:0:
97,182,248372,6,0,B|67:179|67:179|60:176|60:176|26:172,2,65,10|2|10,0:2|0:2|0:2,0:0:0:0:
84,259,248846,1,2,0:2:0:0:
125,324,249004,1,10,0:2:0:0:
202,331,249162,2,0,B|262:317|262:317|274:319|274:319|357:302,1,130,2|0,0:2|0:0,0:0:0:0:
379,237,249635,5,10,0:2:0:0:
322,172,249794,2,0,B|266:160|266:160|255:162|255:162|194:149,1,130,2|0,0:2|0:0,0:0:0:0:
145,88,250267,1,12,0:2:0:0:
80,131,250425,2,0,B|80:151|80:151|99:157,2,32.5,0|0|12,0:0|0:0|0:2,0:0:0:0:
224,72,250899,6,0,L|306:61,1,65,10|2,0:2|0:2,0:0:0:0:
350,14,251214,1,10,0:2:0:0:
405,69,251373,2,0,L|469:77,1,65,2|10,0:2|0:2,0:0:0:0:
502,148,251688,1,2,0:2:0:0:
460,214,251846,2,0,P|452:278|380:311,1,130,10|10,0:2|0:2,0:0:0:0:
323,356,252319,5,2,0:2:0:0:
323,356,252478,2,0,L|314:286,1,65,8|0,0:0|0:0,0:0:0:0:
239,269,252794,2,0,L|248:199,1,65,8|0,0:0|0:0,0:0:0:0:
321,178,253109,2,0,L|312:108,1,65,8|0,0:0|0:0,0:0:0:0:
359,50,253425,6,0,B|399:50|399:50|425:75,2,65,10|2|10,0:2|0:2|0:2,0:0:0:0:
301,0,253898,1,2,0:2:0:0:
222,0,254056,1,10,0:2:0:0:
180,66,254214,2,0,B|186:127|186:127|194:136|194:136|201:216,1,130,2|6,0:2|0:1,0:0:0:0:
132,233,254688,6,0,B|129:270,1,32.5,6|4,0:0|0:0,0:0:0:0:
105,297,254846,2,0,B|140:317|140:317|177:299,1,65,6|6,0:0|0:0,0:0:0:0:
237,328,255162,6,0,B|239:360,4,32.5,4|4|0|0|8,0:0|0:0|0:0|0:0|0:0,0:0:0:0:
312,296,255636,5,8,0:0:0:0:
312,296,255715,1,8,0:0:0:0:
312,296,255794,2,0,L|430:280,2,97.5,6|0|10,0:2|0:0|0:2,0:0:0:0:
275,226,256425,1,0,0:0:0:0:
295,154,256583,2,0,P|308:135|331:117,1,32.5,10|2,0:2|0:2,0:0:0:0:
355,118,256741,2,0,L|431:107,1,65,2|8,0:2|0:0,0:0:0:0:
385,32,257057,5,2,0:2:0:0:
385,32,257136,1,2,0:2:0:0:
385,32,257215,2,0,B|324:28|324:28|308:18|308:18|242:20,1,130,10|10,0:2|0:2,0:0:0:0:
180,59,257688,6,0,L|135:67,3,32.5,2|0|8|0,0:2|0:0|0:0|0:0,0:0:0:0:
115,87,258004,2,0,L|99:129,3,32.5,2|0|8|0,0:2|0:0|0:0|0:0,0:0:0:0:
108,156,258320,2,0,L|137:190,3,32.5,2|0|8|0,0:2|0:0|0:0|0:0,0:0:0:0:
165,198,258636,2,0,L|210:190,3,32.5,2|0|8|0,0:2|0:0|0:0|0:0,0:0:0:0:
229,169,258952,2,0,L|244:126,3,32.5,2|0|8|0,0:2|0:0|0:0|0:0,0:0:0:0:
237,99,259268,2,0,L|207:64,3,32.5,2|0|8|0,0:2|0:0|0:0|0:0,0:0:0:0:
248,53,259583,6,0,B|275:48|275:48|284:42|284:42|324:44,1,65,2|10,0:2|0:2,0:0:0:0:
382,9,259899,1,2,0:2:0:0:
382,9,259978,1,2,0:2:0:0:
382,9,260057,1,10,0:2:0:0:
457,25,260215,2,0,B|475:21|475:21|517:36|516:85|516:85|465:116|486:176,1,195,2|8,0:2|0:0,0:0:0:0:
411,198,260846,6,0,L|403:255,2,32.5,2|2|10,0:2|0:2|0:2,0:0:0:0:
333,198,261162,1,2,0:2:0:0:
333,198,261241,1,2,0:2:0:0:
333,198,261320,1,10,0:2:0:0:
251,196,261478,2,0,L|245:230,2,32.5,2|2|10,0:2|0:2|0:2,0:0:0:0:
173,197,261794,1,2,0:2:0:0:
173,197,261873,1,2,0:2:0:0:
173,197,261952,1,10,0:2:0:0:
113,125,262109,6,0,L|118:92,2,32.5,2|2|10,0:2|0:2|0:2,0:0:0:0:
191,127,262425,2,0,L|196:94,2,32.5,2|2|10,0:2|0:2|0:2,0:0:0:0:
269,131,262741,2,0,L|274:98,2,32.5,2|2|10,0:2|0:2|0:2,0:0:0:0:
347,135,263057,2,0,L|352:102,2,32.5,2|2|10,0:2|0:2|0:2,0:0:0:0:
425,139,263373,5,6,0:0:0:0:
256,192,263452,12,4,265899,0:1:0:0:
