osu file format v14

[General]
AudioFilename: audio.mp3
AudioLeadIn: 0
PreviewTime: 162320
Countdown: 0
SampleSet: Drum
StackLeniency: 0.2
Mode: 0
LetterboxInBreaks: 0
WidescreenStoryboard: 1

[Editor]
Bookmarks: 41057,51162,61267,66320,76425,86530,96636,106741,116846,121899,132004,142109,152215,162320,182530,202741,222952,233057,245688,255794,265899
DistanceSpacing: 0.5
BeatDivisor: 4
GridSize: 32
TimelineZoom: 1.7

[Metadata]
Title:Aru Tsuioku, Bouchou Uchuu ni Okeru Shinkai Sunawachi Suiten
TitleUnicode:或る追憶、膨張宇宙に於ける深海乃ち萃点
Artist:Yousei Teikoku
ArtistUnicode:妖精帝國
Creator:IsomirDiAngelo
Version:Extreme
Source:
Tags:the age of villains das feenreich fairy empire yui itsuki japanese metal
BeatmapID:3296392
BeatmapSetID:1607459

[Difficulty]
HPDrainRate:4
CircleSize:4.2
OverallDifficulty:8.6
ApproachRate:8.2
SliderMultiplier:1.4
SliderTickRate:1

[Events]
//Background and Video events
0,0,"deep sea dark.png",0,0
//Break Periods
2,154941,160495
//Storyboard Layer 0 (Background)
//Storyboard Layer 1 (Fail)
//Storyboard Layer 2 (Pass)
//Storyboard Layer 3 (Foreground)
//Storyboard Layer 4 (Overlay)
//Storyboard Sound Samples

[TimingPoints]
21005,315.789473684211,4,3,1,80,1,0
30952,315.789473684211,4,3,1,80,1,0
41057,-55.5555555555556,4,3,1,80,0,0
51162,-66.6666666666667,4,3,1,80,0,0
61267,-50,4,3,1,80,0,0
62056,-50,4,2,1,5,0,0
62136,-50,4,3,1,80,0,0
62293,-50,4,2,1,5,0,0
62373,-50,4,3,1,80,0,0
63398,-50,4,2,1,5,0,0
63478,-41.6666666666667,4,3,1,80,0,0
63794,-50,4,3,1,80,0,0
64582,-50,4,2,1,5,0,0
64662,-50,4,3,1,80,0,0
64819,-50,4,2,1,5,0,0
64899,-50,4,3,1,80,0,0
65688,-40,4,3,1,80,0,0
66320,-166.666666666667,4,2,1,70,0,0
68215,-66.6666666666667,4,2,1,80,0,0
68846,-166.666666666667,4,2,1,80,0,0
73267,-66.6666666666667,4,2,1,80,0,0
73820,-66.6666666666667,4,3,1,5,0,0
73899,-66.6666666666667,4,3,1,80,0,0
75004,-100,4,3,1,5,0,0
75057,-100,4,3,1,80,0,0
86136,-66.6666666666667,4,3,1,80,0,0
86530,-50,4,3,1,80,0,1
87557,-50,4,3,1,5,0,1
87636,-50,4,3,1,80,0,1
96636,-55.5555555555556,4,3,1,80,0,0
106583,-66.6666666666667,4,3,1,80,0,0
106741,-66.6666666666667,4,3,1,80,0,0
116846,-166.666666666667,4,3,1,80,0,0
121267,-1000,4,3,1,80,0,0
121307,-1000,4,3,1,5,0,0
121583,-1000,4,3,1,80,0,0
121623,-1000,4,3,1,5,0,0
121899,-166.666666666667,4,2,1,80,0,0
123794,-66.6666666666667,4,2,1,80,0,0
124425,-166.666666666667,4,2,1,80,0,0
128846,-66.6666666666667,4,2,1,80,0,0
129399,-66.6666666666667,4,2,1,80,0,0
129478,-100,4,3,1,80,0,0
130346,-100,4,3,1,5,0,0
130425,-100,4,3,1,80,0,0
141478,-66.6666666666667,4,3,1,80,0,0
142109,-50,4,3,1,80,0,1
152215,-100,4,3,1,80,0,0
162478,-100,4,2,1,70,0,0
172425,-71.4285714285714,4,3,1,80,0,0
182530,-62.5,4,3,1,80,0,0
186320,-55.5555555555556,4,3,1,80,0,0
186636,-62.5,4,3,1,80,0,0
192636,-55.5555555555556,4,2,1,80,0,1
197373,-55.5555555555556,4,3,1,80,0,1
202741,-83.3333333333333,4,3,1,80,0,0
212846,-83.3333333333333,4,3,1,80,0,1
220425,-55.5555555555556,4,3,1,80,0,1
222320,-55.5555555555556,4,3,1,80,0,0
222952,-50,4,3,1,80,0,1
232425,-50,4,3,1,80,0,0
233057,-45.4545454545455,4,3,1,80,0,1
233846,-35.7142857142857,4,3,1,80,0,1
234320,-45.4545454545455,4,3,1,80,0,1
234952,-31.25,4,3,1,80,0,1
235583,-45.4545454545455,4,3,1,80,0,1
236373,-35.7142857142857,4,3,1,80,0,1
236767,-45.4545454545455,4,3,1,80,0,1
237478,-41.6666666666667,4,3,1,80,0,0
238109,-50,4,3,1,80,0,1
242530,-66.6666666666667,4,3,1,80,0,0
243162,-66.6666666666667,4,2,1,60,0,0
245688,-55.5555555555556,4,3,1,80,0,0
255794,-55.5555555555556,4,3,1,80,0,1
263373,-45.4545454545455,4,3,1,80,0,1
264004,-35.7142857142857,4,3,1,80,0,1
264162,-45.4545454545455,4,3,1,80,0,1
265899,-45.4545454545455,4,3,1,80,0,0

[Colours]
Combo1 : 193,136,166
Combo2 : 255,70,70
Combo3 : 179,138,136

[HitObjects]
182,306,30952,5,2,0:0:0:0:
161,311,31030,1,0,0:0:0:0:
141,306,31109,1,0,0:0:0:0:
123,295,31425,1,2,0:0:0:0:
118,273,31503,1,0,0:0:0:0:
123,253,31582,1,0,0:0:0:0:
135,234,31899,1,2,0:0:0:0:
156,229,31977,1,0,0:0:0:0:
176,234,32056,1,0,0:0:0:0:
194,245,32372,1,2,0:0:0:0:
199,267,32452,1,0,0:0:0:0:
194,287,32529,1,0,0:0:0:0:
194,287,32846,5,2,0:0:0:0:
226,284,32925,1,0,0:0:0:0:
262,280,33004,1,0,0:0:0:0:
296,275,33162,1,2,0:0:0:0:
328,272,33241,1,0,0:0:0:0:
364,268,33320,1,0,0:0:0:0:
396,263,33478,5,2,0:0:0:0:
419,274,33557,1,0,0:0:0:0:
431,253,33636,1,0,0:0:0:0:
447,222,33952,1,2,0:0:0:0:
458,199,34031,1,0,0:0:0:0:
437,187,34110,1,0,0:0:0:0:
408,174,34425,1,2,0:0:0:0:
385,163,34504,1,0,0:0:0:0:
373,184,34583,1,0,0:0:0:0:
358,214,34899,1,2,0:0:0:0:
347,237,34978,1,0,0:0:0:0:
368,249,35057,1,0,0:0:0:0:
423,83,35373,5,6,0:0:0:0:
423,83,35452,1,4,0:0:0:0:
423,83,35530,1,4,0:0:0:0:
423,83,35688,1,6,0:0:0:0:
423,83,35767,1,4,0:0:0:0:
423,83,35846,1,4,0:0:0:0:
302,48,36004,5,6,0:1:0:0:
285,53,36083,1,0,0:0:0:0:
266,59,36162,1,0,0:0:0:0:
248,51,36478,1,2,0:0:0:0:
231,56,36557,1,0,0:0:0:0:
212,62,36636,1,0,0:0:0:0:
205,82,36952,1,2,0:0:0:0:
188,87,37031,1,0,0:0:0:0:
169,93,37110,1,0,0:0:0:0:
145,82,37425,1,2,0:0:0:0:
128,87,37504,1,0,0:0:0:0:
109,93,37583,1,0,0:0:0:0:
109,93,37899,5,2,0:0:0:0:
82,119,37978,1,0,0:0:0:0:
86,156,38057,1,0,0:0:0:0:
114,181,38215,1,2,0:0:0:0:
136,212,38294,1,0,0:0:0:0:
131,251,38373,1,0,0:0:0:0:
107,284,38530,5,2,0:0:0:0:
113,315,38609,1,0,0:0:0:0:
142,330,38688,1,0,0:0:0:0:
177,338,39004,1,2,0:0:0:0:
208,332,39083,1,0,0:0:0:0:
223,303,39162,1,0,0:0:0:0:
235,272,39478,1,2,0:0:0:0:
229,241,39557,1,0,0:0:0:0:
200,226,39636,1,0,0:0:0:0:
171,218,39952,1,2,0:0:0:0:
140,224,40031,1,0,0:0:0:0:
125,252,40110,1,0,0:0:0:0:
307,332,40425,5,10,0:0:0:0:
366,336,40504,1,8,0:0:0:0:
404,296,40583,1,8,0:0:0:0:
414,241,40741,1,10,0:0:0:0:
383,194,40820,1,8,0:0:0:0:
329,177,40899,1,8,0:0:0:0:
263,227,41057,5,4,0:1:0:0:
146,262,41215,1,10,0:2:0:0:
49,178,41373,1,2,0:2:0:0:
179,171,41530,1,10,0:2:0:0:
63,257,41688,5,2,0:2:0:0:
50,104,41846,1,10,0:2:0:0:
206,61,42004,1,2,0:2:0:0:
256,67,42083,1,0,0:0:0:0:
279,112,42162,2,0,P|353:83|453:233,1,251.999992309571,10|10,0:2|0:2,0:0:0:0:
470,369,42636,5,2,0:2:0:0:
360,363,42794,1,8,0:0:0:0:
286,325,42952,1,0,0:0:0:0:
181,318,43109,1,8,0:0:0:0:
109,367,43267,1,0,0:0:0:0:
109,367,43346,1,0,0:0:0:0:
109,367,43425,1,8,0:0:0:0:
3,353,43583,1,0,0:0:0:0:
8,156,43741,5,10,0:2:0:0:
97,216,43899,1,2,0:2:0:0:
185,136,44057,1,10,0:2:0:0:
282,257,44215,1,2,0:2:0:0:
386,59,44373,1,10,0:2:0:0:
492,299,44530,1,2,0:2:0:0:
492,299,44609,1,0,0:0:0:0:
492,299,44688,2,0,P|498:177|366:136,1,251.999992309571,8|10,0:0|0:2,0:0:0:0:
286,355,45162,5,2,0:2:0:0:
192,368,45320,1,8,0:0:0:0:
129,295,45478,1,0,0:0:0:0:
320,240,45636,5,12,0:2:0:0:
328,236,45794,1,0,0:0:0:0:
197,185,45952,5,12,0:2:0:0:
189,181,46110,1,0,0:0:0:0:
116,87,46267,5,10,0:2:0:0:
11,119,46425,1,2,0:2:0:0:
44,194,46583,1,10,0:2:0:0:
49,36,46741,1,2,0:2:0:0:
186,3,46899,1,10,0:2:0:0:
287,81,47057,1,2,0:2:0:0:
324,108,47136,1,0,0:0:0:0:
364,82,47215,2,0,B|256:23|256:23|139:121,1,251.999992309571,10|10,0:2|0:2,0:0:0:0:
201,276,47688,5,2,0:2:0:0:
278,253,47846,1,8,0:0:0:0:
180,190,48004,1,0,0:0:0:0:
280,172,48162,1,8,0:0:0:0:
157,105,48320,1,0,0:0:0:0:
157,105,48399,1,0,0:0:0:0:
157,105,48478,1,8,0:0:0:0:
287,81,48636,1,0,0:0:0:0:
458,144,48794,5,10,0:2:0:0:
417,297,48952,1,2,0:2:0:0:
278,253,49109,1,10,0:2:0:0:
36,175,49267,5,2,0:2:0:0:
212,142,49425,1,10,0:2:0:0:
253,361,49583,1,2,0:2:0:0:
253,361,49662,1,0,0:0:0:0:
253,361,49741,1,8,0:0:0:0:
113,290,49899,5,2,0:2:0:0:
345,191,50057,1,10,0:2:0:0:
134,73,50215,1,2,0:2:0:0:
182,229,50373,1,8,0:0:0:0:
402,265,50530,5,10,0:0:0:0:
432,220,50609,1,8,0:0:0:0:
430,166,50688,1,8,0:0:0:0:
396,122,50846,1,10,0:0:0:0:
373,74,50925,1,8,0:0:0:0:
389,24,51004,1,8,0:0:0:0:
312,136,51162,5,4,0:1:0:0:
209,128,51320,1,2,0:2:0:0:
108,118,51478,1,10,0:2:0:0:
6,110,51636,1,2,0:2:0:0:
45,205,51952,1,2,0:2:0:0:
146,214,52109,1,10,0:2:0:0:
161,312,52425,5,2,0:2:0:0:
311,325,52583,1,2,0:2:0:0:
293,186,52741,1,10,0:2:0:0:
130,178,52899,1,2,0:2:0:0:
32,124,53215,5,2,0:2:0:0:
82,357,53373,2,0,P|133:359|298:373,1,210.000008010865,10|0,0:2|0:2,0:2:0:0:
403,341,53846,5,2,0:2:0:0:
451,249,54004,1,10,0:2:0:0:
393,161,54162,1,2,0:2:0:0:
277,149,54478,1,2,0:2:0:0:
221,238,54636,1,10,0:2:0:0:
107,245,54952,5,2,0:2:0:0:
45,114,55109,1,2,0:2:0:0:
169,15,55267,1,10,0:2:0:0:
235,141,55425,1,2,0:2:0:0:
309,55,55741,5,6,0:2:0:0:
360,142,55899,1,10,0:2:0:0:
448,94,56057,1,0,0:0:0:0:
397,9,56215,1,0,0:0:0:0:
448,94,56372,1,2,0:2:0:0:
360,142,56530,1,10,0:2:0:0:
309,55,56688,1,2,0:2:0:0:
208,24,57004,1,2,0:2:0:0:
151,101,57162,1,10,0:2:0:0:
61,135,57478,5,2,0:2:0:0:
36,287,57636,1,2,0:2:0:0:
169,350,57794,1,10,0:2:0:0:
193,192,57952,1,2,0:2:0:0:
281,258,58267,5,2,0:2:0:0:
335,82,58425,2,0,B|368:52|368:52|474:53|486:162,1,210.000008010865,10|0,0:2|0:0,0:0:0:0:
478,281,58899,5,2,0:2:0:0:
372,329,59057,1,10,0:2:0:0:
303,239,59215,1,2,0:2:0:0:
390,239,59373,1,2,0:2:0:0:
263,337,59530,1,2,0:2:0:0:
165,249,59688,1,10,0:2:0:0:
321,129,60004,1,2,0:2:0:0:
212,5,60162,1,2,0:2:0:0:
65,106,60320,1,10,0:2:0:0:
144,111,60478,1,2,0:2:0:0:
198,73,60636,1,0,0:0:0:0:
240,120,60794,1,8,0:0:0:0:
186,163,60952,1,4,0:0:0:0:
144,111,61109,1,4,0:0:0:0:
376,84,61267,5,2,0:0:0:0:
403,68,61346,1,0,0:0:0:0:
420,101,61425,1,0,0:0:0:0:
440,130,61583,1,2,0:0:0:0:
414,143,61662,1,0,0:0:0:0:
391,112,61741,1,0,0:0:0:0:
256,100,61899,6,0,B|248:163|248:163|232:184|232:184|227:234,1,140,10|0,0:0|2:0,0:0:0:0:
47,168,62136,2,0,P|77:109|144:111,1,140,6|0,0:0|2:0,0:0:0:0:
96,308,62373,1,6,0:0:0:0:
96,308,62688,5,2,0:0:0:0:
61,303,62767,1,0,0:0:0:0:
130,314,62925,1,2,0:0:0:0:
164,320,63004,1,0,0:0:0:0:
198,323,63083,1,0,0:0:0:0:
284,364,63241,6,0,B|348:363|337:286|415:289,1,140,10|0,0:0|2:0,0:0:0:0:
460,127,63478,6,0,P|482:203|380:267,1,209.999993591309,6|6,0:0|0:0,0:0:0:0:
315,211,63794,5,2,0:0:0:0:
285,194,63873,1,0,0:0:0:0:
285,159,63952,1,0,0:0:0:0:
310,139,64109,1,2,0:0:0:0:
340,155,64188,1,0,0:0:0:0:
341,192,64267,1,0,0:0:0:0:
362,82,64425,6,0,B|323:49|323:49|184:76,1,140,10|0,0:0|2:0,0:0:0:0:
75,172,64662,2,0,B|114:139|114:139|201:155,1,140,6|0,0:0|2:0,0:0:0:0:
223,252,64899,1,6,0:0:0:0:
223,252,65215,5,2,0:0:0:0:
234,286,65294,1,0,0:0:0:0:
198,298,65452,1,2,0:0:0:0:
185,261,65530,1,0,0:0:0:0:
409,341,65688,6,0,B|441:238|441:238|370:72|370:72|456:-18,2,350,2|6|4,0:0|0:0|3:1,0:0:0:0:
409,342,66636,1,0,0:0:0:0:
327,318,66952,1,4,0:3:0:0:
95,353,67267,1,4,0:3:0:0:
95,353,67583,2,0,L|88:258,1,83.9999974365235,4|0,0:3|0:0,0:0:0:0:
254,23,68215,6,0,L|224:374,1,315.000012016297,12|0,0:1|0:0,0:0:0:0:
426,370,68846,5,2,3:0:0:0:
20,214,69478,5,2,3:0:0:0:
392,107,70109,5,4,0:3:0:0:
392,107,70583,1,8,0:0:0:0:
392,107,70741,1,2,0:3:0:0:
392,107,71057,1,2,0:3:0:0:
38,21,71373,5,4,3:1:0:0:
38,21,71688,1,0,0:0:0:0:
112,62,72004,1,4,0:3:0:0:
392,107,72320,1,4,0:3:0:0:
392,107,72636,2,0,L|384:13,1,83.9999974365235,4|0,0:3|0:0,0:0:0:0:
256,369,73267,6,0,B|256:317|256:317|227:262|227:262|243:240|243:240|212:150|212:150|229:132|229:132|212:59|212:59|252:-4,1,367.500014019013,12|0,0:1|0:0,0:0:0:0:
229,33,73899,1,0,3:0:0:0:
256,192,73978,12,0,75057,0:0:0:0:
170,226,75109,5,0,0:0:0:0:
164,224,75162,1,6,0:3:0:0:
124,153,75320,1,6,0:0:0:0:
164,224,75478,1,6,0:0:0:0:
253,216,75636,1,6,0:0:0:0:
347,92,75794,5,4,0:0:0:0:
309,151,75952,1,4,0:0:0:0:
240,143,76109,1,4,0:0:0:0:
318,122,76267,1,4,0:0:0:0:
483,257,76425,5,6,0:2:0:0:
441,322,76583,1,0,0:2:0:0:
363,320,76741,1,0,0:2:0:0:
317,261,76899,1,0,0:2:0:0:
243,231,77057,1,12,0:2:0:0:
160,230,77215,1,0,0:2:0:0:
71,343,77373,1,2,0:2:0:0:
81,262,77530,1,0,0:2:0:0:
137,383,77688,5,6,0:2:0:0:
211,309,77846,1,0,0:2:0:0:
160,199,78004,1,0,0:2:0:0:
38,206,78162,1,0,0:2:0:0:
47,29,78320,5,14,0:2:0:0:
89,106,78478,1,0,0:2:0:0:
180,123,78636,1,0,0:2:0:0:
265,82,78794,1,0,0:2:0:0:
305,4,78952,5,6,0:2:0:0:
299,75,79109,1,0,0:2:0:0:
344,132,79267,1,0,0:2:0:0:
406,164,79425,1,0,0:2:0:0:
477,160,79583,5,14,0:2:0:0:
438,192,79741,1,0,0:2:0:0:
425,237,79899,1,0,0:2:0:0:
442,283,80057,1,0,0:2:0:0:
475,316,80215,5,6,0:2:0:0:
463,345,80373,1,0,0:2:0:0:
438,338,80530,1,0,0:2:0:0:
447,311,80688,1,0,0:2:0:0:
366,266,80846,1,12,0:2:0:0:
285,240,81004,1,6,0:0:0:0:
268,319,81162,1,2,0:0:0:0:
350,343,81320,1,6,0:0:0:0:
184,348,81478,5,6,0:2:0:0:
102,341,81636,1,0,0:2:0:0:
45,281,81794,1,0,0:2:0:0:
45,200,81952,1,0,0:2:0:0:
111,143,82109,1,12,0:2:0:0:
193,141,82267,1,0,0:2:0:0:
344,92,82425,1,2,0:2:0:0:
277,137,82583,1,0,0:2:0:0:
345,9,82741,5,6,0:2:0:0:
464,39,82899,1,0,0:2:0:0:
472,157,83057,1,0,0:2:0:0:
362,203,83215,1,0,0:2:0:0:
171,264,83373,5,14,0:2:0:0:
350,252,83530,1,0,0:2:0:0:
388,101,83688,1,0,0:2:0:0:
205,111,83846,1,0,0:2:0:0:
171,264,84004,5,4,2:2:0:0:
205,111,84636,1,4,2:0:0:0:
388,101,85267,1,8,0:0:0:0:
422,96,85346,1,0,0:0:0:0:
440,123,85425,1,0,0:0:0:0:
422,146,85504,1,0,0:0:0:0:
390,140,85583,1,0,0:0:0:0:
372,146,85662,1,0,0:0:0:0:
366,163,85741,1,0,0:0:0:0:
380,174,85820,1,0,0:0:0:0:
394,166,85899,5,10,0:0:0:0:
436,181,85978,1,2,0:0:0:0:
452,223,86057,1,2,0:0:0:0:
435,265,86136,1,2,0:0:0:0:
395,288,86215,2,0,L|329:279,1,52.5000020027161,10|10,0:0|0:0,0:0:0:0:
252,315,86373,2,0,L|186:306,1,52.5000020027161,10|10,0:0|0:0,0:0:0:0:
148,112,86530,5,6,0:2:0:0:
269,230,86688,1,8,0:0:0:0:
106,296,86846,1,2,0:2:0:0:
75,268,86925,1,0,0:0:0:0:
73,226,87004,1,8,0:0:0:0:
227,141,87162,6,0,B|291:133|291:133|317:159|317:159|445:168,2,210,2|2|10,0:2|0:2|0:2,0:0:0:0:
187,163,87715,5,0,0:0:0:0:
145,166,87794,1,2,0:2:0:0:
92,107,87952,1,10,0:2:0:0:
106,147,88030,1,2,0:2:0:0:
98,67,88188,1,2,0:2:0:0:
125,35,88267,1,10,0:2:0:0:
256,47,88425,5,2,0:2:0:0:
379,15,88583,1,10,0:0:0:0:
477,99,88741,1,2,0:0:0:0:
469,227,88899,1,10,0:0:0:0:
359,276,89057,1,2,0:0:0:0:
186,210,89215,5,10,0:2:0:0:
76,242,89373,1,2,0:2:0:0:
49,277,89452,1,0,0:0:0:0:
57,321,89530,2,0,B|129:308|129:308|203:361,1,140,10|0,0:2|0:0,0:0:0:0:
277,289,89846,5,10,0:2:0:0:
209,101,90004,1,0,0:0:0:0:
76,242,90162,1,8,0:2:0:0:
106,43,90320,6,0,L|130:190,1,140,6|10,0:2|0:2,0:0:0:0:
166,203,90557,1,2,0:2:0:0:
208,212,90636,1,0,0:0:0:0:
250,200,90715,1,2,0:2:0:0:
277,165,90794,1,10,0:2:0:0:
461,40,90952,1,6,0:2:0:0:
346,33,91109,1,8,0:0:0:0:
283,119,91267,1,4,0:0:0:0:
277,165,91346,1,4,0:0:0:0:
250,200,91425,1,4,0:0:0:0:
208,212,91504,1,4,0:0:0:0:
166,203,91583,1,4,0:0:0:0:
70,163,91741,5,6,0:2:0:0:
102,349,91899,1,0,0:2:0:0:
246,302,92057,1,8,0:2:0:0:
208,117,92215,2,0,B|158:69|158:69|76:89,1,140,2|8,0:2|0:0,0:0:0:0:
246,302,92530,2,0,B|296:350|296:350|378:330,1,140,2|8,0:2|0:0,0:0:0:0:
397,353,92767,5,0,0:0:0:0:
438,359,92846,1,2,0:2:0:0:
484,296,93004,1,10,0:2:0:0:
473,337,93083,1,2,0:2:0:0:
478,258,93241,1,2,0:2:0:0:
443,233,93320,1,10,0:2:0:0:
332,188,93478,5,2,0:2:0:0:
195,242,93636,1,10,0:0:0:0:
144,96,93794,1,2,0:0:0:0:
290,39,93952,1,10,0:0:0:0:
332,188,94109,1,2,0:0:0:0:
276,332,94267,5,2,0:0:0:0:
231,353,94346,1,2,0:0:0:0:
181,353,94425,1,2,0:0:0:0:
133,341,94504,1,2,0:0:0:0:
99,305,94583,1,10,0:2:0:0:
81,202,94741,1,0,0:0:0:0:
99,305,94899,1,10,0:2:0:0:
181,353,95057,1,0,0:0:0:0:
276,332,95215,1,8,0:0:0:0:
387,215,95373,5,2,0:2:0:0:
389,136,95530,1,10,0:2:0:0:
347,128,95609,1,2,0:2:0:0:
305,121,95688,1,0,0:0:0:0:
263,111,95767,1,2,0:2:0:0:
221,102,95846,1,10,0:2:0:0:
389,136,96004,5,10,0:2:0:0:
439,156,96083,1,8,0:0:0:0:
481,119,96162,1,8,0:0:0:0:
457,71,96241,1,8,0:0:0:0:
401,77,96320,1,8,0:0:0:0:
281,188,96478,1,8,0:0:0:0:
358,324,96636,5,4,0:1:0:0:
439,297,96794,1,10,0:2:0:0:
316,250,96952,1,2,0:2:0:0:
237,346,97109,1,10,0:2:0:0:
281,188,97267,5,2,0:2:0:0:
138,162,97425,1,10,0:2:0:0:
62,274,97583,1,2,0:2:0:0:
17,272,97662,1,0,0:0:0:0:
2,227,97741,2,0,P|80:115|10:10,1,251.999992309571,10|10,0:2|0:2,0:0:0:0:
206,14,98215,5,2,0:2:0:0:
207,110,98373,1,8,0:0:0:0:
277,160,98530,1,0,0:0:0:0:
379,186,98688,1,8,0:0:0:0:
449,145,98846,1,0,0:0:0:0:
449,145,98925,1,0,0:0:0:0:
449,145,99004,1,8,0:0:0:0:
500,52,99162,1,0,0:0:0:0:
396,42,99320,5,10,0:2:0:0:
379,186,99478,1,2,0:2:0:0:
285,206,99636,5,10,0:2:0:0:
262,19,99794,1,2,0:2:0:0:
150,0,99952,5,10,0:2:0:0:
121,242,100109,1,2,0:2:0:0:
121,242,100188,1,0,0:0:0:0:
121,242,100267,2,0,B|194:227|255:266|226:371|359:373,1,251.999992309571,8|10,0:0|0:2,0:0:0:0:
45,297,100741,5,2,0:2:0:0:
32,204,100899,1,8,0:0:0:0:
20,111,101057,1,0,0:0:0:0:
152,25,101215,5,12,0:2:0:0:
144,18,101373,1,0,0:0:0:0:
241,122,101530,5,12,0:2:0:0:
248,115,101688,1,0,0:0:0:0:
403,10,101846,5,10,0:2:0:0:
296,47,102004,1,2,0:2:0:0:
330,161,102162,1,10,0:2:0:0:
409,120,102320,1,2,0:2:0:0:
457,235,102478,1,10,0:2:0:0:
355,306,102636,1,2,0:2:0:0:
316,283,102715,1,0,0:0:0:0:
325,238,102794,2,0,P|232:235|216:374,1,251.999992309571,10|10,0:2|0:2,0:0:0:0:
2,277,103267,5,2,0:2:0:0:
104,252,103425,1,8,0:0:0:0:
72,174,103583,1,0,0:0:0:0:
33,74,103741,1,8,0:0:0:0:
126,76,103899,1,0,0:0:0:0:
126,76,103978,1,0,0:0:0:0:
126,76,104057,1,8,0:0:0:0:
232,76,104215,1,0,0:0:0:0:
331,21,104373,5,10,0:2:0:0:
311,146,104530,1,2,0:2:0:0:
295,263,104688,1,10,0:2:0:0:
466,155,104846,5,2,0:2:0:0:
311,146,105004,1,10,0:2:0:0:
155,141,105162,1,2,0:2:0:0:
155,141,105241,1,0,0:0:0:0:
155,141,105320,1,8,0:0:0:0:
78,202,105478,5,2,0:2:0:0:
147,346,105636,1,10,0:2:0:0:
325,335,105794,1,2,0:2:0:0:
276,261,105952,1,8,0:0:0:0:
193,271,106109,1,0,0:0:0:0:
187,252,106188,1,0,0:0:0:0:
181,233,106267,1,0,0:0:0:0:
192,217,106346,1,8,0:0:0:0:
204,203,106425,1,8,0:0:0:0:
218,190,106504,1,8,0:0:0:0:
234,177,106583,2,0,P|266:191|285:200,1,52.5000020027161,4|4,0:0|0:0,0:0:0:0:
349,55,106741,5,6,0:1:0:0:
377,65,106820,1,0,0:0:0:0:
407,46,106899,1,0,0:0:0:0:
432,68,107215,1,2,0:0:0:0:
421,95,107294,1,0,0:0:0:0:
441,126,107373,1,0,0:0:0:0:
417,157,107688,1,2,0:0:0:0:
389,146,107767,1,0,0:0:0:0:
358,166,107846,1,0,0:0:0:0:
328,144,108162,1,2,0:0:0:0:
338,115,108241,1,0,0:0:0:0:
317,85,108320,1,0,0:0:0:0:
65,55,108636,5,10,0:0:0:0:
104,25,108715,1,8,0:0:0:0:
150,35,108794,1,8,0:0:0:0:
188,65,108951,5,10,0:0:0:0:
250,100,109030,1,8,0:0:0:0:
317,85,109109,1,8,0:0:0:0:
65,55,109267,5,2,0:0:0:0:
62,86,109346,1,0,0:0:0:0:
59,117,109425,1,0,0:0:0:0:
84,145,109741,1,2,0:0:0:0:
81,176,109820,1,0,0:0:0:0:
78,207,109899,1,0,0:0:0:0:
51,230,110215,1,2,0:0:0:0:
48,261,110294,1,0,0:0:0:0:
45,292,110373,1,0,0:0:0:0:
71,319,110688,1,2,0:0:0:0:
68,350,110767,1,0,0:0:0:0:
65,381,110846,1,0,0:0:0:0:
257,328,111162,5,10,0:0:0:0:
218,299,111241,1,8,0:0:0:0:
172,314,111320,1,8,0:0:0:0:
134,349,111478,5,10,0:0:0:0:
105,377,111557,1,8,0:0:0:0:
65,381,111636,1,8,0:0:0:0:
402,343,111794,5,6,0:1:0:0:
418,315,111873,1,0,0:0:0:0:
413,283,111952,1,0,0:0:0:0:
433,249,112267,1,2,0:0:0:0:
405,233,112346,1,0,0:0:0:0:
373,238,112425,1,0,0:0:0:0:
342,215,112741,1,2,0:0:0:0:
337,183,112820,1,0,0:0:0:0:
353,155,112899,1,0,0:0:0:0:
384,147,113215,1,2,0:0:0:0:
412,163,113294,1,0,0:0:0:0:
444,158,113373,1,0,0:0:0:0:
348,35,113688,5,10,0:0:0:0:
389,8,113767,1,8,0:0:0:0:
438,11,113846,1,8,0:0:0:0:
481,42,114004,5,10,0:0:0:0:
495,111,114083,1,8,0:0:0:0:
444,158,114162,1,8,0:0:0:0:
348,35,114320,5,2,0:0:0:0:
316,32,114399,1,0,0:0:0:0:
284,30,114478,1,0,0:0:0:0:
265,58,114794,1,2,0:0:0:0:
233,60,114873,1,0,0:0:0:0:
201,63,114952,1,0,0:0:0:0:
185,26,115267,1,2,0:0:0:0:
153,24,115346,1,0,0:0:0:0:
121,21,115425,1,0,0:0:0:0:
98,51,115741,1,2,0:0:0:0:
66,53,115820,1,0,0:0:0:0:
34,56,115899,1,0,0:0:0:0:
53,269,116215,5,6,0:0:0:0:
40,262,116294,1,4,0:0:0:0:
56,256,116373,1,4,0:0:0:0:
210,174,116530,5,6,0:0:0:0:
197,167,116609,1,4,0:0:0:0:
213,161,116688,1,4,0:0:0:0:
261,329,116846,5,2,0:0:0:0:
298,322,116925,1,0,0:0:0:0:
338,316,117004,1,0,0:0:0:0:
341,277,117162,1,2,0:0:0:0:
304,284,117241,1,0,0:0:0:0:
264,290,117320,1,0,0:0:0:0:
451,326,117478,6,0,L|445:372,1,41.9999987182618,10|0,0:0|0:0,0:0:0:0:
401,167,117715,2,0,L|406:216,1,41.9999987182618,6|0,0:0|0:0,0:0:0:0:
455,102,117952,1,6,0:0:0:0:
455,102,118267,5,2,0:0:0:0:
476,136,118346,1,0,0:0:0:0:
419,85,118504,1,2,0:0:0:0:
382,81,118583,1,0,0:0:0:0:
345,103,118662,1,0,0:0:0:0:
241,25,118820,6,0,L|249:76,1,41.9999987182618,10|0,0:0|0:0,0:0:0:0:
169,240,119057,6,0,B|171:219|171:219|167:208|167:208|171:180,1,52.4999983978272,6|6,0:0|0:0,0:0:0:0:
141,308,119373,5,2,0:0:0:0:
171,329,119452,1,0,0:0:0:0:
203,322,119530,1,0,0:0:0:0:
223,295,119688,1,2,0:0:0:0:
256,284,119767,1,0,0:0:0:0:
289,305,119846,1,0,0:0:0:0:
471,324,120004,6,0,L|418:317,1,41.9999987182618,10|0,0:0|0:0,0:0:0:0:
250,201,120241,2,0,L|291:195,1,41.9999987182618,6|0,0:0|0:0,0:0:0:0:
314,119,120478,1,6,0:0:0:0:
314,119,120793,5,2,0:0:0:0:
346,103,120872,1,0,0:0:0:0:
344,66,121030,1,2,0:0:0:0:
310,55,121109,1,0,0:0:0:0:
43,213,121267,6,0,L|42:198,2,14,2|2|4,0:0|0:0|3:1,0:0:0:0:
43,213,122215,1,0,0:0:0:0:
119,186,122530,1,4,0:3:0:0:
296,357,122846,1,4,0:3:0:0:
296,357,123162,2,0,B|260:342|227:363|198:353,1,83.9999974365235,4|0,0:3|0:0,0:0:0:0:
447,36,123794,6,0,B|377:13|322:46|291:157|346:182|335:278,1,315.000012016297,12|0,0:1|0:0,0:0:0:0:
462,373,124425,5,2,3:0:0:0:
24,227,125057,5,2,3:0:0:0:
345,33,125688,5,4,0:3:0:0:
345,33,126162,1,8,0:0:0:0:
345,33,126320,1,2,0:3:0:0:
345,33,126636,1,2,0:3:0:0:
16,77,126952,5,4,3:1:0:0:
16,77,127267,1,0,0:0:0:0:
97,27,127583,1,4,0:3:0:0:
450,124,127899,1,4,0:3:0:0:
450,124,128215,2,0,B|408:106|397:129|354:113,1,83.9999974365235,4|0,0:3|0:0,0:0:0:0:
76,340,128846,6,0,B|104:325|127:346|159:399|158:285|197:270|268:325|234:364|273:388|324:279|355:245|467:324,1,367.500014019013,12|0,0:1|0:0,0:0:0:0:
426,299,129478,1,0,3:0:0:0:
256,192,129557,12,0,130346,0:0:0:0:
256,189,130425,5,6,0:0:0:0:
221,192,130504,1,6,0:0:0:0:
188,176,130583,1,6,0:0:0:0:
256,189,130741,1,6,0:3:0:0:
344,146,130899,1,6,0:0:0:0:
331,47,131057,1,6,0:0:0:0:
236,32,131215,1,6,0:0:0:0:
124,170,131373,5,4,0:0:0:0:
164,230,131531,1,4,0:0:0:0:
234,247,131688,1,4,0:0:0:0:
299,214,131846,1,4,0:0:0:0:
447,226,132004,5,6,0:2:0:0:
489,290,132162,1,0,0:2:0:0:
451,357,132320,1,0,0:2:0:0:
372,364,132478,1,0,0:2:0:0:
326,303,132636,1,12,0:2:0:0:
362,232,132794,1,0,0:2:0:0:
355,92,132952,1,2,0:2:0:0:
404,158,133109,1,0,0:2:0:0:
275,58,133267,5,6,0:2:0:0:
166,42,133425,1,0,0:2:0:0:
67,106,133583,1,0,0:2:0:0:
65,216,133741,1,0,0:2:0:0:
210,356,133899,5,14,0:2:0:0:
263,297,134057,1,0,0:2:0:0:
246,222,134215,1,0,0:2:0:0:
179,187,134373,1,0,0:2:0:0:
110,179,134530,5,6,0:2:0:0:
170,156,134688,1,0,0:2:0:0:
190,99,134846,1,0,0:2:0:0:
188,36,135004,1,0,0:2:0:0:
134,0,135162,5,14,0:2:0:0:
128,48,135320,1,0,0:2:0:0:
169,79,135478,1,0,0:2:0:0:
220,74,135636,1,0,0:2:0:0:
251,36,135794,5,6,0:2:0:0:
276,27,135952,1,0,0:2:0:0:
301,41,136109,1,0,0:2:0:0:
329,34,136267,1,0,0:2:0:0:
437,87,136425,5,12,0:2:0:0:
326,107,136583,1,8,0:0:0:0:
340,181,136741,1,0,0:0:0:0:
229,194,136899,1,8,0:0:0:0:
234,323,137057,5,6,0:2:0:0:
160,358,137215,1,0,0:2:0:0:
80,333,137373,1,0,0:2:0:0:
41,259,137530,1,0,0:2:0:0:
69,180,137688,1,12,0:2:0:0:
145,137,137846,1,0,0:2:0:0:
291,197,138004,1,2,0:2:0:0:
228,143,138162,1,0,0:2:0:0:
373,232,138320,5,6,0:2:0:0:
266,269,138478,1,0,0:2:0:0:
191,186,138636,1,0,0:2:0:0:
242,69,138794,1,0,0:2:0:0:
361,131,138952,5,14,0:2:0:0:
466,212,139109,1,0,0:2:0:0:
432,344,139267,1,0,0:2:0:0:
281,371,139425,1,0,0:2:0:0:
361,131,139583,5,4,2:2:0:0:
466,212,140215,1,4,2:0:0:0:
432,344,140846,1,8,0:0:0:0:
394,362,140925,1,0,0:0:0:0:
355,345,141004,1,0,0:0:0:0:
332,309,141083,1,0,0:0:0:0:
326,265,141162,1,8,0:0:0:0:
306,302,141241,1,0,0:0:0:0:
269,322,141320,1,0,0:0:0:0:
227,318,141399,1,0,0:0:0:0:
195,289,141478,5,10,0:0:0:0:
198,278,141557,1,2,0:0:0:0:
201,268,141636,1,2,0:0:0:0:
204,258,141715,1,2,0:0:0:0:
208,248,141794,2,0,P|220:283|231:305,1,52.5000020027161,10|10,0:0|0:0,0:0:0:0:
122,235,141952,2,0,P|110:200|99:178,1,52.5000020027161,10|10,0:0|0:0,0:0:0:0:
49,11,142109,5,6,0:2:0:0:
233,38,142267,1,8,0:0:0:0:
145,179,142425,1,2,0:2:0:0:
103,186,142504,1,0,0:0:0:0:
69,160,142583,1,8,0:0:0:0:
173,336,142741,6,0,L|409:303,2,210,2|2|10,0:2|0:2|0:2,0:0:0:0:
138,361,143294,5,0,0:0:0:0:
97,350,143373,1,2,0:2:0:0:
64,279,143530,1,10,0:2:0:0:
66,320,143609,1,2,0:2:0:0:
80,241,143767,1,2,0:2:0:0:
118,224,143846,1,10,0:2:0:0:
138,121,144004,5,2,0:2:0:0:
225,206,144162,1,10,0:0:0:0:
352,207,144320,1,2,0:0:0:0:
423,116,144478,1,10,0:0:0:0:
406,5,144636,1,6,0:2:0:0:
321,113,144794,5,10,0:2:0:0:
187,54,144952,1,2,0:2:0:0:
146,46,145030,1,0,0:0:0:0:
104,38,145109,2,0,P|69:94|85:164,1,140,10|0,0:2|0:0,0:0:0:0:
56,299,145425,5,10,0:2:0:0:
209,277,145583,1,0,0:0:0:0:
357,254,145741,1,8,0:2:0:0:
436,332,145899,6,0,P|401:276|417:206,1,140,6|10,0:2|0:2,0:0:0:0:
406,167,146136,1,2,0:2:0:0:
394,126,146215,1,0,0:0:0:0:
382,85,146294,1,2,0:2:0:0:
371,44,146373,1,10,0:2:0:0:
183,75,146530,1,6,0:2:0:0:
254,7,146688,1,8,0:0:0:0:
371,44,146846,1,4,0:0:0:0:
382,85,146925,1,4,0:0:0:0:
394,126,147004,1,4,0:0:0:0:
406,167,147083,1,4,0:0:0:0:
416,207,147162,1,4,0:0:0:0:
457,291,147320,5,6,0:2:0:0:
320,198,147478,1,0,0:2:0:0:
296,343,147636,1,8,0:2:0:0:
162,251,147794,2,0,P|69:259|6:268,1,140,2|8,0:2|0:0,0:0:0:0:
59,37,148109,2,0,P|152:29|215:20,1,140,2|8,0:2|0:0,0:0:0:0:
225,55,148346,5,0,0:0:0:0:
255,80,148425,1,2,0:2:0:0:
332,79,148583,1,10,0:2:0:0:
292,89,148662,1,2,0:2:0:0:
364,52,148820,1,2,0:2:0:0:
378,12,148899,1,10,0:2:0:0:
459,64,149057,5,2,0:2:0:0:
332,79,149215,1,10,0:0:0:0:
329,186,149373,1,2,0:0:0:0:
458,170,149530,1,10,0:0:0:0:
450,301,149688,1,6,0:2:0:0:
396,237,149846,5,2,0:0:0:0:
347,241,149925,1,2,0:0:0:0:
298,244,150004,1,2,0:0:0:0:
249,247,150083,1,2,0:0:0:0:
200,252,150162,1,10,0:2:0:0:
93,262,150320,1,0,0:0:0:0:
200,252,150478,1,10,0:2:0:0:
298,244,150636,1,0,0:0:0:0:
396,237,150794,1,8,0:0:0:0:
372,77,150952,5,6,0:2:0:0:
219,90,151109,1,8,0:0:0:0:
76,101,151267,1,8,0:0:0:0:
46,131,151346,1,8,0:0:0:0:
46,173,151425,1,0,0:0:0:0:
74,204,151504,1,0,0:0:0:0:
109,229,151583,5,8,0:0:0:0:
129,213,151662,1,8,0:0:0:0:
124,192,151741,1,0,0:0:0:0:
107,204,151820,1,0,0:0:0:0:
109,229,151899,5,4,0:0:0:0:
144,254,151978,1,4,0:0:0:0:
165,298,152057,1,4,0:0:0:0:
156,346,152136,1,4,0:0:0:0:
122,380,152215,1,4,0:1:0:0:
256,192,152294,12,0,154741,0:0:0:0:
301,73,161215,5,4,2:3:0:0:
383,107,161373,1,4,2:3:0:0:
305,159,161530,1,4,2:3:0:0:
366,177,161688,1,4,2:3:0:0:
306,239,161846,1,4,2:3:0:0:
344,248,162004,1,4,2:3:0:0:
308,303,162162,1,4,2:3:0:0:
332,314,162320,1,4,2:1:0:0:
228,364,162478,5,2,3:2:0:0:
145,348,162636,1,0,3:0:0:0:
87,286,162794,1,0,3:0:0:0:
75,205,162952,1,10,0:2:0:0:
95,122,163109,1,0,3:0:0:0:
158,72,163267,1,0,0:0:0:0:
235,56,163425,1,2,3:2:0:0:
158,72,163741,1,2,3:2:0:0:
95,122,163899,1,0,3:0:0:0:
75,205,164056,1,0,3:0:0:0:
87,286,164214,1,10,0:2:0:0:
145,348,164372,1,0,3:0:0:0:
228,364,164530,1,0,0:0:0:0:
311,356,164688,1,2,3:2:0:0:
382,69,165004,5,2,3:2:0:0:
426,145,165162,1,0,3:0:0:0:
349,193,165320,1,2,3:0:0:0:
269,149,165636,1,2,3:2:0:0:
225,225,165794,1,0,0:0:0:0:
302,273,165952,1,2,3:2:0:0:
400,280,166267,5,2,3:2:0:0:
354,360,166425,1,0,3:0:0:0:
263,368,166583,1,0,3:0:0:0:
209,301,166741,1,10,0:0:0:0:
192,291,166820,1,0,0:0:0:0:
173,294,166899,1,0,3:0:0:0:
117,359,167057,1,0,0:0:0:0:
27,372,167215,1,10,0:0:0:0:
39,28,167530,5,2,3:2:0:0:
121,40,167688,1,0,3:0:0:0:
167,104,167846,1,0,3:0:0:0:
127,174,168004,1,10,0:2:0:0:
113,186,168083,1,0,0:0:0:0:
94,192,168162,1,0,3:0:0:0:
26,243,168320,5,0,0:0:0:0:
23,167,168478,1,2,3:2:0:0:
128,154,168636,5,0,0:0:0:0:
119,251,168794,1,2,3:2:0:0:
225,263,168952,5,2,3:2:0:0:
221,141,169109,1,2,3:2:0:0:
331,141,169425,5,2,3:2:0:0:
324,262,169583,1,0,0:0:0:0:
425,253,169741,5,0,3:0:0:0:
412,160,169899,1,6,0:0:0:0:
505,179,170057,5,0,0:0:0:0:
495,264,170215,1,0,3:0:0:0:
430,310,170373,1,0,3:0:0:0:
345,312,170530,1,10,0:0:0:0:
273,266,170688,1,0,3:0:0:0:
243,185,170846,1,0,0:0:0:0:
261,101,171004,1,0,3:0:0:0:
336,61,171162,5,2,0:0:0:0:
359,130,171320,1,0,3:0:0:0:
316,185,171478,1,0,3:0:0:0:
243,185,171636,1,0,3:0:0:0:
122,67,171794,5,10,0:0:0:0:
126,54,171952,1,4,3:3:0:0:
131,44,172109,1,4,0:3:0:0:
135,35,172267,1,0,3:0:0:0:
138,27,172425,1,4,0:1:0:0:
15,79,172583,5,2,0:2:0:0:
19,83,172741,1,0,0:0:0:0:
23,87,172899,1,2,0:2:0:0:
122,67,173057,1,8,0:0:0:0:
230,155,173215,5,2,0:2:0:0:
234,159,173373,1,0,0:0:0:0:
238,163,173531,1,2,0:2:0:0:
154,147,173689,1,0,0:0:0:0:
0,252,173846,5,2,0:2:0:0:
4,256,174004,1,0,0:0:0:0:
8,260,174162,1,2,0:2:0:0:
103,235,174320,1,8,0:0:0:0:
183,300,174478,5,2,0:2:0:0:
312,330,174636,1,0,0:0:0:0:
347,203,174794,1,0,0:0:0:0:
198,171,174952,5,6,0:2:0:0:
118,122,175109,1,0,0:0:0:0:
123,31,175267,1,0,0:0:0:0:
213,0,175425,1,0,0:0:0:0:
296,46,175583,1,10,0:2:0:0:
289,134,175741,1,0,0:0:0:0:
350,201,175899,1,0,0:0:0:0:
441,183,176057,1,0,0:0:0:0:
468,87,176215,1,2,0:2:0:0:
426,29,176373,5,0,0:0:0:0:
361,62,176530,1,0,0:0:0:0:
290,81,176688,1,0,0:0:0:0:
218,61,176846,1,10,0:2:0:0:
156,21,177004,1,0,0:0:0:0:
81,27,177162,1,0,0:0:0:0:
39,88,177320,1,0,0:0:0:0:
59,157,177478,5,6,0:2:0:0:
186,136,177636,1,0,0:0:0:0:
185,250,177794,1,8,0:0:0:0:
183,368,177952,1,2,0:2:0:0:
118,332,178109,1,0,0:0:0:0:
305,309,178267,1,2,0:2:0:0:
306,383,178424,1,8,0:0:0:0:
185,250,178583,1,2,0:2:0:0:
248,212,178740,1,0,0:0:0:0:
375,340,178899,5,2,0:2:0:0:
480,285,179057,1,10,0:2:0:0:
446,148,179215,1,2,0:2:0:0:
429,79,179373,1,0,0:0:0:0:
460,217,179530,1,2,0:2:0:0:
480,285,179688,1,8,0:0:0:0:
446,148,179846,1,2,0:2:0:0:
160,257,180004,5,2,0:2:0:0:
355,133,180162,1,0,0:0:0:0:
232,315,180320,1,10,0:2:0:0:
277,79,180478,1,0,0:0:0:0:
317,297,180636,1,2,0:2:0:0:
193,91,180794,1,0,0:0:0:0:
364,221,180952,1,10,0:2:0:0:
146,168,181109,1,0,0:0:0:0:
336,146,181267,5,4,0:0:0:0:
312,120,181345,1,4,0:0:0:0:
279,104,181424,1,4,0:0:0:0:
245,100,181503,1,4,0:0:0:0:
210,111,181582,1,4,0:0:0:0:
182,132,181661,1,4,0:0:0:0:
164,162,181740,1,4,0:0:0:0:
157,197,181819,1,4,0:0:0:0:
164,232,181898,1,4,0:0:0:0:
183,261,181977,1,4,0:0:0:0:
211,283,182056,1,4,0:0:0:0:
245,292,182135,1,4,0:0:0:0:
280,289,182214,1,4,0:0:0:0:
312,273,182293,1,4,0:0:0:0:
335,246,182372,1,4,0:0:0:0:
348,214,182451,1,4,0:0:0:0:
348,179,182530,1,4,0:1:0:0:
395,66,182688,6,0,B|432:44|432:44|513:53,2,112,10|0|8,0:2|0:0|0:0,0:0:0:0:
348,179,183162,1,2,0:2:0:0:
219,150,183320,1,10,0:2:0:0:
105,121,183478,2,0,B|68:99|68:99|-13:108,1,112,2|8,0:2|0:0,0:0:0:0:
244,349,183794,6,0,B|285:246|198:132|198:132|166:201|108:215|108:215|101:283|143:327,2,448,2|0|2,0:2|0:0|0:0,0:0:0:0:
424,369,185215,5,10,0:2:0:0:
424,369,185294,1,0,0:0:0:0:
424,369,185373,1,0,0:0:0:0:
424,369,185452,1,0,0:0:0:0:
424,369,185530,1,8,0:2:0:0:
345,290,185688,1,2,0:2:0:0:
361,178,185846,1,10,0:2:0:0:
379,67,186004,1,2,0:2:0:0:
361,178,186162,1,8,0:0:0:0:
204,112,186320,6,0,B|175:108|159:79|159:79|84:99|69:155|69:155|87:194|62:240,1,251.999992309571,2|0,0:2|0:0,0:0:0:0:
66,239,186715,1,0,0:0:0:0:
62,253,186794,1,8,0:0:0:0:
59,265,186873,1,0,0:0:0:0:
89,298,186952,5,2,0:2:0:0:
200,274,187109,1,8,0:0:0:0:
295,139,187267,5,2,0:2:0:0:
176,163,187424,1,8,0:0:0:0:
222,380,187583,5,6,0:2:0:0:
330,356,187741,1,8,0:0:0:0:
313,253,187899,1,0,0:0:0:0:
313,253,187978,1,0,0:0:0:0:
313,253,188057,1,8,0:0:0:0:
200,274,188215,1,0,0:0:0:0:
45,227,188373,5,10,0:2:0:0:
17,197,188452,1,0,0:0:0:0:
38,159,188530,2,0,B|91:123|91:123|151:137|151:137|229:34|348:17|472:91,1,448,2|0,0:2|0:0,0:0:0:0:
461,68,189241,1,0,0:0:0:0:
469,47,189320,1,8,0:0:0:0:
512,155,189478,5,2,0:2:0:0:
385,178,189636,1,8,0:0:0:0:
376,216,189715,1,2,0:2:0:0:
389,290,189873,1,0,0:2:0:0:
397,252,189952,1,10,0:2:0:0:
213,355,190109,5,2,0:2:0:0:
173,355,190188,1,0,0:0:0:0:
138,336,190267,1,8,0:0:0:0:
115,304,190346,1,0,0:0:0:0:
116,264,190425,1,0,0:0:0:0:
136,230,190504,1,0,0:0:0:0:
170,211,190583,1,10,0:2:0:0:
136,230,190662,1,0,0:0:0:0:
96,225,190741,1,0,0:0:0:0:
58,212,190820,1,0,0:0:0:0:
37,178,190899,1,8,0:0:0:0:
31,139,190978,1,0,0:0:0:0:
45,102,191057,1,2,0:2:0:0:
150,28,191215,1,10,0:2:0:0:
279,284,191373,5,2,0:2:0:0:
436,284,191530,1,8,0:0:0:0:
499,147,191688,2,0,B|495:115|495:115|465:99,1,56
432,32,191846,2,0,B|368:22|368:22|324:68|324:68|250:38|250:38|164:118|164:118|28:58,1,448,10|8,0:2|0:0,0:0:0:0:
75,273,192636,6,0,P|67:324|61:389,1,83.9999974365235,6|0,0:2|0:0,0:0:0:0:
231,343,192846,1,0,0:0:0:0:
300,329,192952,2,0,P|308:278|314:213,1,83.9999974365235
236,147,193162,1,0,0:0:0:0:
179,158,193267,2,0,P|171:209|165:274,2,83.9999974365235,2|0|0,0:2|0:0|0:0,0:0:0:0:
112,99,193583,2,0,P|116:57|123:15,2,83.9999974365235
268,79,193899,5,2,0:2:0:0:
317,61,194004,1,0,0:0:0:0:
367,77,194109,1,0,0:0:0:0:
441,79,194215,5,0,0:0:0:0:
476,127,194320,1,0,0:0:0:0:
476,187,194425,1,0,0:0:0:0:
488,261,194530,5,2,0:2:0:0:
448,317,194636,1,0,0:0:0:0:
382,330,194741,1,0,0:0:0:0:
306,359,194846,5,2,0:2:0:0:
232,344,194952,1,2,0:2:0:0:
187,284,195057,1,2,0:2:0:0:
197,206,195162,6,0,P|244:209|309:216,1,83.9999974365235,6|0,0:2|0:0,0:0:0:0:
151,71,195373,1,0,0:0:0:0:
106,127,195478,2,0,P|59:124|-6:117,1,83.9999974365235
268,79,195688,1,0,0:0:0:0:
301,35,195794,2,0,P|348:38|413:45,2,83.9999974365235,2|0|0,0:2|0:0|0:0,0:0:0:0:
466,85,196109,2,0,P|419:82|354:75,2,83.9999974365235
372,186,196425,5,2,0:2:0:0:
364,233,196530,1,0,0:0:0:0:
357,282,196636,1,0,0:0:0:0:
305,283,196741,5,0,0:0:0:0:
313,225,196846,1,0,0:0:0:0:
322,166,196952,1,0,0:0:0:0:
273,111,197057,5,2,0:2:0:0:
264,181,197162,1,2,0:2:0:0:
253,252,197268,1,2,0:2:0:0:
245,325,197373,1,2,0:2:0:0:
65,312,197530,1,8,0:0:0:0:
87,88,197688,5,6,0:2:0:0:
118,86,197767,1,0,0:0:0:0:
149,82,197846,1,8,0:0:0:0:
180,78,197925,1,0,0:0:0:0:
211,74,198004,1,0,0:0:0:0:
242,72,198083,1,0,0:0:0:0:
273,69,198162,1,8,0:0:0:0:
304,66,198241,1,0,0:0:0:0:
335,63,198320,2,0,L|342:147,1,62.9999980773926
446,116,198478,2,0,L|441:51,1,62.9999980773926,8|0,0:0|0:0,0:0:0:0:
426,294,198636,6,0,B|462:290|462:290|503:320,3,62.9999980773926,2|0|8|0,0:2|0:0|0:0|0:0,0:0:0:0:
357,242,198952,1,2,0:2:0:0:
349,281,199030,1,0,0:0:0:0:
320,305,199109,1,8,0:0:0:0:
282,307,199188,1,0,0:0:0:0:
246,293,199267,1,0,0:0:0:0:
209,284,199346,1,0,0:0:0:0:
171,286,199425,1,8,0:0:0:0:
140,308,199504,1,0,0:0:0:0:
130,344,199583,1,0,0:0:0:0:
96,361,199662,1,0,0:0:0:0:
59,350,199741,1,8,0:0:0:0:
44,314,199820,1,0,0:0:0:0:
51,276,199899,2,0,B|72:260|72:260|108:264,1,62.9999980773926
344,124,200057,5,10,0:2:0:0:
293,77,200136,1,2,0:2:0:0:
234,102,200215,1,2,0:2:0:0:
234,102,200294,1,0,0:0:0:0:
234,102,200373,2,0,P|231:144|222:192,1,62.9999980773926,8|0,0:0|0:0,0:0:0:0:
381,314,200530,1,2,0:2:0:0:
381,314,200609,1,0,0:0:0:0:
381,314,200688,2,0,P|384:272|393:224,1,62.9999980773926,8|0,0:0|0:0,0:0:0:0:
454,110,200846,1,2,0:2:0:0:
454,110,200925,1,0,0:0:0:0:
454,110,201004,2,0,P|412:107|364:98,1,62.9999980773926,8|0,0:0|0:0,0:0:0:0:
189,298,201162,1,2,0:2:0:0:
189,298,201241,1,0,0:0:0:0:
189,298,201320,2,0,P|231:301|279:310,1,62.9999980773926,8|0,0:0|0:0,0:0:0:0:
121,343,201478,5,2,0:2:0:0:
70,349,201557,1,0,0:0:0:0:
26,324,201636,1,8,0:0:0:0:
10,275,201715,1,0,0:0:0:0:
30,228,201794,2,0,P|62:223|101:220,1,62.9999980773926,8|0,0:0|0:0,0:0:0:0:
251,108,201952,5,4,0:1:0:0:
249,102,202030,1,8,0:0:0:0:
247,95,202109,1,12,0:0:0:0:
245,88,202188,1,4,0:0:0:0:
243,81,202267,1,12,0:0:0:0:
241,74,202346,1,4,0:0:0:0:
239,67,202425,1,4,0:0:0:0:
237,60,202504,1,4,0:0:0:0:
235,53,202583,1,12,0:0:0:0:
233,46,202662,1,4,0:0:0:0:
232,41,202741,1,6,0:1:0:0:
256,192,202820,12,10,204636,0:1:0:0:
419,345,205267,5,6,0:1:0:0:
463,284,205583,1,0,0:0:0:0:
441,213,205741,1,0,0:0:0:0:
306,184,205899,1,14,0:1:0:0:
378,172,206057,1,2,0:1:0:0:
426,111,206373,1,2,0:0:0:0:
408,38,206688,1,2,0:0:0:0:
392,20,206767,1,0,0:0:0:0:
365,11,206846,1,0,0:0:0:0:
289,5,207004,1,0,0:0:0:0:
209,117,207162,1,10,0:0:0:0:
219,43,207320,1,2,0:0:0:0:
149,3,207636,1,10,0:0:0:0:
27,191,207794,5,6,0:1:0:0:
73,255,208109,1,0,0:0:0:0:
150,264,208267,1,0,0:0:0:0:
209,144,208425,1,10,0:0:0:0:
213,218,208583,1,2,0:0:0:0:
278,261,208899,1,2,0:0:0:0:
348,287,209215,1,2,0:0:0:0:
375,288,209294,1,0,0:0:0:0:
399,273,209373,1,0,0:0:0:0:
435,205,209530,1,0,0:0:0:0:
317,115,209688,1,10,0:0:0:0:
398,128,209846,1,2,0:0:0:0:
461,73,210162,1,10,0:0:0:0:
220,18,210320,5,6,0:1:0:0:
227,93,210636,1,0,0:0:0:0:
234,169,210794,1,0,0:0:0:0:
251,320,210952,1,14,0:1:0:0:
241,245,211109,1,2,0:0:0:0:
234,169,211425,1,2,0:0:0:0:
74,120,211583,5,2,0:0:0:0:
74,120,211662,1,0,0:0:0:0:
74,120,211741,1,10,0:0:0:0:
26,192,211899,1,0,0:0:0:0:
30,196,212057,1,0,0:0:0:0:
114,343,212215,5,6,0:1:0:0:
233,333,212373,1,2,0:0:0:0:
351,323,212530,1,2,0:0:0:0:
471,230,212688,5,10,0:0:0:0:
433,198,212767,1,8,0:0:0:0:
388,217,212846,1,6,0:2:0:0:
373,88,213004,1,8,0:0:0:0:
223,78,213162,1,0,0:0:0:0:
223,78,213241,1,0,0:0:0:0:
223,78,213320,1,8,0:0:0:0:
169,190,213478,1,0,0:0:0:0:
268,275,213636,1,8,0:0:0:0:
266,175,213794,1,0,0:0:0:0:
171,282,213952,1,8,0:0:0:0:
90,127,214109,5,2,0:2:0:0:
0,22,214267,2,0,P|4:66|8:111,1,83.9999974365235,8|0,0:0|0:0,0:0:0:0:
49,38,214504,1,0,0:0:0:0:
92,12,214583,1,10,0:2:0:0:
206,62,214741,1,0,0:0:0:0:
90,127,214899,1,8,0:0:0:0:
266,175,215057,2,0,P|262:131|258:86,1,83.9999974365235,2|8,0:2|0:0,0:0:0:0:
486,345,215373,5,6,0:2:0:0:
405,354,215530,1,8,0:0:0:0:
367,349,215609,1,0,0:0:0:0:
329,345,215688,1,0,0:0:0:0:
291,341,215767,1,0,0:0:0:0:
253,337,215846,1,8,0:0:0:0:
168,366,216004,1,0,0:0:0:0:
203,262,216162,1,8,0:0:0:0:
114,192,216320,1,0,0:0:0:0:
14,236,216478,1,8,0:0:0:0:
7,62,216636,5,2,0:2:0:0:
87,88,216794,1,10,0:0:0:0:
124,85,216873,1,2,0:0:0:0:
161,82,216952,1,2,0:0:0:0:
198,77,217030,1,2,0:0:0:0:
234,73,217109,1,10,0:2:0:0:
307,120,217267,1,0,0:0:0:0:
358,49,217425,1,8,0:0:0:0:
456,125,217583,5,2,0:2:0:0:
336,270,217741,1,8,0:0:0:0:
167,189,217899,1,6,0:2:0:0:
166,304,218057,5,8,0:0:0:0:
243,238,218215,1,0,0:0:0:0:
243,238,218294,1,0,0:0:0:0:
243,238,218373,1,8,0:0:0:0:
336,270,218530,1,0,0:0:0:0:
316,370,218688,1,8,0:0:0:0:
216,384,218846,1,0,0:0:0:0:
166,304,219004,1,8,0:0:0:0:
220,97,219162,5,0,0:0:0:0:
134,29,219320,1,8,0:0:0:0:
38,75,219478,1,0,0:0:0:0:
38,75,219557,1,0,0:0:0:0:
38,75,219636,1,8,0:0:0:0:
46,176,219794,1,0,0:0:0:0:
157,200,219952,1,8,0:0:0:0:
201,194,220030,1,8,0:0:0:0:
246,188,220109,1,8,0:0:0:0:
291,182,220188,1,8,0:0:0:0:
335,175,220267,1,8,0:0:0:0:
381,169,220346,1,8,0:0:0:0:
422,165,220425,2,0,P|414:128|410:87,1,62.9999980773926,14|0,0:0|0:0,0:0:0:0:
280,77,220583,5,4,0:0:0:0:
278,34,220662,1,0,0:0:0:0:
306,1,220741,1,0,0:0:0:0:
349,5,220820,1,0,0:0:0:0:
379,32,220899,2,0,P|385:68|392:111,1,62.9999980773926,14|0,0:0|0:0,0:0:0:0:
143,92,221057,5,4,0:0:0:0:
141,49,221136,1,0,0:0:0:0:
167,16,221215,1,4,0:0:0:0:
212,20,221294,1,0,0:0:0:0:
242,48,221373,2,0,P|248:84|255:127,1,62.9999980773926,14|0,0:0|0:0,0:0:0:0:
157,199,221530,2,0,P|163:235|170:278,1,62.9999980773926,14|0,0:0|0:0,0:0:0:0:
114,384,221688,5,10,0:0:0:0:
164,378,221767,1,10,0:0:0:0:
214,374,221846,1,10,0:0:0:0:
264,368,221925,1,10,0:0:0:0:
314,362,222004,1,10,0:0:0:0:
364,355,222083,1,10,0:0:0:0:
414,348,222162,1,10,0:0:0:0:
464,342,222241,1,10,0:0:0:0:
512,333,222320,1,10,0:0:0:0:
512,281,222952,5,6,0:2:0:0:
487,100,223109,1,8,0:0:0:0:
348,227,223267,1,2,0:2:0:0:
314,221,223346,1,0,0:0:0:0:
304,187,223425,1,8,0:0:0:0:
212,98,223583,6,0,L|-1:114,2,210,2|2|10,0:2|0:2|0:2,0:0:0:0:
231,141,224136,5,0,0:0:0:0:
228,181,224215,1,2,0:2:0:0:
222,258,224373,1,10,0:2:0:0:
225,219,224452,1,2,0:2:0:0:
220,298,224609,1,2,0:2:0:0:
218,339,224688,1,10,0:2:0:0:
165,290,224846,5,2,0:2:0:0:
274,239,225004,1,10,0:0:0:0:
174,159,225162,1,2,0:0:0:0:
288,87,225320,1,10,0:0:0:0:
186,11,225478,1,6,0:2:0:0:
381,7,225636,5,10,0:2:0:0:
466,109,225794,1,2,0:2:0:0:
455,153,225873,1,0,0:0:0:0:
409,158,225952,2,0,B|339:180|339:180|253:119,1,140,10|0,0:2|0:0,0:0:0:0:
98,90,226267,5,10,0:2:0:0:
13,205,226425,1,0,0:0:0:0:
85,328,226583,1,8,0:2:0:0:
278,362,226741,6,0,L|418:338,1,140,6|10,0:2|0:2,0:0:0:0:
438,302,226978,1,2,0:2:0:0:
444,260,227057,1,0,0:0:0:0:
431,219,227136,1,2,0:2:0:0:
404,186,227215,1,10,0:2:0:0:
171,223,227373,1,6,0:2:0:0:
222,98,227530,1,8,0:0:0:0:
366,167,227688,1,4,0:0:0:0:
404,186,227767,1,4,0:0:0:0:
431,219,227846,1,4,0:0:0:0:
444,260,227925,1,4,0:0:0:0:
438,302,228004,1,4,0:0:0:0:
334,258,228162,5,6,0:2:0:0:
308,67,228320,1,0,0:2:0:0:
110,99,228478,1,8,0:2:0:0:
142,293,228636,2,0,B|190:275|190:275|287:303,1,140,2|8,0:2|0:0,0:0:0:0:
366,167,228952,2,0,B|318:149|318:149|221:177,1,140,2|8,0:2|0:0,0:0:0:0:
194,155,229188,5,0,0:0:0:0:
164,125,229267,1,2,0:2:0:0:
175,45,229425,1,10,0:2:0:0:
159,84,229504,1,2,0:2:0:0:
209,21,229662,1,2,0:2:0:0:
250,18,229741,1,10,0:2:0:0:
376,65,229899,5,2,0:2:0:0:
416,255,230057,1,10,0:0:0:0:
376,65,230215,1,2,0:0:0:0:
416,255,230373,1,10,0:0:0:0:
376,65,230530,1,6,0:1:0:0:
490,145,230688,5,2,0:0:0:0:
441,153,230767,1,2,0:0:0:0:
392,163,230846,1,2,0:0:0:0:
344,173,230925,1,2,0:0:0:0:
296,184,231004,1,10,0:2:0:0:
198,206,231162,1,0,0:0:0:0:
296,184,231320,1,10,0:2:0:0:
392,163,231478,1,0,0:0:0:0:
490,145,231636,1,8,0:0:0:0:
317,75,231794,5,6,0:2:0:0:
228,110,231952,1,8,0:0:0:0:
186,106,232030,1,2,0:2:0:0:
145,115,232109,1,0,0:0:0:0:
117,147,232188,1,0,0:0:0:0:
113,188,232267,1,10,0:2:0:0:
39,263,232425,5,2,0:2:0:0:
112,345,232583,1,8,0:0:0:0:
155,367,232662,1,8,0:0:0:0:
204,368,232741,1,8,0:0:0:0:
248,347,232820,1,8,0:0:0:0:
265,301,232899,1,8,0:0:0:0:
261,252,232978,1,8,0:0:0:0:
227,216,233057,6,0,B|187:209|187:209|151:228,1,77.0000023498536,6|0,0:2|0:0,0:0:0:0:
248,104,233215,1,8,0:0:0:0:
248,104,233294,2,0,B|255:64|255:64|236:28,1,77.0000023498536,2|0,0:2|0:0,0:0:0:0:
378,123,233452,1,0,0:0:0:0:
378,123,233531,2,0,B|418:130|418:130|454:111,1,77.0000023498536,10|0,0:2|0:0,0:0:0:0:
358,243,233688,2,0,B|351:283|351:283|370:319,1,77.0000023498536
185,289,233846,6,0,B|146:271|146:271|58:304|58:304|-16:249,2,195.999994018555,10|2|10,0:2|0:2|0:2,0:0:0:0:
256,185,234241,5,0,0:0:0:0:
185,184,234320,2,0,B|127:212|73:168|80:117,1,154.000004699707,2|8,0:2|0:0,0:0:0:0:
0,11,234557,1,2,0:2:0:0:
71,12,234636,2,0,B|129:-16|182:27|175:78,1,154.000004699707,0|10,0:0|0:2,0:0:0:0:
287,262,234873,1,0,0:0:0:0:
358,243,234952,6,0,B|362:214|362:214|369:193|369:193|368:166|368:166|376:135|376:135|377:103|377:103|393:64|393:64|397:24,2,224,2|10|2,0:2|0:2|0:2,0:0:0:0:
459,142,235425,1,8,0:0:0:0:
250,131,235583,6,0,B|235:162|235:162|254:201,1,77.0000023498536,2|0,0:2|0:0,0:0:0:0:
260,325,235741,1,8,0:0:0:0:
260,325,235820,2,0,B|291:341|291:341|330:322,1,77.0000023498536,2|0,0:2|0:0,0:0:0:0:
461,353,235978,1,0,0:0:0:0:
461,353,236057,2,0,B|477:323|477:323|458:284,1,77.0000023498536,10|0,0:2|0:0,0:0:0:0:
459,142,236215,2,0,B|429:127|429:127|391:146,1,77.0000023498536,0|0,0:2|0:0,0:0:0:0:
197,270,236373,6,0,B|49:306|49:306|-7:257,2,195.999994018555,10|2|10,0:2|0:2|0:2,0:0:0:0:
319,102,236767,5,0,0:0:0:0:
250,131,236846,2,0,B|170:118|170:118|137:194,1,154.000004699707,2|8,0:2|0:0,0:0:0:0:
85,122,237083,1,2,0:2:0:0:
102,81,237162,1,0,0:0:0:0:
123,45,237241,1,0,0:0:0:0:
168,44,237320,1,10,0:2:0:0:
113,289,237478,5,12,0:0:0:0:
104,291,237557,1,0,0:0:0:0:
95,293,237636,1,8,0:0:0:0:
86,295,237715,1,4,0:0:0:0:
77,297,237794,1,4,0:0:0:0:
68,299,237873,1,4,0:0:0:0:
59,301,237952,1,8,0:0:0:0:
50,303,238030,1,0,0:0:0:0:
25,270,238109,5,2,0:2:0:0:
33,253,238188,2,0,B|63:243|63:243|107:260,1,70,0|8,0:0|0:0,0:0:0:0:
182,151,238346,1,2,0:2:0:0:
174,168,238425,2,0,B|144:178|144:178|100:161,1,70
12,166,238583,1,10,0:2:0:0:
9,145,238662,1,0,0:0:0:0:
7,124,238741,1,0,0:0:0:0:
6,103,238820,1,0,0:0:0:0:
7,82,238899,5,10,0:2:0:0:
41,58,238978,1,0,0:0:0:0:
81,68,239057,1,2,0:2:0:0:
108,99,239136,1,0,0:0:0:0:
146,115,239215,1,10,0:2:0:0:
187,107,239294,1,0,0:0:0:0:
207,70,239373,5,2,0:2:0:0:
197,57,239452,2,0,L|203:161,1,70,0|8,0:0|0:0,0:0:0:0:
300,194,239609,5,2,0:2:0:0:
310,207,239688,2,0,L|307:104,1,70
415,55,239846,6,0,L|409:159,1,70,10|0,0:2|0:0,0:0:0:0:
483,293,240004,5,2,0:2:0:0:
437,291,240083,1,0,0:0:0:0:
391,291,240162,1,10,0:2:0:0:
345,288,240241,1,0,0:0:0:0:
299,288,240320,1,2,0:2:0:0:
253,284,240399,1,2,0:2:0:0:
207,280,240478,1,10,0:2:0:0:
161,277,240557,1,2,0:2:0:0:
126,305,240636,5,2,0:2:0:0:
110,312,240715,2,0,B|87:305|87:305|81:248,1,70,0|8,0:0|0:0,0:0:0:0:
0,125,240873,1,2,0:2:0:0:
16,118,240952,2,0,B|39:125|39:125|45:182,1,70
170,176,241109,1,10,0:2:0:0:
190,171,241188,1,0,0:0:0:0:
210,165,241267,1,0,0:0:0:0:
230,162,241346,1,0,0:0:0:0:
250,157,241425,5,10,0:2:0:0:
281,184,241504,1,0,0:0:0:0:
322,192,241583,1,2,0:2:0:0:
363,189,241662,1,0,0:0:0:0:
395,162,241741,1,10,0:2:0:0:
412,123,241820,1,0,0:0:0:0:
401,79,241899,5,2,0:2:0:0:
386,92,241978,2,0,B|355:86|355:86|344:78|344:78|319:75,1,70,0|8,0:0|0:0,0:0:0:0:
168,160,242136,5,2,0:2:0:0:
183,173,242215,2,0,B|214:167|214:167|225:159|225:159|250:156,1,70
396,260,242373,5,10,0:0:0:0:
447,321,242452,1,10,0:0:0:0:
399,383,242530,2,0,B|201:385|273:248|196:153|34:188,1,420.000016021729,4|2,0:1|0:0,0:0:0:0:
31,109,243320,5,0,0:0:0:0:
31,109,243478,1,0,0:0:0:0:
31,109,243636,1,0,0:0:0:0:
193,47,243794,5,2,0:0:0:0:
158,115,243952,1,0,0:0:0:0:
203,177,244109,1,0,0:0:0:0:
203,177,244267,1,0,0:0:0:0:
203,177,244425,1,0,0:0:0:0:
148,334,244583,5,0,0:0:0:0:
215,300,244741,1,0,0:0:0:0:
161,247,244899,1,0,0:0:0:0:
93,275,245057,1,0,0:0:0:0:
373,353,245688,5,4,0:1:0:0:
337,227,245846,1,10,0:2:0:0:
454,169,246004,1,2,0:2:0:0:
490,290,246162,1,10,0:2:0:0:
397,203,246320,5,2,0:2:0:0:
279,256,246478,1,10,0:2:0:0:
184,176,246636,1,2,0:2:0:0:
163,134,246715,1,0,0:0:0:0:
181,91,246794,2,0,B|225:117|285:106|276:20|361:15|426:53,1,251.999992309571,10|10,0:2|0:2,0:0:0:0:
67,11,247267,5,2,0:2:0:0:
12,100,247425,1,8,0:0:0:0:
84,135,247583,1,0,0:0:0:0:
129,224,247741,1,8,0:0:0:0:
60,257,247899,1,0,0:0:0:0:
60,257,247978,1,0,0:0:0:0:
60,257,248057,1,8,0:0:0:0:
36,355,248215,1,0,0:0:0:0:
217,356,248373,5,10,0:2:0:0:
358,311,248530,1,2,0:2:0:0:
300,171,248688,1,10,0:2:0:0:
390,0,248846,1,2,0:2:0:0:
161,62,249004,1,10,0:2:0:0:
261,278,249162,1,2,0:2:0:0:
261,278,249241,1,0,0:0:0:0:
261,278,249320,2,0,B|308:249|308:249|363:260|363:260|411:217|411:217|522:232,1,251.999992309571,8|10,0:0|0:2,0:0:0:0:
181,335,249794,5,2,0:2:0:0:
75,326,249952,1,8,0:0:0:0:
21,234,250109,1,0,0:0:0:0:
110,71,250267,5,12,0:2:0:0:
129,237,250425,1,0,0:0:0:0:
129,237,250504,1,0,0:0:0:0:
129,237,250583,1,12,0:2:0:0:
283,160,250741,1,0,0:0:0:0:
221,74,250899,5,10,0:2:0:0:
336,63,251057,1,2,0:2:0:0:
454,53,251215,1,10,0:2:0:0:
283,160,251373,5,2,0:2:0:0:
168,149,251531,1,10,0:2:0:0:
50,139,251689,1,2,0:2:0:0:
20,175,251767,1,0,0:0:0:0:
44,217,251846,2,0,P|129:189|72:45,1,251.999992309571,10|10,0:2|0:2,0:0:0:0:
211,273,252320,5,2,0:2:0:0:
299,323,252478,1,8,0:0:0:0:
364,266,252636,1,0,0:0:0:0:
473,247,252794,1,8,0:0:0:0:
438,171,252952,1,0,0:0:0:0:
438,171,253030,1,0,0:0:0:0:
438,171,253109,1,8,0:0:0:0:
496,88,253267,1,0,0:0:0:0:
377,19,253425,5,10,0:2:0:0:
221,14,253583,1,2,0:2:0:0:
189,154,253741,1,10,0:2:0:0:
0,97,253899,1,2,0:2:0:0:
231,88,254057,1,10,0:2:0:0:
270,322,254215,1,2,0:2:0:0:
270,322,254294,1,0,0:0:0:0:
270,322,254373,1,8,0:0:0:0:
64,266,254530,6,0,L|169:245,1,62.9999980773926,6|4,0:1|0:0,0:0:0:0:
239,229,254688,6,0,L|344:208,1,62.9999980773926,6|4,0:0|0:0,0:0:0:0:
417,187,254846,6,0,L|522:166,1,62.9999980773926,6|4,0:0|0:0,0:0:0:0:
449,93,255004,5,6,0:0:0:0:
440,58,255083,1,4,0:0:0:0:
411,38,255162,1,4,0:0:0:0:
375,37,255241,1,4,0:0:0:0:
344,54,255320,1,0,0:0:0:0:
191,16,255478,1,8,0:0:0:0:
121,147,255636,1,8,0:0:0:0:
87,184,255715,1,8,0:0:0:0:
39,175,255794,6,0,B|90:164|90:164|101:167|101:167|188:149,1,125.999996154785,6|8,0:2|0:0,0:0:0:0:
163,229,256030,2,0,B|191:185|191:185|202:179|202:179|250:105,1,125.999996154785
287,187,256267,2,0,B|276:135|276:135|279:124|279:124|261:37,1,125.999996154785,10|0,0:2|0:0,0:0:0:0:
394,303,256583,5,10,0:2:0:0:
350,289,256662,1,2,0:2:0:0:
358,242,256741,1,2,0:2:0:0:
389,234,256820,1,0,0:0:0:0:
420,226,256899,1,8,0:0:0:0:
451,217,256978,1,0,0:0:0:0:
481,209,257057,1,2,0:2:0:0:
509,171,257136,1,2,0:2:0:0:
481,134,257215,2,0,B|435:150|435:150|424:256,1,125.999996154785,10|0,0:2|0:0,0:0:0:0:
187,106,257530,5,10,0:2:0:0:
135,101,257609,1,2,0:2:0:0:
82,97,257688,1,2,0:2:0:0:
84,128,257767,1,0,0:0:0:0:
88,159,257846,1,8,0:0:0:0:
92,190,257925,1,0,0:0:0:0:
123,211,258004,1,2,0:2:0:0:
126,238,258083,1,0,0:0:0:0:
130,266,258162,1,8,0:0:0:0:
134,294,258241,1,0,0:0:0:0:
170,323,258320,1,2,0:2:0:0:
176,322,258399,1,0,0:0:0:0:
182,321,258478,1,8,0:0:0:0:
188,320,258557,1,0,0:0:0:0:
194,319,258636,1,2,0:2:0:0:
200,318,258715,1,0,0:0:0:0:
206,317,258794,1,8,0:0:0:0:
212,316,258873,1,0,0:0:0:0:
218,315,258952,1,2,0:2:0:0:
224,314,259030,1,0,0:0:0:0:
230,313,259109,1,8,0:0:0:0:
236,312,259188,1,0,0:0:0:0:
242,311,259267,1,2,0:2:0:0:
248,310,259346,1,0,0:0:0:0:
254,309,259425,1,8,0:0:0:0:
260,308,259504,1,0,0:0:0:0:
266,307,259583,1,2,0:2:0:0:
355,249,259741,5,10,0:2:0:0:
370,207,259820,1,2,0:2:0:0:
383,165,259899,1,2,0:2:0:0:
344,143,259978,1,2,0:2:0:0:
302,126,260057,1,10,0:2:0:0:
284,166,260136,1,2,0:2:0:0:
266,206,260215,1,2,0:2:0:0:
164,235,260373,1,12,0:2:0:0:
65,196,260530,2,0,L|1:208,2,62.9999980773926,0|0|8,0:0|0:0|0:0,0:0:0:0:
107,62,260846,5,2,0:2:0:0:
151,59,260925,1,2,0:2:0:0:
195,55,261004,1,10,0:2:0:0:
239,51,261083,1,0,0:0:0:0:
273,24,261162,1,2,0:2:0:0:
289,65,261241,1,2,0:2:0:0:
307,106,261320,1,10,0:2:0:0:
324,146,261399,1,0,0:0:0:0:
353,178,261478,1,2,0:2:0:0:
319,206,261557,1,2,0:2:0:0:
286,236,261636,1,10,0:2:0:0:
253,264,261715,1,0,0:0:0:0:
233,303,261794,1,2,0:2:0:0:
196,280,261873,1,2,0:2:0:0:
157,258,261952,2,0,P|119:237|88:216,1,62.9999980773926,10|0,0:2|0:0,0:0:0:0:
129,82,262109,5,2,0:2:0:0:
164,79,262188,1,2,0:2:0:0:
200,75,262267,1,10,0:2:0:0:
235,73,262346,1,0,0:0:0:0:
262,51,262425,1,2,0:2:0:0:
275,84,262504,1,2,0:2:0:0:
289,116,262583,1,10,0:2:0:0:
302,148,262662,1,0,0:0:0:0:
329,169,262741,1,2,0:2:0:0:
299,196,262820,1,2,0:2:0:0:
272,220,262899,1,10,0:2:0:0:
246,242,262978,1,0,0:0:0:0:
229,274,263057,1,2,0:2:0:0:
200,255,263136,1,2,0:2:0:0:
168,238,263215,1,10,0:2:0:0:
140,220,263294,1,0,0:0:0:0:
102,226,263373,6,0,B|60:236|60:236|25:269,1,77.0000023498536,6|4,0:0|0:0,0:0:0:0:
70,128,263530,1,8,0:0:0:0:
70,128,263609,1,0,0:0:0:0:
70,128,263688,2,0,B|35:151|35:151|-54:149,1,77.0000023498536
203,165,263846,5,8,0:0:0:0:
220,158,263925,1,4,0:0:0:0:
207,150,264004,2,0,B|183:133|183:133|189:101|189:101|214:122|214:122|211:146,3,97.9999970092774,4|0|0|0,0:0|0:0|0:0|0:0,0:0:0:0:
335,156,264320,6,0,B|378:159|378:159|421:138,1,77.0000023498536,4|0,0:0|0:0,0:0:0:0:
301,47,264477,1,10,0:2:0:0:
301,47,264556,1,0,0:0:0:0:
301,47,264636,2,0,B|324:12|324:12|406:-20,1,77.0000023498536,2|0,0:2|0:0,0:0:0:0:
456,48,264794,5,8,0:0:0:0:
470,51,264873,1,4,0:0:0:0:
484,54,264952,1,4,0:0:0:0:
498,56,265030,1,0,0:0:0:0:
512,59,265109,1,0,0:0:0:0:
494,254,265267,5,10,0:0:0:0:
459,293,265346,1,8,0:0:0:0:
408,289,265425,1,8,0:0:0:0:
376,250,265583,1,10,0:0:0:0:
342,212,265662,1,8,0:0:0:0:
290,216,265741,1,8,0:0:0:0:
49,356,265899,5,4,0:1:0:0:
