osu file format v14

[General]
AudioFilename: audio.mp3
AudioLeadIn: 0
PreviewTime: 66932
Countdown: 0
SampleSet: Soft
StackLeniency: 0.7
Mode: 0
LetterboxInBreaks: 0
WidescreenStoryboard: 0

[Editor]
DistanceSpacing: 0.8
BeatDivisor: 4
GridSize: 8
TimelineZoom: 1

[Metadata]
Title:Flappie
TitleUnicode:Flappie
Artist:Youp van 't Hek
ArtistUnicode:Youp van 't Hek
Creator:Lorenzo
Version:Tweede kerstdag
Source:
Tags:
BeatmapID:1246064
BeatmapSetID:588595

[Difficulty]
HPDrainRate:5
CircleSize:4
OverallDifficulty:7.1
ApproachRate:8.3
SliderMultiplier:1.4
SliderTickRate:1

[Events]
//Background and Video events
0,0,"17410277_693868404131012_956042085_n.png",0,0
//Break Periods
2,62208,66456
2,115223,122793
2,173162,177296
//Storyboard Layer 0 (Background)
//Storyboard Layer 1 (Fail)
//Storyboard Layer 2 (Pass)
//Storyboard Layer 3 (Foreground)
//Storyboard Sound Samples

[TimingPoints]
1207,458.015267175573,4,2,0,100,1,0

[HitObjects]
40,40,15405,6,0,L|80:112,1,70
128,272,15863,1,0,0:0:0:0:
200,40,16092,1,0,0:0:0:0:
256,264,16321,1,0,0:0:0:0:
344,56,16550,1,0,0:0:0:0:
440,160,16779,6,0,L|400:232,1,70
256,288,17237,1,0,0:0:0:0:
56,192,17466,1,0,0:0:0:0:
144,56,17695,1,0,0:0:0:0:
344,136,17924,1,0,0:0:0:0:
368,288,18153,6,0,L|280:304,1,70
80,240,18611,1,0,0:0:0:0:
168,64,18840,1,0,0:0:0:0:
408,176,19069,1,0,0:0:0:0:
136,344,19298,1,0,0:0:0:0:
80,200,19527,6,0,L|144:144,1,70
288,56,19985,1,0,0:0:0:0:
408,256,20214,1,0,0:0:0:0:
112,312,20443,1,0,0:0:0:0:
208,32,20672,1,0,0:0:0:0:
432,96,20901,6,0,L|384:176,1,70
304,280,21359,1,0,0:0:0:0:
72,240,21588,1,0,0:0:0:0:
160,48,21817,1,0,0:0:0:0:
192,304,22046,1,0,0:0:0:0:
384,304,22275,6,0,L|368:224,1,70
424,40,22733,1,0,0:0:0:0:
144,80,22962,1,0,0:0:0:0:
104,304,23191,1,0,0:0:0:0:
416,152,23420,1,0,0:0:0:0:
80,48,23649,6,0,L|80:144,1,70
176,304,24107,1,0,0:0:0:0:
240,48,24336,1,0,0:0:0:0:
432,160,24565,1,0,0:0:0:0:
304,360,24794,1,0,0:0:0:0:
64,240,25023,6,0,L|80:152,1,70
248,72,25481,1,0,0:0:0:0:
144,352,25710,1,0,0:0:0:0:
408,96,25939,1,0,0:0:0:0:
416,352,26168,1,0,0:0:0:0:
80,208,26397,6,0,L|96:112,1,70
232,56,26855,1,0,0:0:0:0:
168,296,27084,1,0,0:0:0:0:
352,48,27313,1,0,0:0:0:0:
384,280,27542,1,0,0:0:0:0:
192,24,27771,1,0,0:0:0:0:
336,224,28000,2,0,L|384:280,1,70
64,40,29374,5,0,0:0:0:0:
80,256,29603,1,0,0:0:0:0:
200,56,29832,1,0,0:0:0:0:
288,280,30061,1,0,0:0:0:0:
432,176,30290,2,0,L|440:80,1,70
224,72,30748,5,0,0:0:0:0:
40,224,30977,1,0,0:0:0:0:
336,312,31207,1,0,0:0:0:0:
336,64,31436,1,0,0:0:0:0:
472,80,31665,2,0,L|432:160,1,70
120,48,32123,5,0,0:0:0:0:
296,200,32352,1,0,0:0:0:0:
88,344,32581,1,0,0:0:0:0:
120,48,32810,1,0,0:0:0:0:
384,48,33039,2,0,L|480:48,1,70
240,136,33497,5,0,0:0:0:0:
56,328,33726,1,0,0:0:0:0:
376,304,33955,1,0,0:0:0:0:
80,32,34184,1,0,0:0:0:0:
416,48,34413,2,0,L|352:120,1,70
176,280,34871,5,0,0:0:0:0:
104,88,35100,1,0,0:0:0:0:
312,96,35329,1,0,0:0:0:0:
272,256,35558,1,0,0:0:0:0:
96,192,35787,2,0,L|152:128,1,70
368,40,36245,5,0,0:0:0:0:
296,240,36474,1,0,0:0:0:0:
80,56,36703,1,0,0:0:0:0:
112,288,36932,1,0,0:0:0:0:
240,40,37161,2,0,L|304:120,1,70
384,248,37619,5,0,0:0:0:0:
48,192,37848,1,0,0:0:0:0:
272,24,38077,1,0,0:0:0:0:
200,240,38306,1,0,0:0:0:0:
400,176,38535,2,0,L|416:96,1,70
80,56,38993,5,0,0:0:0:0:
168,320,39222,1,0,0:0:0:0:
232,56,39451,1,0,0:0:0:0:
352,296,39680,1,0,0:0:0:0:
376,136,39909,2,0,L|448:72,1,70
32,64,40367,5,0,0:0:0:0:
32,216,40596,1,0,0:0:0:0:
128,56,40825,1,0,0:0:0:0:
136,216,41054,1,0,0:0:0:0:
240,56,41283,1,0,0:0:0:0:
240,216,41512,1,0,0:0:0:0:
440,152,41741,2,0,L|384:80,1,70
80,48,43344,6,0,L|128:120,1,70
256,200,43802,1,0,0:0:0:0:
256,32,44260,1,0,0:0:0:0:
256,360,44718,1,0,0:0:0:0:
256,32,45176,1,0,0:0:0:0:
256,360,45405,1,0,0:0:0:0:
256,248,45634,1,0,0:0:0:0:
256,128,45863,1,0,0:0:0:0:
256,24,46092,2,0,L|352:24,1,70
40,48,47237,6,0,L|104:128,1,70
224,176,47695,1,0,0:0:0:0:
328,48,47924,1,0,0:0:0:0:
416,176,48153,1,0,0:0:0:0:
312,328,48382,1,0,0:0:0:0:
48,336,48611,1,0,0:0:0:0:
216,232,48840,1,0,0:0:0:0:
344,96,49069,1,0,0:0:0:0:
88,144,49298,2,0,L|176:104,1,70
112,80,50443,6,0,L|168:152,1,70
264,200,50901,1,0,0:0:0:0:
440,48,51130,1,0,0:0:0:0:
392,312,51359,1,0,0:0:0:0:
48,280,51588,1,0,0:0:0:0:
112,136,51817,1,0,0:0:0:0:
288,144,52046,2,0,L|368:136,1,70
88,48,52733,6,0,L|152:120,3,70
256,32,54222,5,0,0:0:0:0:
256,344,54451,1,0,0:0:0:0:
408,104,54680,1,0,0:0:0:0:
112,264,54909,1,0,0:0:0:0:
120,96,55481,5,0,0:0:0:0:
368,288,55710,1,0,0:0:0:0:
256,48,55939,1,0,0:0:0:0:
136,288,56168,1,0,0:0:0:0:
368,128,56397,1,0,0:0:0:0:
56,40,58000,6,0,L|104:96,1,70
176,176,58458,1,0,0:0:0:0:
408,40,58687,1,0,0:0:0:0:
416,248,58916,1,0,0:0:0:0:
72,280,59145,1,0,0:0:0:0:
264,216,59374,2,0,L|264:64,1,140
416,64,60061,2,0,L|416:232,1,140
200,128,61321,5,0,0:0:0:0:
296,248,61550,1,0,0:0:0:0:
128,56,61779,1,0,0:0:0:0:
360,320,62008,1,0,0:0:0:0:
184,112,67160,6,0,L|248:184,1,70
352,128,67619,2,0,L|288:168,1,70
184,272,68077,2,0,L|248:216,1,70
336,288,68535,2,0,L|280:216,1,70
256,144,69107,5,0,0:0:0:0:
256,224,69336,1,0,0:0:0:0:
184,80,69565,1,0,0:0:0:0:
328,296,69794,1,0,0:0:0:0:
328,32,70023,1,0,0:0:0:0:
168,336,70252,1,0,0:0:0:0:
256,184,70481,2,0,L|176:136,1,70
48,64,70939,5,0,0:0:0:0:
64,216,71168,1,0,0:0:0:0:
216,264,71397,1,0,0:0:0:0:
280,48,71626,1,0,0:0:0:0:
432,192,71855,1,0,0:0:0:0:
376,304,72084,6,0,L|232:336,1,140
88,48,72886,5,0,0:0:0:0:
408,336,73115,1,0,0:0:0:0:
160,112,73344,1,0,0:0:0:0:
328,264,73573,1,0,0:0:0:0:
248,192,73802,2,0,L|384:96,1,140
96,56,74489,5,0,0:0:0:0:
160,216,74718,1,0,0:0:0:0:
424,176,74947,1,0,0:0:0:0:
256,320,75176,1,0,0:0:0:0:
312,32,75405,1,0,0:0:0:0:
392,176,75634,2,0,L|256:208,1,140
48,120,76321,5,0,0:0:0:0:
160,312,76550,1,0,0:0:0:0:
208,88,76779,1,0,0:0:0:0:
352,288,77008,1,0,0:0:0:0:
392,48,77237,1,0,0:0:0:0:
472,296,77466,2,0,L|472:192,1,105
96,72,78153,5,0,0:0:0:0:
216,288,78382,1,0,0:0:0:0:
240,40,78611,1,0,0:0:0:0:
80,280,78840,1,0,0:0:0:0:
368,80,79069,1,0,0:0:0:0:
384,320,79298,2,0,L|304:224,1,105
96,48,80100,5,0,0:0:0:0:
144,312,80329,1,0,0:0:0:0:
376,32,80558,2,0,L|376:88,1,35
376,200,80901,1,0,0:0:0:0:
72,48,82161,6,0,L|144:104,1,70
72,304,82619,1,0,0:0:0:0:
232,40,82848,1,0,0:0:0:0:
336,296,83077,1,0,0:0:0:0:
472,40,83306,1,0,0:0:0:0:
64,64,83764,5,0,0:0:0:0:
200,320,83993,1,0,0:0:0:0:
288,40,84222,1,0,0:0:0:0:
392,320,84451,1,0,0:0:0:0:
496,32,84680,1,0,0:0:0:0:
256,32,84909,2,0,L|256:128,1,70
208,184,85367,5,0,0:0:0:0:
304,184,85596,1,0,0:0:0:0:
136,184,85825,1,0,0:0:0:0:
376,184,86054,1,0,0:0:0:0:
64,184,86283,1,0,0:0:0:0:
448,184,86512,1,0,0:0:0:0:
256,184,86741,2,0,L|256:80,1,105
256,32,87313,5,0,0:0:0:0:
256,192,87542,1,0,0:0:0:0:
256,368,87771,1,0,0:0:0:0:
256,192,88000,1,0,0:0:0:0:
256,16,88229,1,0,0:0:0:0:
64,40,88458,6,0,L|104:112,1,70
112,280,88916,1,0,0:0:0:0:
256,88,89145,1,0,0:0:0:0:
352,320,89374,1,0,0:0:0:0:
464,88,89603,1,0,0:0:0:0:
296,192,89832,6,0,L|224:264,1,70
64,176,90290,1,0,0:0:0:0:
272,176,90519,1,0,0:0:0:0:
144,320,90748,1,0,0:0:0:0:
288,32,90977,1,0,0:0:0:0:
440,88,91207,6,0,L|392:160,1,70
304,320,91665,1,0,0:0:0:0:
96,256,91894,1,0,0:0:0:0:
304,96,92123,1,0,0:0:0:0:
416,264,92352,1,0,0:0:0:0:
64,88,92581,6,0,L|128:152,1,70
240,72,93039,1,0,0:0:0:0:
216,272,93268,1,0,0:0:0:0:
416,80,93497,1,0,0:0:0:0:
384,280,93726,1,0,0:0:0:0:
112,224,93955,1,0,0:0:0:0:
192,64,94184,1,0,0:0:0:0:
448,80,94413,1,0,0:0:0:0:
256,328,94642,1,0,0:0:0:0:
464,32,96245,6,0,L|400:112,1,70
344,152,96703,1,0,0:0:0:0:
248,224,97161,1,0,0:0:0:0:
168,296,97619,1,0,0:0:0:0:
56,360,98077,1,0,0:0:0:0:
152,304,98306,1,0,0:0:0:0:
232,240,98535,1,0,0:0:0:0:
320,176,98764,1,0,0:0:0:0:
408,104,98993,2,0,L|456:48,1,70
56,40,100138,6,0,L|112:112,1,70
328,40,100596,1,0,0:0:0:0:
336,304,100825,1,0,0:0:0:0:
88,296,101054,1,0,0:0:0:0:
328,40,101283,1,0,0:0:0:0:
336,304,101512,1,0,0:0:0:0:
88,296,101741,1,0,0:0:0:0:
328,40,101970,1,0,0:0:0:0:
336,304,102199,2,0,L|256:248,1,70
416,32,103344,6,0,L|336:72,1,70
216,112,103802,1,0,0:0:0:0:
88,216,104031,1,0,0:0:0:0:
272,248,104260,1,0,0:0:0:0:
456,128,104489,1,0,0:0:0:0:
248,352,104718,2,0,L|256:264,1,70
112,72,105519,5,0,0:0:0:0:
280,72,105748,1,0,0:0:0:0:
128,208,105977,1,0,0:0:0:0:
384,248,106206,1,0,0:0:0:0:
160,72,107123,5,0,0:0:0:0:
336,112,107352,1,0,0:0:0:0:
144,232,107581,1,0,0:0:0:0:
328,288,107810,1,0,0:0:0:0:
328,296,108268,5,0,0:0:0:0:
144,248,108497,1,0,0:0:0:0:
352,152,108726,1,0,0:0:0:0:
176,64,108955,1,0,0:0:0:0:
264,136,109184,2,0,L|264:224,1,70
56,56,110901,6,0,L|136:96,1,70
104,272,111359,1,0,0:0:0:0:
312,80,111588,1,0,0:0:0:0:
400,296,111817,1,0,0:0:0:0:
224,312,112046,2,0,L|208:240,1,70
128,136,112504,5,0,0:0:0:0:
336,208,112733,1,0,0:0:0:0:
384,80,112962,1,0,0:0:0:0:
336,216,113191,2,0,L|280:280,1,70
112,280,113649,2,0,L|112:216,1,35
56,40,114336,5,0,0:0:0:0:
432,160,114565,1,0,0:0:0:0:
80,328,114794,1,0,0:0:0:0:
448,32,115023,1,0,0:0:0:0:
64,64,123497,6,0,L|144:104,1,70
88,272,123955,1,0,0:0:0:0:
304,64,124184,1,0,0:0:0:0:
416,280,124413,1,0,0:0:0:0:
176,248,124642,1,0,0:0:0:0:
96,128,124871,6,0,L|192:112,1,70
320,112,125329,1,0,0:0:0:0:
296,304,125558,1,0,0:0:0:0:
88,144,125787,1,0,0:0:0:0:
352,112,126016,1,0,0:0:0:0:
48,96,126245,6,0,L|112:160,1,70
136,256,126703,1,0,0:0:0:0:
336,72,126932,1,0,0:0:0:0:
416,200,127161,1,0,0:0:0:0:
208,296,127390,1,0,0:0:0:0:
72,208,127619,6,0,L|128:144,1,70
256,112,128077,2,0,L|336:160,1,70
320,280,128535,2,0,L|240:304,8,70
80,64,131512,6,0,L|168:112,1,70
112,280,131970,1,0,0:0:0:0:
336,64,132199,1,0,0:0:0:0:
392,296,132428,1,0,0:0:0:0:
224,144,132657,1,0,0:0:0:0:
72,200,132886,6,0,L|144:240,1,70
192,104,133344,1,0,0:0:0:0:
304,312,133573,1,0,0:0:0:0:
448,88,133802,1,0,0:0:0:0:
128,272,134031,1,0,0:0:0:0:
56,56,134260,2,0,L|152:88,1,70
104,288,135176,5,0,0:0:0:0:
288,48,135405,1,0,0:0:0:0:
416,288,135634,1,0,0:0:0:0:
104,128,135863,1,0,0:0:0:0:
272,216,136092,1,0,0:0:0:0:
88,72,136436,6,0,L|144:80,1,35
144,152,136665,2,0,L|96:152,1,35
256,56,136894,2,0,L|296:56,1,35
288,168,137123,2,0,L|240:168,1,35
376,56,137352,2,0,L|416:56,1,35
384,168,137581,2,0,L|432:168,3,35
104,88,138726,6,0,L|176:120,1,70
128,232,139184,1,0,0:0:0:0:
296,80,139413,1,0,0:0:0:0:
400,304,139642,1,0,0:0:0:0:
168,128,139871,1,0,0:0:0:0:
408,80,140100,6,0,L|368:152,1,70
200,248,140558,1,0,0:0:0:0:
64,112,140787,1,0,0:0:0:0:
360,80,141016,1,0,0:0:0:0:
280,256,141245,1,0,0:0:0:0:
120,112,141474,6,0,L|208:112,1,70
144,240,141932,1,0,0:0:0:0:
360,80,142161,1,0,0:0:0:0:
416,248,142390,1,0,0:0:0:0:
208,160,142619,1,0,0:0:0:0:
72,80,142848,6,0,L|144:88,1,70
288,96,143306,1,0,0:0:0:0:
128,216,143535,2,0,L|184:224,1,35
232,224,143764,2,0,L|272:224,1,35
328,224,143993,2,0,L|368:224,1,35
432,232,144222,2,0,L|432:192,1,35
64,72,145825,6,0,L|144:72,1,70
112,208,146283,1,0,0:0:0:0:
272,96,146512,1,0,0:0:0:0:
408,176,146741,1,0,0:0:0:0:
224,240,146970,1,0,0:0:0:0:
88,304,147199,6,0,L|120:224,1,70
160,128,147657,1,0,0:0:0:0:
272,224,147886,1,0,0:0:0:0:
280,80,148115,1,0,0:0:0:0:
416,232,148344,1,0,0:0:0:0:
64,128,148573,6,0,L|152:120,1,70
272,80,149031,1,0,0:0:0:0:
328,272,149260,1,0,0:0:0:0:
104,272,149489,1,0,0:0:0:0:
248,112,149718,1,0,0:0:0:0:
344,240,149947,6,0,L|272:240,1,70
112,160,150405,1,0,0:0:0:0:
256,72,150634,1,0,0:0:0:0:
296,208,150863,1,0,0:0:0:0:
112,256,151092,1,0,0:0:0:0:
160,128,151550,6,0,L|216:136,1,35
224,136,151779,1,0,0:0:0:0:
252,150,151893,1,0,0:0:0:0:
280,164,152008,1,0,0:0:0:0:
308,178,152122,1,0,0:0:0:0:
336,192,152237,1,0,0:0:0:0:
364,206,152351,1,0,0:0:0:0:
393,220,152466,1,0,0:0:0:0:
421,234,152580,1,0,0:0:0:0:
449,248,152695,1,0,0:0:0:0:
32,144,154069,6,0,L|80:144,1,35
104,288,154298,2,0,L|144:248,1,35
208,96,154642,1,0,0:0:0:0:
224,112,154756,1,0,0:0:0:0:
240,128,154871,1,0,0:0:0:0:
400,64,155328,6,0,L|376:104,1,35
376,312,155557,2,0,L|344:272,1,35
136,80,156130,5,0,0:0:0:0:
200,288,156359,1,0,0:0:0:0:
344,40,156588,1,0,0:0:0:0:
432,296,156817,1,0,0:0:0:0:
168,56,157619,6,0,L|248:96,1,70
144,232,158077,1,0,0:0:0:0:
392,72,158306,1,0,0:0:0:0:
336,280,158535,1,0,0:0:0:0:
152,184,158764,6,0,L|72:128,6,70
72,64,161741,5,0,0:0:0:0:
160,304,161970,1,0,0:0:0:0:
288,48,162199,1,0,0:0:0:0:
424,248,162428,1,0,0:0:0:0:
152,288,162657,1,0,0:0:0:0:
120,72,162886,1,0,0:0:0:0:
392,208,163115,1,0,0:0:0:0:
224,208,163344,2,0,L|144:168,4,70
136,80,165176,6,0,L|208:88,1,70
200,232,165634,2,0,L|272:192,2,70
64,64,166550,5,0,0:0:0:0:
160,304,166779,1,0,0:0:0:0:
408,56,167008,1,0,0:0:0:0:
392,288,167237,1,0,0:0:0:0:
200,80,167466,1,0,0:0:0:0:
96,112,169069,6,0,L|184:112,1,70
200,248,169527,2,0,L|280:240,4,70
80,72,171016,5,0,0:0:0:0:
320,72,171245,1,0,0:0:0:0:
128,272,171474,1,0,0:0:0:0:
440,272,171703,1,0,0:0:0:0:
424,72,171932,1,0,0:0:0:0:
72,48,172275,5,0,0:0:0:0:
256,288,172504,1,0,0:0:0:0:
336,40,172733,1,0,0:0:0:0:
456,320,172962,1,0,0:0:0:0:
80,72,178000,6,0,L|176:88,1,70
128,224,178458,1,0,0:0:0:0:
328,56,178687,1,0,0:0:0:0:
432,256,178916,1,0,0:0:0:0:
200,168,179145,1,0,0:0:0:0:
96,320,179374,6,0,L|192:296,1,70
304,280,179832,1,0,0:0:0:0:
392,112,180061,1,0,0:0:0:0:
88,56,180290,1,0,0:0:0:0:
264,208,180519,1,0,0:0:0:0:
80,48,180748,6,0,L|176:64,1,70
96,264,181207,1,0,0:0:0:0:
336,64,181436,1,0,0:0:0:0:
448,320,181665,1,0,0:0:0:0:
176,128,181894,1,0,0:0:0:0:
432,64,182123,6,0,L|392:128,1,70
144,80,182581,1,0,0:0:0:0:
144,272,182810,1,0,0:0:0:0:
336,64,183039,1,0,0:0:0:0:
72,48,183611,6,0,L|128:64,1,35
64,184,183955,1,0,0:0:0:0:
224,96,184184,1,0,0:0:0:0:
360,264,184413,1,0,0:0:0:0:
64,128,184642,1,0,0:0:0:0:
240,136,184871,2,0,L|304:136,1,35
64,104,185214,6,0,L|152:112,1,70
112,264,185672,1,0,0:0:0:0:
272,56,185901,1,0,0:0:0:0:
432,272,186130,1,0,0:0:0:0:
144,256,186359,1,0,0:0:0:0:
400,64,186588,6,0,L|336:128,1,70
240,240,187046,1,0,0:0:0:0:
80,80,187275,1,0,0:0:0:0:
136,312,187504,1,0,0:0:0:0:
392,72,187733,1,0,0:0:0:0:
96,72,187962,6,0,L|176:120,1,70
104,296,188420,1,0,0:0:0:0:
296,48,188649,1,0,0:0:0:0:
456,72,188993,6,0,L|400:128,1,70
384,296,189451,1,0,0:0:0:0:
144,80,189680,1,0,0:0:0:0:
184,304,189909,1,0,0:0:0:0:
448,64,190138,2,0,L|384:128,1,70
104,72,190596,5,0,0:0:0:0:
152,304,190825,1,0,0:0:0:0:
336,40,191054,1,0,0:0:0:0:
416,344,191283,1,0,0:0:0:0:
88,40,191512,1,0,0:0:0:0:
168,320,191741,1,0,0:0:0:0:
336,112,191970,1,0,0:0:0:0:
