osu file format v14

[General]
AudioFilename: forCecil.mp3
AudioLeadIn: 0
PreviewTime: 87427
Countdown: 0
SampleSet: None
StackLeniency: 0.7
Mode: 1
LetterboxInBreaks: 0
WidescreenStoryboard: 1

[Editor]
DistanceSpacing: 0.9
BeatDivisor: 4
GridSize: 4
TimelineZoom: 1

[Metadata]
Title:Little doll
TitleUnicode:작은인형
Artist:Younha
ArtistUnicode:윤하
Creator:PostScr1pt
Version:OnI
Source:수신학원 아르피엘
Tags:ArpieL
BeatmapID:1011784
BeatmapSetID:390853

[Difficulty]
HPDrainRate:2
CircleSize:4
OverallDifficulty:3
ApproachRate:3
SliderMultiplier:1.6
SliderTickRate:1

[Events]
//Background and Video events
0,0,"wallpaper04_1920.jpg",0,0
//Break Periods
//Storyboard Layer 0 (Background)
//Storyboard Layer 1 (Fail)
//Storyboard Layer 2 (Pass)
//Storyboard Layer 3 (Foreground)
//Storyboard Sound Samples

[TimingPoints]
-17,444.444444444444,4,1,0,80,1,0
44427,-100,4,1,0,80,0,1
58649,-100,4,1,0,80,0,0
88871,-100,4,1,0,80,0,1
117316,-100,4,1,0,80,0,0
140427,-100,4,1,0,80,0,1
154649,-100,4,1,0,80,0,0
167094,-100,4,1,0,80,0,1
197316,-100,4,1,0,80,0,0

[HitObjects]
256,192,1760,5,0,0:0:0:0:
256,192,2094,1,8,0:0:0:0:
256,192,2205,1,0,0:0:0:0:
256,192,2427,1,8,0:0:0:0:
256,192,2649,1,0,0:0:0:0:
256,192,2982,1,0,0:0:0:0:
256,192,3094,1,8,0:0:0:0:
256,192,3316,1,0,0:0:0:0:
256,192,3538,1,8,0:0:0:0:
256,192,3760,1,8,0:0:0:0:
256,192,3871,1,8,0:0:0:0:
256,192,3982,1,0,0:0:0:0:
256,192,4205,1,8,0:0:0:0:
256,192,4427,1,0,0:0:0:0:
256,192,4538,1,0,0:0:0:0:
256,192,4649,1,8,0:0:0:0:
256,192,4871,1,8,0:0:0:0:
256,192,5094,1,0,0:0:0:0:
256,192,5538,1,8,0:0:0:0:
256,192,5649,1,0,0:0:0:0:
256,192,5760,1,0,0:0:0:0:
256,192,5982,1,8,0:0:0:0:
256,192,6205,1,0,0:0:0:0:
256,192,6316,1,8,0:0:0:0:
256,192,6427,1,0,0:0:0:0:
256,192,6649,1,8,0:0:0:0:
256,192,6871,1,8,0:0:0:0:
256,192,7316,1,0,0:0:0:0:
256,192,7538,1,0,0:0:0:0:
256,192,7760,1,8,0:0:0:0:
256,192,7871,1,0,0:0:0:0:
256,192,7982,1,0,0:0:0:0:
256,192,8205,1,8,0:0:0:0:
256,192,8427,1,0,0:0:0:0:
256,192,8538,1,0,0:0:0:0:
256,192,8649,1,8,0:0:0:0:
256,192,8871,1,0,0:0:0:0:
256,192,9316,1,0,0:0:0:0:
256,192,9538,1,8,0:0:0:0:
256,192,9649,1,0,0:0:0:0:
256,192,9760,1,8,0:0:0:0:
256,192,9982,1,0,0:0:0:0:
256,192,10094,1,8,0:0:0:0:
256,192,10205,1,8,0:0:0:0:
256,192,10427,1,0,0:0:0:0:
256,192,10538,1,0,0:0:0:0:
176,192,10649,2,0,L|344:192,1,160
256,192,11538,1,0,0:0:0:0:
256,192,11760,1,8,0:0:0:0:
256,192,11871,1,8,0:0:0:0:
256,192,11982,1,0,0:0:0:0:
256,192,12205,1,8,0:0:0:0:
256,192,12427,1,0,0:0:0:0:
256,192,12649,1,8,0:0:0:0:
256,192,12760,1,0,0:0:0:0:
256,192,13094,1,8,0:0:0:0:
256,192,13316,1,0,0:0:0:0:
256,192,13538,1,0,0:0:0:0:
256,192,13760,1,0,0:0:0:0:
256,192,13982,1,8,0:0:0:0:
256,192,14427,1,0,0:0:0:0:
256,192,14649,12,0,15538,0:0:0:0:
256,192,15982,5,0,0:0:0:0:
256,192,16205,1,0,0:0:0:0:
256,192,16427,1,8,0:0:0:0:
256,192,16871,1,0,0:0:0:0:
256,192,16982,1,0,0:0:0:0:
256,192,17094,1,0,0:0:0:0:
256,192,17316,1,8,0:0:0:0:
256,192,17538,1,0,0:0:0:0:
256,192,17760,1,8,0:0:0:0:
256,192,17871,1,8,0:0:0:0:
256,192,17982,1,0,0:0:0:0:
256,192,18205,1,8,0:0:0:0:
256,192,18427,1,0,0:0:0:0:
256,192,18538,1,8,0:0:0:0:
256,192,18649,1,8,0:0:0:0:
256,192,18871,1,0,0:0:0:0:
256,192,18982,1,8,0:0:0:0:
256,192,19094,1,8,0:0:0:0:
256,192,19205,1,0,0:0:0:0:
256,192,19316,1,0,0:0:0:0:
256,192,19427,1,8,0:0:0:0:
256,192,19538,1,0,0:0:0:0:
256,192,19760,1,8,0:0:0:0:
256,192,19982,1,0,0:0:0:0:
256,192,20205,1,8,0:0:0:0:
256,192,20316,1,8,0:0:0:0:
256,192,20427,1,0,0:0:0:0:
256,192,20649,1,8,0:0:0:0:
256,192,20871,1,0,0:0:0:0:
256,192,20982,1,0,0:0:0:0:
256,192,21094,1,8,0:0:0:0:
256,192,21316,1,8,0:0:0:0:
256,192,21427,1,0,0:0:0:0:
256,192,21538,1,0,0:0:0:0:
256,192,21649,1,8,0:0:0:0:
256,192,21760,1,8,0:0:0:0:
256,192,21982,1,0,0:0:0:0:
256,192,22427,1,8,0:0:0:0:
256,192,22538,1,0,0:0:0:0:
256,192,22649,1,0,0:0:0:0:
256,192,22871,1,8,0:0:0:0:
256,192,23094,1,0,0:0:0:0:
256,192,23316,1,8,0:0:0:0:
256,192,23538,1,8,0:0:0:0:
256,192,23982,1,0,0:0:0:0:
256,192,24094,1,8,0:0:0:0:
256,192,24205,1,8,0:0:0:0:
256,192,24427,1,0,0:0:0:0:
256,192,24649,1,8,0:0:0:0:
256,192,24871,1,8,0:0:0:0:
256,192,24982,1,0,0:0:0:0:
256,192,25094,1,8,0:0:0:0:
256,192,25316,1,0,0:0:0:0:
256,192,25538,1,8,0:0:0:0:
256,192,25649,1,0,0:0:0:0:
256,192,25760,1,0,0:0:0:0:
256,192,25983,1,8,0:0:0:0:
256,192,26205,1,0,0:0:0:0:
256,192,26649,1,0,0:0:0:0:
256,192,26871,1,8,0:0:0:0:
256,192,27094,1,8,0:0:0:0:
256,192,27316,1,8,0:0:0:0:
256,192,27427,1,8,0:0:0:0:
256,192,27538,1,0,0:0:0:0:
256,192,27760,1,0,0:0:0:0:
256,192,27871,1,8,0:0:0:0:
256,192,27982,1,0,0:0:0:0:
256,192,28205,1,8,0:0:0:0:
256,192,28316,1,8,0:0:0:0:
256,192,28427,1,0,0:0:0:0:
256,192,28538,1,8,0:0:0:0:
256,192,28649,1,0,0:0:0:0:
256,192,28871,1,8,0:0:0:0:
256,192,28982,1,0,0:0:0:0:
256,192,29094,1,8,0:0:0:0:
256,192,29205,1,8,0:0:0:0:
256,192,29316,1,0,0:0:0:0:
256,192,29538,1,0,0:0:0:0:
256,192,29649,1,0,0:0:0:0:
256,192,29760,1,8,0:0:0:0:
256,192,29982,1,0,0:0:0:0:
256,192,30205,1,8,0:0:0:0:
256,192,30427,1,8,0:0:0:0:
256,192,30649,1,0,0:0:0:0:
256,192,30760,1,0,0:0:0:0:
256,192,30871,1,8,0:0:0:0:
256,192,31094,1,8,0:0:0:0:
256,192,31316,1,0,0:0:0:0:
256,192,31427,1,0,0:0:0:0:
256,192,31538,1,8,0:0:0:0:
256,192,31760,1,0,0:0:0:0:
256,192,31982,1,8,0:0:0:0:
256,192,32094,1,0,0:0:0:0:
256,192,32205,1,8,0:0:0:0:
256,192,32427,1,0,0:0:0:0:
256,192,32871,1,0,0:0:0:0:
256,192,33094,1,8,0:0:0:0:
256,192,33316,1,0,0:0:0:0:
256,192,33538,1,0,0:0:0:0:
256,192,33649,1,8,0:0:0:0:
256,192,33760,1,8,0:0:0:0:
256,192,33982,1,0,0:0:0:0:
256,192,34205,1,8,0:0:0:0:
256,192,34427,1,0,0:0:0:0:
256,192,34538,1,8,0:0:0:0:
256,192,34649,1,8,0:0:0:0:
256,192,34871,1,0,0:0:0:0:
256,192,35094,1,8,0:0:0:0:
256,192,35316,1,0,0:0:0:0:
256,192,35538,1,8,0:0:0:0:
256,192,35649,1,8,0:0:0:0:
256,192,35760,1,8,0:0:0:0:
256,192,35982,1,0,0:0:0:0:
256,192,36094,1,0,0:0:0:0:
256,192,36205,1,0,0:0:0:0:
256,192,36316,1,0,0:0:0:0:
256,192,36427,1,8,0:0:0:0:
256,192,36649,1,8,0:0:0:0:
256,192,36760,1,8,0:0:0:0:
256,192,36871,1,0,0:0:0:0:
256,192,37094,1,8,0:0:0:0:
256,192,37316,1,8,0:0:0:0:
256,192,37427,1,0,0:0:0:0:
256,192,37538,1,0,0:0:0:0:
256,192,37649,1,8,0:0:0:0:
256,192,37760,1,8,0:0:0:0:
256,192,37982,1,0,0:0:0:0:
256,192,38205,1,0,0:0:0:0:
256,192,38427,1,8,0:0:0:0:
256,192,38538,1,0,0:0:0:0:
256,192,38649,1,8,0:0:0:0:
256,192,38871,1,0,0:0:0:0:
256,192,39094,1,8,0:0:0:0:
256,192,39205,1,8,0:0:0:0:
256,192,39316,1,8,0:0:0:0:
256,192,39538,1,0,0:0:0:0:
256,192,39760,1,8,0:0:0:0:
256,192,39871,1,0,0:0:0:0:
256,192,39982,1,8,0:0:0:0:
256,192,40094,1,8,0:0:0:0:
256,192,40205,1,0,0:0:0:0:
256,192,40427,1,8,0:0:0:0:
256,192,40649,1,0,0:0:0:0:
256,192,40871,1,0,0:0:0:0:
256,192,40982,1,0,0:0:0:0:
256,192,41094,1,8,0:0:0:0:
256,192,41316,1,0,0:0:0:0:
256,192,41538,1,8,0:0:0:0:
256,192,41649,1,8,0:0:0:0:
256,192,41760,1,0,0:0:0:0:
256,192,41871,1,0,0:0:0:0:
256,192,41982,1,8,0:0:0:0:
256,192,42205,1,0,0:0:0:0:
256,192,42427,1,8,0:0:0:0:
256,192,42649,1,8,0:0:0:0:
256,192,42871,1,0,0:0:0:0:
256,192,42982,1,8,0:0:0:0:
256,192,43094,1,8,0:0:0:0:
256,192,43205,1,8,0:0:0:0:
256,192,43316,1,8,0:0:0:0:
256,192,43427,1,0,0:0:0:0:
256,192,43538,1,8,0:0:0:0:
256,192,43649,1,0,0:0:0:0:
256,192,43760,1,0,0:0:0:0:
256,192,43871,1,8,0:0:0:0:
256,192,43982,1,0,0:0:0:0:
256,192,44205,1,8,0:0:0:0:
256,192,44427,1,0,0:0:0:0:
256,192,44649,1,8,0:0:0:0:
256,192,44760,1,0,0:0:0:0:
256,192,44871,1,8,0:0:0:0:
256,192,45094,1,0,0:0:0:0:
256,192,45316,1,8,0:0:0:0:
256,192,45649,1,0,0:0:0:0:
256,192,45760,1,8,0:0:0:0:
256,192,45982,1,0,0:0:0:0:
256,192,46205,1,0,0:0:0:0:
256,192,46427,1,8,0:0:0:0:
256,192,46538,1,8,0:0:0:0:
256,192,46649,1,0,0:0:0:0:
256,192,46871,1,0,0:0:0:0:
256,192,47094,1,8,0:0:0:0:
256,192,47205,1,8,0:0:0:0:
256,192,47316,1,0,0:0:0:0:
256,192,47538,1,8,0:0:0:0:
256,192,47760,1,8,0:0:0:0:
256,192,47871,1,0,0:0:0:0:
256,192,47982,1,8,0:0:0:0:
256,192,48205,1,0,0:0:0:0:
256,192,48427,1,8,0:0:0:0:
256,192,48649,1,0,0:0:0:0:
256,192,48760,1,0,0:0:0:0:
256,192,48871,1,8,0:0:0:0:
256,192,48982,1,0,0:0:0:0:
256,192,49094,1,0,0:0:0:0:
256,192,49316,1,8,0:0:0:0:
256,192,49538,1,0,0:0:0:0:
256,192,49649,1,0,0:0:0:0:
256,192,49760,1,8,0:0:0:0:
256,192,49982,1,8,0:0:0:0:
256,192,50205,1,0,0:0:0:0:
256,192,50316,1,0,0:0:0:0:
256,192,50427,1,0,0:0:0:0:
256,192,50649,1,8,0:0:0:0:
256,192,50871,1,0,0:0:0:0:
256,192,50982,1,8,0:0:0:0:
256,192,51094,1,0,0:0:0:0:
256,192,51316,1,8,0:0:0:0:
256,192,51427,1,0,0:0:0:0:
256,192,51538,1,0,0:0:0:0:
256,192,51760,1,8,0:0:0:0:
256,192,51871,1,0,0:0:0:0:
256,192,51982,1,8,0:0:0:0:
256,192,52094,1,8,0:0:0:0:
256,192,52205,1,0,0:0:0:0:
256,192,52427,1,8,0:0:0:0:
256,192,52649,1,0,0:0:0:0:
256,192,52760,1,0,0:0:0:0:
256,192,52871,1,8,0:0:0:0:
256,192,53094,1,8,0:0:0:0:
256,192,53205,1,0,0:0:0:0:
256,192,53316,1,0,0:0:0:0:
256,192,53427,1,0,0:0:0:0:
256,192,53538,1,8,0:0:0:0:
256,192,53760,1,8,0:0:0:0:
256,192,53982,1,0,0:0:0:0:
256,192,54094,1,8,0:0:0:0:
256,192,54205,1,8,0:0:0:0:
256,192,54427,1,0,0:0:0:0:
256,192,54649,1,8,0:0:0:0:
256,192,54871,1,0,0:0:0:0:
256,192,54982,1,8,0:0:0:0:
256,192,55094,1,0,0:0:0:0:
256,192,55316,1,8,0:0:0:0:
256,192,55538,1,8,0:0:0:0:
256,192,55649,1,0,0:0:0:0:
256,192,55760,1,0,0:0:0:0:
256,192,55871,1,8,0:0:0:0:
256,192,55982,1,8,0:0:0:0:
256,192,56205,1,0,0:0:0:0:
256,192,56427,1,8,0:0:0:0:
256,192,56649,1,0,0:0:0:0:
256,192,56760,1,8,0:0:0:0:
256,192,56871,1,0,0:0:0:0:
256,192,56982,1,8,0:0:0:0:
256,192,57094,1,0,0:0:0:0:
256,192,57316,1,8,0:0:0:0:
256,192,57427,1,8,0:0:0:0:
256,192,57538,1,0,0:0:0:0:
256,192,57649,1,0,0:0:0:0:
256,192,57760,1,8,0:0:0:0:
256,192,57871,1,8,0:0:0:0:
256,192,57983,1,0,0:0:0:0:
256,192,58094,1,8,0:0:0:0:
256,192,58205,1,0,0:0:0:0:
256,192,58316,1,0,0:0:0:0:
256,192,58427,1,0,0:0:0:0:
256,192,58538,1,0,0:0:0:0:
256,192,58649,1,0,0:0:0:0:
256,192,59982,1,8,0:0:0:0:
256,192,60205,1,0,0:0:0:0:
256,192,60427,1,0,0:0:0:0:
256,192,60649,1,8,0:0:0:0:
256,192,60760,1,0,0:0:0:0:
256,192,60871,1,8,0:0:0:0:
256,192,61094,1,0,0:0:0:0:
256,192,61316,1,8,0:0:0:0:
256,192,61538,1,8,0:0:0:0:
256,192,61760,1,0,0:0:0:0:
256,192,62205,1,0,0:0:0:0:
256,192,62427,1,8,0:0:0:0:
256,192,62538,1,8,0:0:0:0:
256,192,62649,1,8,0:0:0:0:
