osu file format v14

[General]
AudioFilename: audio.mp3
AudioLeadIn: 0
PreviewTime: 39056
Countdown: 0
SampleSet: Soft
StackLeniency: 0.7
Mode: 0
LetterboxInBreaks: 0
WidescreenStoryboard: 1

[Editor]
Bookmarks: 13538,25913,39753,52200,64585,78507,92429,104794,117179,129544,155842,168227
DistanceSpacing: 1
BeatDivisor: 4
GridSize: 4
TimelineZoom: 1.8

[Metadata]
Title:Houkiboshi
TitleUnicode:ほうき星
Artist:Younha
ArtistUnicode:ユンナ
Creator:Seto Kousuke
Version:Normal
Source:BLEACH
Tags:ブリーチ Go! Ending
BeatmapID:1636977
BeatmapSetID:779541

[Difficulty]
HPDrainRate:3
CircleSize:3
OverallDifficulty:4
ApproachRate:5
SliderMultiplier:1
SliderTickRate:1

[Events]
//Background and Video events
0,0,"RukiaHeadphones.jpg",0,0
Video,0,"Gotei13.avi"
//Break Periods
2,129749,134412
//Storyboard Layer 0 (Background)
//Storyboard Layer 1 (Fail)
//Storyboard Layer 2 (Pass)
//Storyboard Layer 3 (Foreground)
//Storyboard Sound Samples

[TimingPoints]
1158,386.722526587174,4,2,1,65,1,0
11986,-100,4,2,1,65,0,0
13533,-100,4,2,1,45,0,0
25908,-100,4,2,1,55,0,0
37509,-100,4,2,3,55,0,0
38283,-100,4,2,3,65,0,0
38573,-100,4,2,1,65,0,0
38766,-100,4,2,3,65,0,0
39830,-100,4,2,1,75,0,1
40120,-100,4,2,2,75,0,1
40893,-100,4,2,1,75,0,1
41570,-100,4,2,2,75,0,1
42053,-100,4,2,1,75,0,1
43214,-100,4,2,2,75,0,1
43600,-100,4,2,1,75,0,1
52495,-100,4,2,2,75,0,1
53268,-100,4,2,1,75,0,1
54042,-100,4,2,2,75,0,1
54429,-100,4,2,1,75,0,1
55589,-100,4,2,2,75,0,1
55975,-100,4,2,1,75,0,1
64580,-100,4,2,1,65,0,0
65450,-100,4,2,2,5,0,0
65643,-100,4,2,2,65,0,0
65740,-100,4,2,1,55,0,0
66320,-100,4,2,1,5,0,0
66514,-100,4,2,1,55,0,0
78695,-100,4,2,1,5,0,0
78889,-100,4,2,1,55,0,0
89717,-100,4,2,3,55,0,0
90877,-100,4,2,3,65,0,0
91167,-100,4,2,1,65,0,0
91361,-100,4,2,3,65,0,0
92424,-100,4,2,1,75,0,1
92714,-100,4,2,2,75,0,1
93488,-100,4,2,1,75,0,1
94261,-100,4,2,2,75,0,1
94648,-100,4,2,1,75,0,1
95808,-100,4,2,2,75,0,1
96195,-100,4,2,1,75,0,1
105089,-100,4,2,2,75,0,1
105863,-100,4,2,1,75,0,1
106636,-100,4,2,2,75,0,1
107410,-100,4,2,1,75,0,1
117174,-100,4,2,3,65,0,0
122878,-100,4,2,1,65,0,0
123072,-100,4,2,3,65,0,0
125199,-100,4,2,1,65,0,0
125392,-100,4,2,3,65,0,0
125779,-100,4,2,1,65,0,0
125972,-100,4,2,3,65,0,0
127519,-100,4,2,1,65,0,0
127712,-100,4,2,3,65,0,0
135640,-100,4,2,1,45,0,0
138831,-100,4,2,1,65,0,0
141924,-100,4,2,3,65,0,0
142215,-100,4,2,1,65,0,0
142408,-100,4,2,3,65,0,0
143471,-100,4,2,1,75,0,1
143761,-100,4,2,2,75,0,1
144535,-100,4,2,1,75,0,1
145308,-100,4,2,2,75,0,1
146082,-100,4,2,1,75,0,1
146855,-100,4,2,2,75,0,1
147242,-100,4,2,1,75,0,1
156137,-100,4,2,2,75,0,1
156910,-100,4,2,1,75,0,1
157683,-100,4,2,2,75,0,1
158457,-100,4,2,1,75,0,1
166965,-100,4,2,2,5,0,1
167158,-100,4,2,1,75,0,1
167352,-100,4,2,2,5,0,1
167545,-100,4,2,1,75,0,1
168222,-100,4,2,1,65,0,0
171315,-100,4,2,1,75,0,1
171605,-100,4,2,2,75,0,1
171992,-100,4,2,1,75,0,1
180597,-100,4,2,3,65,0,0
186301,-100,4,2,1,65,0,0
186591,-100,4,2,3,65,0,0

[Colours]
Combo1 : 255,108,182
Combo2 : 77,186,251
Combo3 : 23,238,147
Combo4 : 170,130,253
Combo5 : 251,221,130
SliderBorder : 255,55,155

[HitObjects]
367,159,385,6,0,P|380:131|390:99,2,50,2|2|12,0:0|0:0|1:0,0:0:0:0:
308,240,1158,6,0,B|260:254|260:254|211:242,1,100,6|12,0:0|0:0,0:0:0:0:
131,181,1931,2,0,P|109:239|127:295,1,100,6|12,0:0|0:0,0:0:0:0:
196,335,2704,2,0,L|301:361,1,100,6|12,0:0|0:0,0:0:0:0:
342,366,3284,1,2,0:0:0:0:
342,366,3478,2,0,P|392:373|456:341,1,100,6|12,0:0|0:0,0:0:0:0:
483,267,4251,6,0,B|489:216|456:216|481:151,1,100,6|12,0:0|0:0,0:0:0:0:
409,95,5025,2,0,L|280:95,1,100,6|12,0:0|0:0,0:0:0:0:
228,34,5798,2,0,P|206:92|224:148,1,100,6|12,0:0|0:0,0:0:0:0:
220,177,6378,1,2,0:0:0:0:
220,177,6572,2,0,L|111:177,1,100,6|12,0:0|0:1,0:0:0:0:
20,188,7345,6,0,P|47:216|49:300,1,100,6|12,0:0|0:0,0:0:0:0:
58,374,8119,2,0,L|165:374,1,100,6|12,0:0|0:0,0:0:0:0:
225,300,8892,2,0,P|272:287|319:302,1,100,6|12,0:0|0:0,0:0:0:0:
363,326,9472,1,2,0:0:0:0:
363,326,9665,2,0,L|363:206,1,100,6|12,0:0|0:0,0:0:0:0:
414,139,10439,6,0,P|367:123|319:136,1,100,6|12,0:0|0:0,0:0:0:0:
260,218,11212,2,0,L|130:218,2,100,6|12|2,0:0|0:0|0:0,0:0:0:0:
308,231,12179,2,0,L|365:227,1,50,8|8,0:0|0:0,0:0:0:0:
360,127,12759,1,2,0:0:0:0:
260,117,13146,1,2,0:0:0:0:
314,33,13533,6,0,P|361:27|420:42,1,100,2|2,1:2|1:2,0:0:0:0:
492,98,14306,2,0,L|482:169,1,50,2|0,1:2|1:2,0:0:0:0:
465,195,14693,1,2,1:2:0:0:
465,195,14886,2,0,P|413:179|340:206,1,100,8|0,1:2|1:2,0:0:0:0:
305,264,15660,2,0,L|193:265,1,100,0|0,1:2|1:2,0:0:0:0:
104,266,16433,2,0,P|51:252|19:198,1,100,0|0,1:0|1:0,0:0:0:0:
14,168,17013,5,2,1:2:0:0:
114,160,17400,2,0,L|192:160,1,50,2|0,1:2|1:2,0:0:0:0:
214,161,17787,1,2,1:2:0:0:
214,161,17980,2,0,P|198:113|220:62,1,100,8|8,1:2|1:2,0:0:0:0:
301,117,18753,2,0,L|428:117,2,100,0|0|0,1:2|1:2|1:2,0:0:0:0:
150,117,20107,5,2,1:2:0:0:
64,169,20494,2,0,P|52:217|62:257,1,50,2|0,1:2|1:2,0:0:0:0:
56,266,20880,1,2,1:2:0:0:
56,266,21074,2,0,L|191:267,1,100,8|0,1:2|1:2,0:0:0:0:
234,328,21847,2,0,P|255:292|249:236,1,100,0|0,1:2|1:2,0:0:0:0:
178,164,22621,1,0,1:2:0:0:
224,20,23201,5,2,1:2:0:0:
293,91,23587,2,0,L|384:91,1,50,2|0,1:2|1:2,0:0:0:0:
393,91,23974,1,2,1:2:0:0:
393,91,24167,2,0,P|412:131|391:196,1,100,8|8,1:2|1:2,0:0:0:0:
339,263,24941,1,0,1:2:0:0:
339,263,25134,2,0,L|264:263,1,50,2|2,1:3|1:2,0:0:0:0:
238,262,25521,1,8,1:2:0:0:
149,215,25908,6,0,P|136:263|154:320,1,100,6|8,1:1|1:2,0:0:0:0:
228,372,26681,2,0,L|289:372,1,50,2|2,1:2|1:2,0:0:0:0:
328,369,27068,1,8,1:2:0:0:
328,369,27261,2,0,P|321:320|345:264,1,100,0|0,1:2|1:2,0:0:0:0:
400,192,28035,2,0,L|508:204,2,100,0|2|0,1:2|1:2|1:0,0:0:0:0:
340,52,29388,5,8,1:2:0:0:
240,60,29775,2,0,L|162:61,1,50,2|2,1:2|1:2,0:0:0:0:
141,60,30161,1,8,1:2:0:0:
141,60,30355,2,0,P|152:114|138:159,1,100,0|0,1:2|1:2,0:0:0:0:
88,244,31128,2,0,L|231:245,1,100,0|2,1:2|1:2,0:0:0:0:
288,244,31902,1,0,1:0:0:0:
408,332,32482,5,8,1:2:0:0:
468,252,32869,2,0,L|467:174,1,50,2|2,1:2|1:2,0:0:0:0:
468,153,33255,1,8,1:2:0:0:
468,153,33449,2,0,P|414:164|369:150,1,100,0|0,1:2|1:2,0:0:0:0:
280,112,34222,2,0,L|137:111,2,100,0|2|0,1:2|1:2|1:2,0:0:0:0:
420,64,35576,5,8,1:2:0:0:
328,24,35963,2,0,L|252:25,1,50,2|2,1:2|1:2,0:0:0:0:
233,47,36349,1,8,1:2:0:0:
233,47,36543,2,0,B|187:61|187:61|132:46,1,100,0|0,1:2|1:2,0:0:0:0:
92,24,37123,1,8,1:2:0:0:
70,121,37509,2,0,L|71:197,1,50,12|0,1:2|1:2,0:0:0:0:
72,221,37896,1,12,1:2:0:0:
136,297,38283,6,0,B|234:328|235:268|332:293,1,200,12|12,0:0|0:0,0:0:0:0:
419,342,39443,1,12,0:0:0:0:
414,242,39830,6,0,B|403:190|445:152|445:152|403:115|423:61|423:61|364:57|331:16,1,300,6|12,0:1|0:0,0:0:0:0:
234,20,41377,2,0,B|205:56|146:60|146:60|166:114|131:161,1,200,6|6,0:0|0:0,0:0:0:0:
99,249,42537,1,12,0:0:0:0:
167,321,42924,2,0,B|228:308|256:276|256:276|284:308|345:321,1,200,6|6,0:0|0:0,0:0:0:0:
425,264,44084,1,12,0:0:0:0:
376,176,44470,2,0,P|324:170|263:175,1,100,6|12,0:0|0:0,0:0:0:0:
175,179,45244,2,0,P|179:207|193:236,2,50,6|2|12,0:0|0:0|0:1,0:0:0:0:
153,81,46017,6,0,L|280:80,1,100,6|12,0:0|0:0,0:0:0:0:
335,22,46791,2,0,P|356:66|358:84,1,50,6|2,0:0|0:0,0:0:0:0:
358,116,47177,2,0,L|338:188,1,50,12|0,0:0|0:0,0:0:0:0:
317,201,47564,2,0,B|312:260|312:260|338:333,2,100,6|12|6,0:0|0:0|0:0,0:0:0:0:
270,112,48724,1,12,0:0:0:0:
194,179,49111,6,0,P|144:184|102:158,1,100,6|12,0:0|0:0,0:0:0:0:
68,64,49885,2,0,P|22:94|3:147,1,100,6|12,0:0|0:0,0:0:0:0:
11,234,50658,2,0,L|13:308,1,50,6|2,0:0|0:0,0:0:0:0:
16,333,51045,2,0,P|68:327|121:339,1,100,12|12,0:1|2:0,0:0:0:0:
189,270,51818,1,12,0:0:0:0:
272,325,52205,6,0,B|319:326|319:326|363:355|363:355|419:325|419:325|456:323|456:323|427:272|451:227,1,300,6|12,2:1|0:0,0:0:0:0:
454,127,53752,2,0,B|433:85|464:34|464:34|416:65|349:52,1,200,6|6,0:0|0:0,0:0:0:0:
266,47,54912,1,12,0:0:0:0:
207,128,55299,2,0,B|154:135|116:162|116:162|105:97|56:66,1,200,6|6,0:0|0:0,0:0:0:0:
162,40,56459,1,12,0:0:0:0:
266,47,56846,2,0,P|301:83|302:141,1,100,6|12,0:0|0:0,0:0:0:0:
377,200,57619,2,0,L|445:200,2,50,6|2|12,0:0|0:0|0:1,0:0:0:0:
287,245,58392,6,0,L|172:245,1,100,6|12,0:0|0:0,0:0:0:0:
89,219,59166,2,0,P|84:190|89:157,1,50,6|2,0:0|0:0,0:0:0:0:
85,119,59553,2,0,P|101:94|128:75,1,50,12|0,0:0|0:0,0:0:0:0:
165,70,59939,2,0,B|225:70|225:70|287:40,2,100,6|12|6,0:0|0:0|0:0,0:0:0:0:
73,30,61099,1,12,0:0:0:0:
8,106,61486,6,0,P|-6:153|22:212,1,100,6|12,0:0|0:0,0:0:0:0:
108,219,62260,2,0,L|108:329,1,100,6|12,0:0|0:0,0:0:0:0:
204,345,63033,2,0,L|323:345,1,100,6|12,0:0|0:0,0:0:0:0:
382,283,63807,2,0,L|455:281,1,50,6|2,0:0|0:0,0:0:0:0:
481,282,64193,1,12,0:0:0:0:
477,181,64580,1,4,0:1:0:0:
75,127,66127,5,2,1:2:0:0:
155,67,66514,1,8,1:2:0:0:
172,165,66900,2,0,L|172:245,1,50,2|2,1:2|1:2,0:0:0:0:
172,265,67287,1,8,1:2:0:0:
172,265,67480,2,0,L|313:265,1,100,0|0,1:2|1:2,0:0:0:0:
342,335,68254,2,0,P|370:296|366:240,1,100,0|2,1:2|1:2,0:0:0:0:
305,168,69027,1,0,1:2:0:0:
391,45,69607,5,8,1:2:0:0:
293,65,69994,2,0,L|217:65,1,50,2|2,1:2|1:2,0:0:0:0:
192,64,70381,1,8,1:2:0:0:
192,64,70574,2,0,P|193:116|176:187,1,100,0|0,1:2|1:2,0:0:0:0:
105,225,71348,2,0,P|55:212|-8:224,2,100,0|2|2,1:2|1:2|1:2,0:0:0:0:
190,348,72701,5,8,1:2:0:0:
259,275,73088,2,0,L|322:276,1,50,2|2,1:2|1:2,0:0:0:0:
359,276,73475,1,8,1:2:0:0:
359,276,73668,2,0,P|347:226|371:158,1,100,0|0,1:2|1:2,0:0:0:0:
402,89,74441,2,0,L|271:89,1,100,0|2,1:2|1:2,0:0:0:0:
201,94,75215,1,0,1:2:0:0:
201,243,75795,5,8,1:2:0:0:
264,320,76182,2,0,L|326:321,1,50,2|2,1:2|1:2,0:0:0:0:
363,320,76568,1,8,1:2:0:0:
363,320,76762,2,0,P|382:276|356:212,1,100,0|0,1:2|1:2,0:0:0:0:
331,194,77342,2,0,L|253:192,1,50,8|2,1:2|1:2,0:0:0:0:
230,190,77729,1,2,1:2:0:0:
169,269,78115,1,12,1:1:0:0:
106,191,78502,6,0,P|89:143|120:83,1,100,2|8,1:2|1:2,0:0:0:0:
175,28,79275,2,0,L|233:29,1,50,2|2,1:2|1:2,0:0:0:0:
275,30,79662,1,8,1:2:0:0:
275,30,79856,2,0,P|262:72|294:140,1,100,0|0,1:2|1:2,0:0:0:0:
358,184,80629,2,0,L|479:186,2,100,0|2|0,1:2|1:2|1:2,0:0:0:0:
208,197,81983,5,8,1:2:0:0:
278,123,82369,2,0,L|279:38,1,50,2|2,1:2|1:2,0:0:0:0:
279,22,82756,1,8,1:2:0:0:
279,22,82949,2,0,P|227:36|169:19,1,100,0|0,1:2|1:2,0:0:0:0:
95,76,83723,2,0,L|95:182,1,100,0|2,1:2|1:2,0:0:0:0:
97,276,84496,1,2,1:2:0:0:
220,361,85076,5,8,1:2:0:0:
282,283,85463,2,0,L|332:283,1,50,2|2,1:2|1:2,0:0:0:0:
371,312,85850,1,8,1:2:0:0:
371,312,86043,2,0,P|418:322|471:293,1,100,0|0,1:2|1:2,0:0:0:0:
409,216,86817,2,0,L|407:111,2,100,0|2|0,1:2|1:2|1:2,0:0:0:0:
266,262,88170,5,8,1:2:0:0:
230,168,88557,2,0,L|156:168,1,50,2|2,1:2|1:2,0:0:0:0:
129,168,88944,1,8,1:2:0:0:
129,168,89137,2,0,P|138:112|113:59,1,100,0|0,1:2|1:2,0:0:0:0:
94,31,89717,1,12,1:2:0:0:
194,30,90104,2,0,L|298:30,1,100,12|12,1:2|1:2,0:0:0:0:
377,85,90877,6,0,B|400:177|342:175|376:282,1,200,12|12,0:0|0:0,0:0:0:0:
352,378,92037,1,12,0:0:0:0:
293,300,92424,6,0,P|191:210|88:321,1,300,6|12,0:1|0:0,0:0:0:0:
189,316,93971,2,0,L|187:76,1,200,6|6,0:0|0:0,0:0:0:0:
247,36,95131,1,12,0:0:0:0:
310,113,95518,2,0,P|393:97|326:32,1,200,6|6,0:0|0:0,0:0:0:0:
247,36,96678,1,12,0:0:0:0:
187,116,97065,2,0,L|189:239,1,100,6|12,0:0|0:0,0:0:0:0:
190,316,97838,2,0,L|191:370,2,50,6|2|12,0:0|0:0|0:1,0:0:0:0:
276,265,98612,6,0,L|405:265,1,100,6|12,0:0|0:0,0:0:0:0:
470,297,99385,2,0,P|476:268|471:233,1,50,6|2,0:0|0:0,0:0:0:0:
472,197,99772,2,0,P|460:169|436:144,1,50,12|0,0:0|0:0,0:0:0:0:
400,137,100158,2,0,B|342:133|342:133|276:151,2,100,6|12|6,0:0|0:0|0:0,0:0:0:0:
493,99,101319,1,12,0:0:0:0:
432,21,101705,6,0,P|381:6|330:40,1,100,6|12,0:0|0:0,0:0:0:0:
251,71,102479,2,0,L|133:72,1,100,6|12,0:0|0:0,0:0:0:0:
111,163,103252,2,0,L|37:165,1,50,6|2,0:0|0:0,0:0:0:0:
14,183,103639,2,0,P|20:235|8:288,1,100,12|6,0:1|0:0,0:0:0:0:
47,374,104412,1,12,0:0:0:0:
119,303,104799,6,0,B|196:343|199:259|298:303|298:303|278:237|341:172,1,300,6|12,0:0|0:0,0:0:0:0:
415,167,106346,2,0,B|389:97|318:83|267:115|267:115|209:69|133:115,1,300,6|12,0:0|0:0,0:0:0:0:
106,190,107893,2,0,L|225:190,1,100,6|12,0:0|0:0,0:0:0:0:
202,286,108666,2,0,L|102:286,1,100,6|12,0:0|0:0,0:0:0:0:
13,238,109440,1,6,0:0:0:0:
106,190,109827,1,12,0:0:0:0:
22,135,110213,2,0,L|21:78,2,50,6|2|12,0:0|0:0|0:1,0:0:0:0:
106,190,110987,6,0,L|225:192,1,100,6|12,0:0|0:0,0:0:0:0:
296,149,111760,2,0,P|306:176|302:225,1,50,6|2,0:0|0:0,0:0:0:0:
302,246,112147,2,0,P|289:272|252:303,1,50,12|2,0:0|0:0,0:0:0:0:
237,319,112534,2,0,B|176:326|176:326|136:356,2,100,6|12|6,0:0|0:0|0:0,0:0:0:0:
315,381,113694,1,12,0:0:0:0:
373,300,114080,6,0,P|390:251|367:190,1,100,6|12,0:0|0:0,0:0:0:0:
296,148,114854,2,0,L|189:149,1,100,6|12,0:0|0:0,0:0:0:0:
153,58,115627,1,6,0:0:0:0:
237,3,116014,1,12,0:0:0:0:
319,59,116401,2,0,L|433:59,1,100,12|12,0:0|0:0,0:0:0:0:
503,112,117174,5,2,1:2:0:0:
419,236,117754,2,0,P|351:204|262:236,1,150,8|8,0:0|1:2,0:0:0:0:
211,293,118721,1,2,1:2:0:0:
166,203,119108,2,0,L|102:202,1,50,8|0,1:2|0:0,0:0:0:0:
65,203,119495,2,0,L|101:134,1,50,2|6,1:2|0:0,0:0:0:0:
114,114,119881,2,0,L|150:45,1,50,0|8,1:0|0:0,0:0:0:0:
161,25,120268,6,0,L|304:24,1,100,2|8,1:2|1:2,0:0:0:0:
314,109,121041,2,0,L|214:109,1,100,2|8,1:2|1:2,0:0:0:0:
171,200,121815,2,0,L|314:199,1,100,2|12,1:2|1:2,0:0:0:0:
324,287,122588,2,0,L|224:287,1,100,8|12,1:2|0:1,0:0:0:0:
123,287,123362,5,2,1:2:0:0:
48,156,123942,2,0,P|120:172|192:154,1,150,8|8,0:0|1:2,0:0:0:0:
265,86,124909,1,2,1:2:0:0:
323,166,125295,2,0,L|404:165,1,50,12|0,1:1|0:0,0:0:0:0:
422,173,125682,2,0,L|459:222,1,50,2|12,1:2|0:1,0:0:0:0:
463,261,126069,2,0,L|426:310,1,50,0|8,1:0|0:0,0:0:0:0:
385,318,126456,6,0,L|260:319,1,100,2|8,1:2|1:2,0:0:0:0:
230,234,127229,2,0,L|105:235,1,100,2|12,1:2|1:1,0:0:0:0:
48,176,128002,2,0,L|48:112,1,50,6|2,0:0|0:0,0:0:0:0:
75,83,128389,2,0,L|128:53,1,50,8|8,0:0|0:0,0:0:0:0:
168,60,128776,2,0,L|226:76,1,50,8|8,0:0|0:0,0:0:0:0:
258,100,129163,2,0,L|288:152,1,50,8|12,0:0|1:2,0:0:0:0:
298,190,129549,5,0,1:2:0:0:
102,110,135737,6,0,L|231:79,1,100,0|0,1:0|1:0,0:0:0:0:
183,185,136510,2,0,L|312:154,1,100,0|0,1:0|1:0,0:0:0:0:
264,260,137284,2,0,L|393:229,1,100,0|0,1:0|1:0,0:0:0:0:
345,335,138057,2,0,L|474:304,1,100,0|0,1:0|1:0,0:0:0:0:
256,192,138831,12,4,141924,1:0:0:0:
212,82,142698,5,12,0:0:0:0:
312,82,143085,1,12,0:0:0:0:
411,89,143471,6,0,B|472:166|401:248|296:234|303:373,1,300,6|12,0:1|0:0,0:0:0:0:
204,338,145018,2,0,B|212:233|107:247|41:158|104:89,1,300,6|12,0:0|0:0,0:0:0:0:
182,25,146565,2,0,B|227:49|257:93|257:93|287:54|352:10,1,200,6|6,0:0|0:0,0:0:0:0:
411,89,147725,1,12,0:0:0:0:
417,188,148112,2,0,P|376:234|318:252,1,100,6|12,0:0|0:0,0:0:0:0:
241,252,148886,2,0,L|182:252,2,50,6|2|12,0:0|0:0|0:1,0:0:0:0:
287,163,149659,6,0,L|159:163,1,100,6|12,0:0|0:0,0:0:0:0:
122,86,150432,2,0,P|87:134|82:165,1,50,6|2,0:0|0:0,0:0:0:0:
88,174,150819,2,0,P|97:232|115:258,1,50,12|0,0:0|0:0,0:0:0:0:
134,251,151206,2,0,B|189:250|189:250|249:266,2,100,6|12|6,0:0|0:0|0:0,0:0:0:0:
39,283,152366,1,12,0:0:0:0:
116,350,152753,6,0,L|240:349,1,100,6|12,0:0|0:0,0:0:0:0:
263,364,153333,1,2,0:0:0:0:
263,364,153526,2,0,B|321:376|369:334,1,100,6|12,0:0|0:0,0:0:0:0:
406,258,154300,2,0,L|407:188,1,50,6|2,0:0|0:0,0:0:0:0:
391,160,154686,1,12,0:1:0:0:
336,76,155073,1,6,0:0:0:0:
261,141,155460,1,12,0:0:0:0:
186,74,155847,6,0,P|167:194|333:211,1,300,6|12,0:0|0:0,0:0:0:0:
388,296,157393,2,0,P|407:176|241:159,1,300,6|12,0:0|0:0,0:0:0:0:
215,229,158940,2,0,L|78:226,1,100,6|12,0:0|0:0,0:0:0:0:
64,140,159714,2,0,L|163:142,1,100,6|12,0:0|0:0,0:0:0:0:
212,54,160487,1,6,0:0:0:0:
260,140,160874,1,12,0:0:0:0:
315,57,161261,2,0,L|367:57,2,50,6|2|12,0:0|0:0|0:1,0:0:0:0:
260,140,162034,6,0,P|244:190|271:251,1,100,6|12,0:0|0:0,0:0:0:0:
256,334,162808,2,0,P|284:329|324:301,1,50,6|2,0:0|0:0,0:0:0:0:
344,291,163194,2,0,P|360:267|368:219,1,50,12|0,0:0|0:0,2:0:0:0:
383,199,163581,2,0,B|453:190|453:190|503:206,2,100,6|12|6,0:0|0:0|0:0,0:0:0:0:
285,221,164741,1,12,0:0:0:0:
239,132,165128,6,0,L|113:132,1,100,6|12,0:0|0:0,0:0:0:0:
53,80,165901,2,0,P|34:126|54:186,1,100,6|12,0:0|0:0,0:0:0:0:
135,221,166675,2,0,L|303:221,2,150,12|12|12,0:1|0:1|0:1,0:0:0:0:
47,171,168222,5,8,0:0:0:0:
129,45,168802,1,8,0:0:0:0:
227,155,169382,1,8,0:0:0:0:
270,64,169769,2,0,L|322:36,1,50,2|2,0:0|0:0,0:0:0:0:
363,47,170155,2,0,L|415:19,1,50,2|2,0:0|0:0,0:0:0:0:
457,24,170542,1,12,0:1:0:0:
457,124,170929,1,8,0:0:0:0:
468,223,171315,6,0,B|414:229|376:190|376:190|338:229|283:223,1,200,6|6,0:0|0:0,0:0:0:0:
187,210,172476,1,12,0:0:0:0:
255,137,172862,2,0,P|273:92|241:26,1,100,6|12,0:0|0:0,0:0:0:0:
165,79,173636,2,0,L|84:75,1,50,6|2,0:0|0:0,0:0:0:0:
65,70,174022,1,12,1:1:0:0:
26,162,174409,6,0,P|71:180|112:244,1,100,6|12,0:0|0:0,0:0:0:0:
147,308,175183,2,0,L|147:366,2,50,6|2|12,0:0|0:0|0:0,0:0:0:0:
211,231,175956,2,0,L|342:230,1,100,6|12,0:0|0:0,0:0:0:0:
411,233,176730,2,0,L|479:233,2,50,6|2|12,0:0|0:0|0:0,0:0:0:0:
357,148,177503,2,0,P|349:99|380:45,1,100,6|12,0:0|0:0,0:0:0:0:
450,114,178276,2,0,L|499:113,2,50,6|2|12,0:0|0:0|0:1,0:0:0:0:
357,148,179050,2,0,L|246:149,1,100,6|12,0:0|0:1,0:0:0:0:
292,242,179823,2,0,L|181:243,1,100,6|12,0:0|0:0,0:0:0:0:
136,326,180597,5,6,0:0:0:0:
46,282,180983,1,12,0:0:0:0:
47,181,181370,2,0,L|47:131,2,50,6|2|12,0:0|0:0|0:0,0:0:0:0:
141,215,182144,1,6,0:0:0:0:
231,171,182530,1,12,0:0:0:0:
230,70,182917,2,0,L|230:20,2,50,6|2|12,0:0|0:0|0:0,0:0:0:0:
317,118,183691,5,6,0:0:0:0:
407,162,184077,1,12,0:0:0:0:
406,263,184464,2,0,L|406:313,2,50,6|2|12,0:0|0:0|0:0,0:0:0:0:
314,222,185237,1,6,0:0:0:0:
220,257,185624,1,12,0:0:0:0:
150,184,186011,2,0,L|94:184,2,50,6|2|12,0:0|0:0|0:1,0:0:0:0:
219,112,186784,6,0,P|271:117|336:99,1,100,6|12,0:0|0:0,0:0:0:0:
403,55,187558,2,0,P|398:107|416:172,1,100,6|12,0:0|0:0,0:0:0:0:
457,240,188331,2,0,P|405:235|340:253,1,100,6|12,0:0|0:0,0:0:0:0:
274,299,189105,2,0,P|279:247|261:182,1,100,6|12,0:0|0:0,0:0:0:0:
197,130,189878,6,0,L|83:130,1,100,6|12,0:0|0:0,0:0:0:0:
35,209,190652,2,0,L|-27:209,2,50,6|2|12,0:0|0:0|0:0,0:0:0:0:
98,286,191425,2,0,L|237:288,1,100,6|12,0:0|0:0,0:0:0:0:
269,216,192198,1,12,0:0:0:0:
343,282,192585,2,0,L|397:283,1,50,6|8,0:0|0:0,0:0:0:0:
