osu file format v14

[General]
AudioFilename: audio.mp3
AudioLeadIn: 0
PreviewTime: 43451
Countdown: 1
SampleSet: Normal
StackLeniency: 0.7
Mode: 0
LetterboxInBreaks: 0
WidescreenStoryboard: 0

[Editor]
DistanceSpacing: 0.6
BeatDivisor: 8
GridSize: 8
TimelineZoom: 1.8

[Metadata]
Title:Harambe
TitleUnicode:Harambe
Artist:Young Thug
ArtistUnicode:Young Thug
Creator:Clappy
Version:CLP
Source:
Tags:No My Name Is Jeffery Harambe Gay Raiden LOL 225 On The Dashboard MAFIA
BeatmapID:1088614
BeatmapSetID:512219

[Difficulty]
HPDrainRate:5.5
CircleSize:4
OverallDifficulty:8
ApproachRate:9
SliderMultiplier:1.8
SliderTickRate:1

[Events]
//Background and Video events
0,0,"harambeosu.png",0,0
//Break Periods
//Storyboard Layer 0 (Background)
//Storyboard Layer 1 (Fail)
//Storyboard Layer 2 (Pass)
//Storyboard Layer 3 (Foreground)
//Storyboard Sound Samples

[TimingPoints]
270,454.545454545455,4,1,1,20,1,0
14815,-100,4,1,1,30,0,0
17088,-200,4,1,1,30,0,0
18451,-100,4,1,1,30,0,0
42088,-66.6666666666667,4,1,1,30,0,0
42315,-100,4,1,1,30,0,0

[Colours]
Combo1 : 255,0,0
Combo2 : 128,64,64

[HitObjects]
74,331,270,5,0,0:0:0:0:
85,317,724,1,0,0:0:0:0:
97,303,1179,1,0,0:0:0:0:
109,289,1633,1,0,0:0:0:0:
44,232,2088,5,0,0:0:0:0:
55,218,2542,1,0,0:0:0:0:
67,204,2997,1,0,0:0:0:0:
79,190,3451,1,0,0:0:0:0:
349,178,3906,6,0,P|395:185|450:187,1,90
251,125,4360,2,0,P|207:120|162:123,1,90
209,292,4815,2,0,B|208:259|208:259|256:172|256:172|251:125,1,180
77,176,5497,5,0,0:0:0:0:
258,43,5724,1,0,0:0:0:0:
286,265,5951,1,0,0:0:0:0:
180,67,6179,5,0,0:0:0:0:
405,75,6406,1,0,0:0:0:0:
277,272,6633,2,0,P|269:185|198:136,1,180
77,94,7315,1,0,0:0:0:0:
198,136,7542,6,0,P|235:211|196:296,1,180
43,221,8224,2,0,L|142:214,1,90
303,171,8679,1,0,0:0:0:0:
190,97,8906,2,0,L|6:109,1,180
119,188,9588,5,0,0:0:0:0:
139,228,9815,1,0,0:0:0:0:
157,269,10042,1,0,0:0:0:0:
296,294,10270,2,0,B|358:294|358:294|404:328|404:328|465:328,1,180
413,193,10951,1,0,0:0:0:0:
465,56,11179,2,0,B|404:56|404:56|358:90|358:90|296:90,1,180
256,192,12088,12,8,14815,0:0:0:0:
388,276,15270,5,0,2:2:0:0:
408,236,15383,1,0,2:2:0:0:
415,192,15497,1,0,2:2:0:0:
408,147,15610,1,0,2:2:0:0:
387,108,15724,1,2,0:0:0:0:
162,106,15951,5,0,0:0:0:0:
283,296,16179,1,0,0:0:0:0:
266,280,16292,1,0,0:0:0:0:
254,260,16406,2,0,B|293:269|337:251|337:251|328:270|328:270|364:255|417:269,1,180
319,98,17088,6,0,P|279:214|327:346,1,247.5,8|0,0:0|0:0,0:0:0:0:
314,330,18451,1,8,0:0:0:0:
314,330,18679,1,8,0:0:0:0:
175,318,18906,5,0,0:0:0:0:
166,273,19019,1,0,0:0:0:0:
158,229,19133,1,0,0:0:0:0:
150,185,19246,1,0,0:0:0:0:
142,141,19360,1,2,0:0:0:0:
55,245,19588,1,0,0:0:0:0:
252,197,19815,5,0,0:0:0:0:
252,197,19929,1,0,0:0:0:0:
252,197,20042,2,0,P|162:181|77:201,1,180,8|2,0:0|0:0,0:0:0:0:
158,309,20724,5,8,0:0:0:0:
194,291,20838,1,0,0:0:0:0:
234,289,20951,1,0,0:0:0:0:
273,299,21065,1,0,0:0:0:0:
312,310,21179,1,2,0:0:0:0:
398,173,21406,1,8,0:0:0:0:
406,167,21860,5,8,0:0:0:0:
175,109,22088,2,0,L|76:79,1,90,4|0,0:0|0:0,0:0:0:0:
55,211,22542,1,0,0:0:0:0:
97,225,22655,1,0,0:0:0:0:
139,240,22769,1,0,0:0:0:0:
182,227,22882,1,0,0:0:0:0:
225,214,22996,1,2,0:0:0:0:
300,100,23224,5,0,0:0:0:0:
355,223,23451,1,0,0:0:0:0:
355,223,23565,1,0,0:0:0:0:
355,223,23679,2,0,B|325:358|325:358|297:327,1,180,8|2,0:0|0:0,0:0:0:0:
202,258,24360,2,0,L|167:242,8,22.5,0|0|0|0|0|0|0|0|2,0:0|0:0|0:0|0:0|0:0|0:0|0:0|0:0|0:0,0:0:0:0:
324,229,25042,5,0,0:0:0:0:
255,149,25270,2,0,L|220:133,2,22.5
233,126,25497,2,0,L|198:110,2,22.5,8|0|0,0:0|0:0|0:0,0:0:0:0:
213,101,25724,1,12,0:0:0:0:
324,229,25951,1,8,0:0:0:0:
244,293,26179,5,0,0:0:0:0:
277,322,26292,1,0,0:0:0:0:
320,334,26406,1,0,0:0:0:0:
364,325,26519,1,0,0:0:0:0:
399,298,26633,2,0,L|416:209,1,90
295,249,27088,2,0,L|312:160,1,90,4|8,0:0|0:0,0:0:0:0:
116,65,27542,5,4,0:0:0:0:
369,113,27770,1,0,0:0:0:0:
369,113,27883,1,0,0:0:0:0:
369,113,27997,2,0,P|286:92|189:111,1,180,8|2,0:0|0:0,0:0:0:0:
214,266,28679,2,0,P|287:279|361:261,1,135
345,268,29133,1,8,0:0:0:0:
194,108,29360,6,0,L|113:63,1,90,4|0,0:0|0:0,0:0:0:0:
324,148,29815,1,0,0:0:0:0:
358,131,29928,1,0,0:0:0:0:
393,115,30042,1,0,0:0:0:0:
427,99,30155,1,0,0:0:0:0:
462,82,30269,1,2,0:0:0:0:
194,108,30497,6,0,P|169:187|211:280,1,180,0|8,0:0|0:0,0:0:0:0:
300,184,31179,2,0,L|394:162,1,90,4|8,0:0|0:0,0:0:0:0:
140,129,31633,2,0,L|105:117,8,22.5,8|0|0|0|0|0|0|0|2,0:0|0:0|0:0|0:0|0:0|0:0|0:0|0:0|0:0,0:0:0:0:
259,192,32315,1,8,0:0:0:0:
377,255,32542,2,0,L|412:267,2,22.5
391,283,32770,2,0,L|426:295,2,22.5,8|0|0,0:0|0:0|0:0,0:0:0:0:
411,307,32997,5,12,0:0:0:0:
433,173,33224,1,8,0:0:0:0:
303,305,33451,1,0,0:0:0:0:
277,268,33564,1,0,0:0:0:0:
267,225,33678,1,0,0:0:0:0:
274,181,33791,1,0,0:0:0:0:
298,143,33906,2,0,L|346:227,1,90
154,165,34360,5,0,0:0:0:0:
154,165,34588,2,0,L|208:258,1,90,8|4,0:0|0:0,0:0:0:0:
296,106,35042,1,2,0:0:0:0:
380,261,35270,1,0,0:0:0:0:
406,224,35383,1,0,0:0:0:0:
432,187,35497,1,0,0:0:0:0:
458,151,35610,1,0,0:0:0:0:
485,114,35724,1,2,0:0:0:0:
207,127,35951,5,8,0:0:0:0:
198,134,36406,1,8,0:0:0:0:
416,321,36633,2,0,P|369:326|320:320,1,90,4|0,0:0|0:0,0:0:0:0:
57,275,37088,1,8,0:0:0:0:
101,267,37201,1,0,0:0:0:0:
146,265,37315,1,0,0:0:0:0:
191,268,37428,1,0,0:0:0:0:
235,275,37542,6,0,B|245:140|245:140|272:181,1,180
269,176,38224,1,8,0:0:0:0:
289,190,38679,1,2,0:0:0:0:
121,158,38906,2,0,L|86:153,8,22.5
252,228,39588,1,0,0:0:0:0:
380,239,39815,2,0,L|413:249,2,22.5
392,276,40042,2,0,L|425:286,2,22.5,8|0|0,0:0|0:0|0:0,0:0:0:0:
418,311,40270,5,12,0:0:0:0:
448,125,40497,1,8,0:0:0:0:
253,244,40724,1,0,0:0:0:0:
229,205,40837,1,0,0:0:0:0:
223,161,40951,1,0,0:0:0:0:
234,118,41064,1,0,0:0:0:0:
259,83,41179,2,0,P|180:134|148:216,1,180,2|0,0:0|0:0,0:0:0:0:
149,211,41860,1,8,0:0:0:0:
137,342,42088,6,0,L|291:323,1,135.000005149842,4|0,0:0|0:0,0:0:0:0:
396,264,42542,1,0,0:0:0:0:
368,229,42655,1,0,0:0:0:0:
329,206,42769,1,0,0:0:0:0:
285,199,42882,1,0,0:0:0:0:
241,209,42997,2,0,B|188:81|188:81|161:120,1,180,2|0,0:0|0:0,0:0:0:0:
70,320,43906,6,0,B|81:310|81:310|81:317|81:317|88:310|88:310|88:317|88:317|95:310|95:310|95:317|95:317|102:308|102:308|102:317|102:317|109:310|109:310|109:317|109:317|119:308|119:308|119:317|119:317|126:308|126:308|126:315|126:315|133:308|133:308|133:315|133:315|142:308|142:308|142:315|142:315|149:308|149:308|149:315|149:315|157:308|157:308|157:315|157:315|164:308|164:308|164:315|164:315|171:308|171:308|171:315|171:315|178:308|178:308|185:315|185:315|185:308|185:308|185:317|185:317|192:308|192:308|192:315|192:315|201:308|201:308|199:315|199:315|208:308|208:308|206:315|206:315|248:322,1,360,4|2,0:0|0:0,0:0:0:0:
