osu file format v14

[General]
AudioFilename: audio.mp3
AudioLeadIn: 0
PreviewTime: -1
Countdown: 0
SampleSet: Soft
StackLeniency: 0.7
Mode: 0
LetterboxInBreaks: 0
WidescreenStoryboard: 0

[Editor]
DistanceSpacing: 0.8
BeatDivisor: 9
GridSize: 32
TimelineZoom: 1

[Metadata]
Title:Mlody Manson
TitleUnicode:Mlody Manson
Artist:Young Multi ft. Szpaku, Kubi Producent, Lucassi
ArtistUnicode:Young Multi ft. Szpaku, Kubi Producent, Lucassi
Creator:uga_czaka
Version:Pragnienie Zemsty
Source:
Tags:youngmulti rap poland
BeatmapID:4548303
BeatmapSetID:2157539

[Difficulty]
HPDrainRate:5
CircleSize:4
OverallDifficulty:7
ApproachRate:8
SliderMultiplier:2.09999990463257
SliderTickRate:3

[Events]
//Background and Video events
0,0,"manson1.png",0,0
//Break Periods
//Storyboard Layer 0 (Background)
//Storyboard Layer 1 (Fail)
//Storyboard Layer 2 (Pass)
//Storyboard Layer 3 (Foreground)
//Storyboard Layer 4 (Overlay)
//Storyboard Sound Samples

[TimingPoints]
-84.4897959183675,428.571428571429,4,2,0,100,1,0

[Colours]
Combo1 : 97,97,97
Combo2 : 69,67,67
Combo3 : 255,255,255
Combo4 : 162,162,162
Combo5 : 58,58,58

[HitObjects]
58,150,1140,5,0,0:0:0:0:
131,52,1323,1,0,0:0:0:0:
257,62,1507,1,0,0:0:0:0:
352,58,1752,2,0,P|375:102|374:105,1,29.9999986376081
443,123,2085,1,0,0:0:0:0:
141,87,2303,5,0,0:0:0:0:
253,192,2487,1,0,0:0:0:0:
331,47,2731,5,0,0:0:0:0:
422,112,2915,1,0,0:0:0:0:
190,74,3160,2,0,P|174:115|177:124,1,29.9999986376081
130,135,3405,1,0,0:0:0:0:
160,270,3772,5,0,0:0:0:0:
369,246,4017,1,0,0:0:0:0:
339,57,4262,1,0,0:0:0:0:
107,64,4629,5,0,0:0:0:0:
95,187,4813,1,0,0:0:0:0:
195,287,4997,1,0,0:0:0:0:
233,67,5180,2,0,P|277:92|278:94,1,29.9999986376081
342,103,5364,1,0,0:0:0:0:
379,274,5669,5,0,0:0:0:0:
250,286,5793,2,0,P|227:260|227:253,1,29.9999986376081
106,89,6037,5,0,0:0:0:0:
217,52,6221,1,0,0:0:0:0:
371,51,6405,1,0,0:0:0:0:
367,146,6588,1,0,0:0:0:0:
101,57,6895,6,0,B|314:22|328:25|91:272,1,449.999979564122
330,62,8242,5,0,0:0:0:0:
418,82,8364,2,0,P|444:143|440:147,1,59.9999972752163
421,222,8670,1,0,0:0:0:0:
256,62,8976,1,0,0:0:0:0:
130,106,9160,6,0,P|97:159|98:162,1,59.9999972752163
189,176,9405,1,0,0:0:0:0:
269,37,9895,5,0,0:0:0:0:
412,116,10017,2,0,P|438:177|434:181,1,59.9999972752163
347,212,10323,1,0,0:0:0:0:
283,156,10629,1,0,0:0:0:0:
101,251,10813,6,0,P|136:300|150:300,1,59.9999972752163
197,226,11058,1,0,0:0:0:0:
107,67,11548,5,0,0:0:0:0:
165,65,11670,2,0,P|246:58|253:64,1,89.9999959128244
338,49,12037,1,0,0:0:0:0:
412,152,12221,1,0,0:0:0:0:
414,253,12344,2,0,P|387:294|379:294,1,59.9999972752163
127,87,12772,5,0,0:0:0:0:
69,170,12956,1,0,0:0:0:0:
136,238,13201,1,0,0:0:0:0:
185,153,13446,1,0,0:0:0:0:
326,54,13752,6,0,B|180:54|167:52|135:122|442:196|507:162|142:199|128:257|156:290|295:281|348:276,1,524.999976158143
375,188,15076,1,0,0:0:0:0:
263,39,16201,5,0,0:0:0:0:
385,99,16384,1,0,0:0:0:0:
385,247,16568,1,0,0:0:0:0:
209,114,16813,1,0,0:0:0:0:
185,40,17180,6,0,B|72:191|67:199|245:144|253:139|256:152|251:189|221:251|213:299|441:204,1,509.999976839338
390,63,18527,1,0,0:0:0:0:
230,47,19201,5,0,0:0:0:0:
110,78,19446,1,0,0:0:0:0:
89,135,19691,2,0,L|103:173,11,29.9999986376081
352,43,20548,1,0,0:0:0:0:
460,133,20731,1,0,0:0:0:0:
172,62,20915,6,0,L|133:93,10,29.9999986376081
328,67,21772,5,0,0:0:0:0:
293,179,21956,2,0,L|317:199,5,29.9999986376081
143,48,22629,5,0,0:0:0:0:
57,162,22874,1,0,0:0:0:0:
111,294,23058,2,0,P|171:302|181:295,1,59.9999972752163
242,237,23364,1,0,0:0:0:0:
305,97,23609,5,0,0:0:0:0:
366,195,23731,2,0,L|378:231,3,29.9999986376081
164,107,24037,6,0,L|129:128,10,29.9999986376081
289,54,24895,5,0,0:0:0:0:
369,141,25140,1,0,0:0:0:0:
270,236,25324,1,0,0:0:0:0:
147,59,25446,1,0,0:0:0:0:
100,110,25630,2,0,P|79:151|81:159,1,29.9999986376081
371,74,26180,5,0,0:0:0:0:
218,53,26364,1,0,0:0:0:0:
90,119,26548,1,0,0:0:0:0:
157,255,26670,1,0,0:0:0:0:
321,303,26854,1,0,0:0:0:0:
402,201,27037,2,0,P|408:133|401:124,2,59.9999972752163
164,46,27466,5,0,0:0:0:0:
99,134,27588,1,0,0:0:0:0:
224,179,27711,2,0,B|358:191|364:191|400:119|501:50|279:30|265:89|166:151|380:220|478:182|477:182,1,479.99997820173
355,235,29119,1,0,0:0:0:0:
160,52,29609,5,0,0:0:0:0:
160,52,29670,1,0,0:0:0:0:
160,52,29731,1,0,0:0:0:0:
160,52,29793,1,0,0:0:0:0:
326,60,29976,1,0,0:0:0:0:
381,189,30221,1,0,0:0:0:0:
109,146,30405,5,0,0:0:0:0:
86,242,30650,1,0,0:0:0:0:
138,291,30895,2,0,P|286:296|301:290,2,149.999993188041
58,118,31813,5,0,0:0:0:0:
250,41,31997,1,0,0:0:0:0:
352,52,32242,1,0,0:0:0:0:
387,131,32486,2,0,P|303:142|297:139,2,89.9999959128244
230,47,33037,5,0,0:0:0:0:
110,78,33221,1,0,0:0:0:0:
74,180,33405,1,0,0:0:0:0:
74,180,33466,1,0,0:0:0:0:
74,180,33528,1,0,0:0:0:0:
74,180,33589,1,0,0:0:0:0:
74,180,33650,1,0,0:0:0:0:
74,180,33712,1,0,0:0:0:0:
74,180,33773,1,0,0:0:0:0:
74,180,33834,1,0,0:0:0:0:
74,180,33895,1,0,0:0:0:0:
74,180,33956,1,0,0:0:0:0:
74,180,34017,1,0,0:0:0:0:
329,53,34323,5,0,0:0:0:0:
403,185,34567,1,0,0:0:0:0:
172,62,34751,6,0,L|133:93,10,29.9999986376081
170,180,35608,5,0,0:0:0:0:
293,179,35792,2,0,L|317:199,5,29.9999986376081
143,48,36466,5,0,0:0:0:0:
57,162,36710,1,0,0:0:0:0:
111,294,36894,2,0,P|171:302|181:295,1,59.9999972752163
242,237,37200,1,0,0:0:0:0:
292,175,37384,5,0,0:0:0:0:
174,50,37813,5,0,0:0:0:0:
84,141,38058,2,0,P|119:190|124:192,1,59.9999972752163
289,54,38609,5,0,0:0:0:0:
416,139,38793,1,0,0:0:0:0:
307,252,38977,1,0,0:0:0:0:
147,59,39099,1,0,0:0:0:0:
100,110,39344,2,0,P|79:151|81:159,1,29.9999986376081
158,43,39956,5,0,0:0:0:0:
307,74,40140,1,0,0:0:0:0:
167,46,40323,5,0,0:0:0:0:
63,140,40446,1,0,0:0:0:0:
134,230,40629,1,0,0:0:0:0:
134,230,40690,1,0,0:0:0:0:
134,230,40752,2,0,P|211:228|221:222,2,89.9999959128244
166,55,41303,5,0,0:0:0:0:
178,260,41548,2,0,B|373:107|375:105|333:61|218:75|252:152|395:223,1,449.999979564122
355,235,42895,1,0,0:0:0:0:
160,52,43323,5,0,0:0:0:0:
160,52,43384,1,0,0:0:0:0:
160,52,43445,1,0,0:0:0:0:
160,52,43507,1,0,0:0:0:0:
306,63,43690,1,0,0:0:0:0:
366,200,43935,1,0,0:0:0:0:
98,162,44119,5,0,0:0:0:0:
86,242,44364,1,0,0:0:0:0:
138,291,44609,2,0,P|286:296|301:290,2,149.999993188041
63,122,45466,5,0,0:0:0:0:
211,42,45650,1,0,0:0:0:0:
335,41,45895,1,0,0:0:0:0:
420,115,46078,1,0,0:0:0:0:
344,135,46201,2,0,P|185:134|171:130,2,149.999993188041
82,95,47976,5,0,0:0:0:0:
177,50,48099,1,0,0:0:0:0:
177,50,48160,1,0,0:0:0:0:
177,50,48221,1,0,0:0:0:0:
307,47,48527,5,0,0:0:0:0:
417,79,48711,1,0,0:0:0:0:
355,131,48895,2,0,P|408:134|417:140,1,59.9999972752163
369,213,49384,5,0,0:0:0:0:
427,323,49507,1,0,0:0:0:0:
184,50,49752,5,0,0:0:0:0:
70,106,49874,1,0,0:0:0:0:
73,110,49935,1,0,0:0:0:0:
73,110,49997,1,0,0:0:0:0:
73,110,50058,1,0,0:0:0:0:
57,178,50180,2,0,P|82:210|92:214,1,29.9999986376081
170,249,50425,5,0,0:0:0:0:
381,188,50609,1,0,0:0:0:0:
278,45,50793,1,0,0:0:0:0:
110,54,51466,5,0,0:0:0:0:
66,114,51588,2,0,P|70:153|74:156,1,29.9999986376081
288,49,51895,6,0,P|315:73|317:83,1,29.9999986376081
376,111,52078,1,0,0:0:0:0:
273,156,52262,2,0,P|273:229|280:237,1,59.9999972752163
163,273,52629,5,0,0:0:0:0:
301,322,52752,1,0,0:0:0:0:
224,200,52874,2,0,P|176:167|170:168,1,59.9999972752163
336,58,53180,5,0,0:0:0:0:
244,56,53303,2,0,P|180:53|175:56,2,59.9999972752163
224,130,53793,1,0,0:0:0:0:
117,201,53976,5,0,0:0:0:0:
347,252,54221,2,0,P|394:202|395:193,1,59.9999972752163
134,60,54650,5,0,0:0:0:0:
265,36,54833,1,0,0:0:0:0:
304,105,55017,2,0,P|325:131|323:140,1,29.9999986376081
340,204,55262,1,0,0:0:0:0:
173,66,55568,5,0,0:0:0:0:
110,177,55691,1,0,0:0:0:0:
187,309,55874,1,0,0:0:0:0:
262,39,56180,5,0,0:0:0:0:
177,132,56364,2,0,P|208:166|214:165,1,29.9999986376081
334,48,56609,5,0,0:0:0:0:
410,160,56731,1,0,0:0:0:0:
323,286,56854,1,0,0:0:0:0:
183,58,57037,5,0,0:0:0:0:
229,204,57160,2,0,P|253:250|255:251,1,29.9999986376081
371,71,57466,2,0,P|410:117|412:124,2,59.9999972752163
295,59,58629,5,0,0:0:0:0:
380,128,58813,1,0,0:0:0:0:
267,149,59058,2,0,P|290:200|306:199,1,59.9999972752163
191,141,59425,5,0,0:0:0:0:
129,223,59609,1,0,0:0:0:0:
237,277,59793,1,0,0:0:0:0:
320,129,59976,2,0,P|360:159|363:163,1,29.9999986376081
391,220,60160,1,0,0:0:0:0:
256,54,60466,5,0,0:0:0:0:
183,162,60650,1,0,0:0:0:0:
324,165,60833,1,0,0:0:0:0:
133,280,61078,2,0,P|174:313|185:313,1,59.9999972752163
162,224,61691,5,0,0:0:0:0:
317,208,61874,1,0,0:0:0:0:
150,94,62180,2,0,P|341:99|347:101,1,179.999991825649
116,56,62854,5,0,0:0:0:0:
61,150,63099,1,0,0:0:0:0:
164,115,63282,2,0,P|215:94|219:95,1,59.9999972752163
266,77,63772,5,0,0:0:0:0:
389,44,64017,1,0,0:0:0:0:
418,167,64262,1,0,0:0:0:0:
211,125,64507,5,0,0:0:0:0:
145,198,64691,1,0,0:0:0:0:
179,275,64935,2,0,P|228:308|236:308,1,59.9999972752163
294,277,65180,1,0,0:0:0:0:
393,146,65548,5,0,0:0:0:0:
256,45,65793,1,0,0:0:0:0:
114,86,66037,1,0,0:0:0:0:
101,61,66405,5,0,0:0:0:0:
183,53,66588,1,0,0:0:0:0:
271,45,66833,1,0,0:0:0:0:
334,62,67017,2,0,P|371:85|374:90,1,29.9999986376081
245,154,67323,5,0,0:0:0:0:
383,184,67507,1,0,0:0:0:0:
269,260,67629,2,0,P|269:309|273:314,1,29.9999986376081
169,281,67935,5,0,0:0:0:0:
96,161,68119,1,0,0:0:0:0:
157,89,68242,2,0,P|195:71|200:73,1,29.9999986376081
263,49,68609,5,0,0:0:0:0:
396,93,68854,2,0,B|438:201|439:204|332:202|326:201|321:202|417:305,1,269.999987738473
108,53,69833,5,0,0:0:0:0:
60,146,69956,1,0,0:0:0:0:
95,245,70140,1,0,0:0:0:0:
128,287,70262,2,0,P|180:293|181:293,1,29.9999986376081
209,250,70568,1,0,0:0:0:0:
331,269,70813,5,0,0:0:0:0:
328,151,71058,1,0,0:0:0:0:
313,96,71242,2,0,P|281:67|271:65,1,29.9999986376081
192,45,71609,5,0,0:0:0:0:
107,142,71793,1,0,0:0:0:0:
191,119,72037,2,0,P|224:143|223:150,1,29.9999986376081
268,190,72405,1,0,0:0:0:0:
387,50,72650,5,0,0:0:0:0:
315,111,72895,1,0,0:0:0:0:
411,149,73078,2,0,B|398:264|396:271|284:277|323:321,1,209.999990463257
101,67,74180,5,0,0:0:0:0:
232,39,74425,1,0,0:0:0:0:
368,58,74609,1,0,0:0:0:0:
452,109,74793,1,0,0:0:0:0:
350,140,74976,1,0,0:0:0:0:
446,199,75160,1,0,0:0:0:0:
359,161,75466,2,0,P|271:228|249:232,1,119.999994550433
182,229,75895,1,0,0:0:0:0:
145,48,76323,5,0,0:0:0:0:
78,99,76507,1,0,0:0:0:0:
198,135,76691,5,0,0:0:0:0:
279,54,77548,5,0,0:0:0:0:
330,57,77731,2,0,P|382:79|388:89,1,59.9999972752163
425,165,78037,1,0,0:0:0:0:
319,168,78160,1,0,0:0:0:0:
215,108,78405,1,0,0:0:0:0:
79,128,78588,1,0,0:0:0:0:
254,116,78833,5,0,0:0:0:0:
255,200,79140,2,0,P|254:315|252:317,1,119.999994550433
289,54,79752,5,0,0:0:0:0:
369,141,79997,1,0,0:0:0:0:
270,236,80181,1,0,0:0:0:0:
147,59,80303,1,0,0:0:0:0:
100,110,80487,2,0,P|79:151|81:159,1,29.9999986376081
85,67,81038,5,0,0:0:0:0:
85,67,81099,1,0,0:0:0:0:
85,67,81160,1,0,0:0:0:0:
85,67,81221,1,0,0:0:0:0:
230,48,81405,5,0,0:0:0:0:
230,48,81466,1,0,0:0:0:0:
230,48,81527,1,0,0:0:0:0:
230,48,81589,1,0,0:0:0:0:
316,46,81834,5,0,0:0:0:0:
316,46,81895,1,0,0:0:0:0:
316,46,81956,1,0,0:0:0:0:
316,46,82017,1,0,0:0:0:0:
188,133,82323,5,0,0:0:0:0:
175,268,82446,2,0,B|416:263|293:271|173:120|266:201|389:189,1,329.99998501369
265,48,83609,5,0,0:0:0:0:
56,107,84405,5,0,0:0:0:0:
138,27,84527,1,0,0:0:0:0:
215,72,84711,1,0,0:0:0:0:
276,52,84895,5,0,0:0:0:0:
350,130,85078,1,0,0:0:0:0:
171,191,85262,5,0,0:0:0:0:
81,256,85507,1,0,0:0:0:0:
138,312,85752,2,0,P|286:317|301:311,2,149.999993188041
56,53,86609,5,0,0:0:0:0:
74,149,86793,1,0,0:0:0:0:
166,43,87038,1,0,0:0:0:0:
165,143,87221,1,0,0:0:0:0:
337,114,87344,2,0,P|249:169|246:169,2,89.9999959128244
101,67,87895,5,0,0:0:0:0:
232,39,88140,1,0,0:0:0:0:
368,58,88324,1,0,0:0:0:0:
452,109,88508,1,0,0:0:0:0:
350,140,88691,1,0,0:0:0:0:
446,199,88875,1,0,0:0:0:0:
359,161,89181,2,0,P|271:228|249:232,1,119.999994550433
182,229,89610,1,0,0:0:0:0:
145,48,90037,5,0,0:0:0:0:
78,99,90221,1,0,0:0:0:0:
198,135,90405,5,0,0:0:0:0:
279,54,91262,5,0,0:0:0:0:
330,57,91445,2,0,P|382:79|388:89,1,59.9999972752163
425,165,91751,1,0,0:0:0:0:
319,168,91874,1,0,0:0:0:0:
215,108,92119,1,0,0:0:0:0:
79,128,92302,1,0,0:0:0:0:
254,116,92547,5,0,0:0:0:0:
255,200,92854,2,0,P|254:315|252:317,1,119.999994550433
289,54,93466,5,0,0:0:0:0:
369,141,93711,1,0,0:0:0:0:
270,236,93895,1,0,0:0:0:0:
147,59,94017,1,0,0:0:0:0:
100,110,94201,2,0,P|79:151|81:159,1,29.9999986376081
85,67,94752,5,0,0:0:0:0:
85,67,94813,1,0,0:0:0:0:
85,67,94874,1,0,0:0:0:0:
85,67,94935,1,0,0:0:0:0:
230,48,95119,5,0,0:0:0:0:
230,48,95180,1,0,0:0:0:0:
230,48,95241,1,0,0:0:0:0:
230,48,95303,1,0,0:0:0:0:
316,46,95548,5,0,0:0:0:0:
316,46,95609,1,0,0:0:0:0:
316,46,95670,1,0,0:0:0:0:
316,46,95731,1,0,0:0:0:0:
188,133,96037,5,0,0:0:0:0:
175,268,96160,2,0,B|416:263|293:271|173:120|266:201|389:189,1,329.99998501369
265,48,97323,5,0,0:0:0:0:
56,107,98119,5,0,0:0:0:0:
138,27,98241,1,0,0:0:0:0:
215,72,98425,1,0,0:0:0:0:
276,52,98609,5,0,0:0:0:0:
350,130,98792,1,0,0:0:0:0:
171,191,98976,5,0,0:0:0:0:
81,256,99221,1,0,0:0:0:0:
138,312,99466,2,0,P|286:317|301:311,2,149.999993188041
56,53,100262,5,0,0:0:0:0:
74,149,100446,1,0,0:0:0:0:
166,43,100691,1,0,0:0:0:0:
165,143,100874,1,0,0:0:0:0:
303,216,100997,2,0,P|144:215|130:211,2,149.999993188041
120,53,103323,5,0,0:0:0:0:
225,126,103507,1,0,0:0:0:0:
304,57,103691,2,0,P|353:103|353:109,1,59.9999972752163
438,197,104180,5,0,0:0:0:0:
321,282,104364,1,0,0:0:0:0:
198,160,104486,1,0,0:0:0:0:
125,63,104731,2,0,P|80:118|79:123,2,59.9999972752163
237,56,105221,5,0,0:0:0:0:
201,157,105405,1,0,0:0:0:0:
341,155,105588,1,0,0:0:0:0:
375,58,105956,5,0,0:0:0:0:
257,45,106140,1,0,0:0:0:0:
120,70,106323,1,0,0:0:0:0:
167,160,106507,1,0,0:0:0:0:
327,127,106691,1,0,0:0:0:0:
418,152,106874,2,0,P|429:215|426:218,1,59.9999972752163
292,185,107180,5,0,0:0:0:0:
221,234,107303,2,0,P|252:298|257:302,1,59.9999972752163
118,295,107670,5,0,0:0:0:0:
118,169,107854,1,0,0:0:0:0:
256,173,108038,1,0,0:0:0:0:
381,232,108221,1,0,0:0:0:0:
375,177,108466,6,0,P|341:140|338:139,1,29.9999986376081
296,108,108772,1,0,0:0:0:0:
156,145,108956,2,0,P|154:221|161:236,1,89.9999959128244
385,43,109997,5,0,0:0:0:0:
455,101,110180,1,0,0:0:0:0:
325,88,110364,1,0,0:0:0:0:
400,151,110548,1,0,0:0:0:0:
261,152,110731,1,0,0:0:0:0:
338,209,110915,1,0,0:0:0:0:
322,266,111160,6,0,L|343:287,9,29.9999986376081
207,303,111895,1,0,0:0:0:0:
112,196,112078,1,0,0:0:0:0:
170,72,112262,2,0,P|206:76|211:82,1,29.9999986376081
290,78,112507,1,0,0:0:0:0:
107,130,112813,5,0,0:0:0:0:
168,198,112935,1,0,0:0:0:0:
234,140,113242,2,0,P|278:146|280:147,1,29.9999986376081
349,150,113486,1,0,0:0:0:0:
368,78,113731,5,0,0:0:0:0:
460,153,113854,1,0,0:0:0:0:
376,205,114037,2,0,P|382:248|384:251,1,29.9999986376081
256,187,114344,5,0,0:0:0:0:
197,66,114527,1,0,0:0:0:0:
102,121,114711,1,0,0:0:0:0:
79,223,114833,2,0,P|107:273|112:275,1,59.9999972752163
210,218,115140,1,0,0:0:0:0:
251,108,115384,5,0,0:0:0:0:
355,128,115568,1,0,0:0:0:0:
281,218,115752,1,0,0:0:0:0:
185,147,115997,2,0,P|146:146|143:148,1,29.9999986376081
190,58,116242,5,0,0:0:0:0:
312,51,116425,1,0,0:0:0:0:
394,90,116609,2,0,P|423:146|425:153,2,59.9999972752163
330,51,117037,1,0,0:0:0:0:
192,51,117282,5,0,0:0:0:0:
84,114,117466,1,0,0:0:0:0:
203,150,117650,1,0,0:0:0:0:
360,99,117956,5,0,0:0:0:0:
227,139,118140,1,0,0:0:0:0:
228,253,118323,1,0,0:0:0:0:
316,146,118507,1,0,0:0:0:0:
316,240,118752,1,0,0:0:0:0:
404,126,119119,5,0,0:0:0:0:
408,209,119364,2,0,P|383:315|377:319,1,119.999994550433
315,227,119854,1,0,0:0:0:0:
180,47,120282,5,0,0:0:0:0:
66,114,120466,1,0,0:0:0:0:
153,160,120650,2,0,P|217:159|220:157,1,59.9999972752163
280,100,120956,1,0,0:0:0:0:
406,53,121140,1,0,0:0:0:0:
411,150,121568,6,0,L|407:184,3,29.9999986376081
358,260,121935,1,0,0:0:0:0:
299,158,122180,1,0,0:0:0:0:
155,149,122425,1,0,0:0:0:0:
127,188,122609,2,0,P|140:253|143:257,2,59.9999972752163
221,77,123895,5,0,0:0:0:0:
79,133,124078,1,0,0:0:0:0:
196,162,124262,1,0,0:0:0:0:
274,112,124507,2,0,P|312:147|313:151,1,29.9999986376081
334,192,124813,1,0,0:0:0:0:
379,70,125119,5,0,0:0:0:0:
443,171,125242,1,0,0:0:0:0:
319,181,125364,1,0,0:0:0:0:
278,279,125548,1,0,0:0:0:0:
150,233,125731,1,0,0:0:0:0:
95,316,125915,2,0,P|35:219|34:208,2,119.999994550433
252,37,127323,5,0,0:0:0:0:
190,113,127507,1,0,0:0:0:0:
300,114,127691,1,0,0:0:0:0:
223,171,127874,2,0,P|258:196|261:196,1,29.9999986376081
336,171,128119,5,0,0:0:0:0:
379,62,128364,1,0,0:0:0:0:
445,175,128609,5,0,0:0:0:0:
381,271,128854,1,0,0:0:0:0:
308,181,129099,1,0,0:0:0:0:
191,165,129344,1,0,0:0:0:0:
112,229,129527,1,0,0:0:0:0:
170,299,129711,2,0,P|329:306|342:303,1,149.999993188041
136,53,130691,5,0,0:0:0:0:
119,93,130874,1,0,0:0:0:0:
107,134,131058,1,0,0:0:0:0:
102,168,131242,1,0,0:0:0:0:
104,206,131425,1,0,0:0:0:0:
110,258,131609,1,0,0:0:0:0:
120,298,131793,1,0,0:0:0:0:
233,167,132037,5,0,0:0:0:0:
301,62,132283,1,0,0:0:0:0:
361,93,132527,2,0,P|371:171|369:175,1,59.9999972752163
130,63,132956,6,0,L|109:87,4,29.9999986376081
219,124,133384,1,0,0:0:0:0:
270,53,134119,5,0,0:0:0:0:
358,59,134303,1,0,0:0:0:0:
361,167,134486,1,0,0:0:0:0:
244,157,134670,2,0,P|215:175|214:179,1,29.9999986376081
118,216,134915,1,0,0:0:0:0:
217,293,135099,1,0,0:0:0:0:
299,281,135405,6,0,B|370:188|375:181|379:173|246:168|238:167|369:60,1,299.999986376081
118,49,136323,5,0,0:0:0:0:
78,136,136507,1,0,0:0:0:0:
185,184,136691,1,0,0:0:0:0:
237,93,136874,1,0,0:0:0:0:
336,87,137058,2,0,P|359:123|359:128,1,29.9999986376081
223,38,137670,5,0,0:0:0:0:
296,37,137854,1,0,0:0:0:0:
229,84,138037,1,0,0:0:0:0:
308,87,138221,1,0,0:0:0:0:
221,143,138405,1,0,0:0:0:0:
309,145,138588,1,0,0:0:0:0:
108,141,138833,5,0,0:0:0:0:
60,225,139017,1,0,0:0:0:0:
149,251,139201,2,0,B|307:258|321:259|367:331|368:342|421:133,1,389.999982288906
434,65,140180,1,0,0:0:0:0:
95,54,141037,5,0,0:0:0:0:
95,54,141099,1,0,0:0:0:0:
95,54,141160,1,0,0:0:0:0:
95,54,141221,1,0,0:0:0:0:
95,54,141282,1,0,0:0:0:0:
247,49,141527,5,0,0:0:0:0:
370,47,141711,1,0,0:0:0:0:
432,114,141895,1,0,0:0:0:0:
295,151,142078,1,0,0:0:0:0:
361,199,142262,2,0,B|406:252|413:259|308:266|301:268|375:331,1,179.999991825649
399,345,142813,1,0,0:0:0:0:
198,43,143180,5,0,0:0:0:0:
112,101,143364,1,0,0:0:0:0:
203,116,143548,1,0,0:0:0:0:
135,184,143731,1,0,0:0:0:0:
186,245,143915,2,0,B|187:317|187:326|238:231|244:220|253:199|247:313,1,179.999991825649
136,53,144405,5,0,0:0:0:0:
119,93,144588,1,0,0:0:0:0:
107,134,144772,1,0,0:0:0:0:
102,168,144956,1,0,0:0:0:0:
104,206,145139,1,0,0:0:0:0:
110,258,145323,1,0,0:0:0:0:
120,298,145507,1,0,0:0:0:0:
233,167,145751,5,0,0:0:0:0:
301,62,145997,1,0,0:0:0:0:
361,93,146241,2,0,P|371:171|369:175,1,59.9999972752163
130,63,146670,6,0,L|109:87,4,29.9999986376081
219,124,147098,1,0,0:0:0:0:
270,53,147833,5,0,0:0:0:0:
358,59,148017,1,0,0:0:0:0:
361,167,148200,1,0,0:0:0:0:
244,157,148384,2,0,P|215:175|214:179,1,29.9999986376081
118,216,148629,1,0,0:0:0:0:
217,293,148813,1,0,0:0:0:0:
299,281,149119,6,0,B|370:188|375:181|379:173|246:168|238:167|369:60,1,299.999986376081
118,49,150037,5,0,0:0:0:0:
78,136,150221,1,0,0:0:0:0:
185,184,150405,1,0,0:0:0:0:
237,93,150588,1,0,0:0:0:0:
336,87,150772,2,0,P|359:123|359:128,1,29.9999986376081
223,38,151323,5,0,0:0:0:0:
296,37,151507,1,0,0:0:0:0:
229,84,151690,1,0,0:0:0:0:
308,87,151874,1,0,0:0:0:0:
221,143,152058,1,0,0:0:0:0:
309,145,152241,1,0,0:0:0:0:
108,141,152486,5,0,0:0:0:0:
60,225,152670,1,0,0:0:0:0:
149,251,152854,2,0,B|307:258|321:259|367:331|368:342|421:133,1,389.999982288906
434,65,153895,1,0,0:0:0:0:
95,54,154690,5,0,0:0:0:0:
95,54,154752,1,0,0:0:0:0:
95,54,154813,1,0,0:0:0:0:
95,54,154874,1,0,0:0:0:0:
95,54,154935,1,0,0:0:0:0:
247,49,155180,5,0,0:0:0:0:
370,47,155364,1,0,0:0:0:0:
432,114,155548,1,0,0:0:0:0:
295,151,155731,1,0,0:0:0:0:
361,199,155915,2,0,B|406:252|413:259|308:266|301:268|375:331,1,179.999991825649
399,345,156466,1,0,0:0:0:0:
198,43,156833,5,0,0:0:0:0:
112,101,157017,1,0,0:0:0:0:
203,116,157201,1,0,0:0:0:0:
135,184,157384,1,0,0:0:0:0:
194,227,157568,2,0,B|260:220|269:218|241:335|222:345|361:313|379:310|348:158,1,329.99998501369
246,107,159099,5,0,0:0:0:0:
