osu file format v14

[General]
AudioFilename: audio.mp3
AudioLeadIn: 0
PreviewTime: 56219
Countdown: 1
SampleSet: Soft
StackLeniency: 0.3
Mode: 0
LetterboxInBreaks: 0
WidescreenStoryboard: 0

[Editor]
DistanceSpacing: 1.3
BeatDivisor: 4
GridSize: 8
TimelineZoom: 1.4

[Metadata]
Title:BAD
TitleUnicode:BAD
Artist:Young Lex feat. AwKarin
ArtistUnicode:Young Lex feat. AwKarin
Creator:3312
Version:EXTRA
Source:
Tags:pls kill me
BeatmapID:1452451
BeatmapSetID:686244

[Difficulty]
HPDrainRate:7
CircleSize:4
OverallDifficulty:8.5
ApproachRate:9.5
SliderMultiplier:1.9
SliderTickRate:1

[Events]
//Background and Video events
0,0,"akupenuhdosa.png",0,0
//Break Periods
2,40668,47944
//Storyboard Layer 0 (Background)
//Storyboard Layer 1 (Fail)
//Storyboard Layer 2 (Pass)
//Storyboard Layer 3 (Foreground)
//Storyboard Sound Samples

[TimingPoints]
8469.19672131147,500,4,2,0,100,1,0
56469,-200,4,2,0,100,0,1
57469,-100,4,2,0,100,0,0
72469,-200,4,2,0,100,0,1
73469,-100,4,2,0,100,0,0
88469,-200,4,2,0,100,0,1
89302,-100,4,2,0,100,0,0
94469,-200,4,2,0,49,0,0

[HitObjects]
256,192,7469,12,0,8302,0:0:0:0:
115,200,8469,6,0,P|170:179|240:205,1,126.666666666667
298,257,8969,1,0,0:0:0:0:
379,222,9135,1,0,0:0:0:0:
372,133,9302,1,0,0:0:0:0:
284,117,9469,5,0,0:0:0:0:
233,189,9635,1,0,0:0:0:0:
192,109,9802,5,0,0:0:0:0:
141,181,9969,5,0,0:0:0:0:
141,181,10135,5,0,0:0:0:0:
141,181,10302,5,0,0:0:0:0:
141,181,10469,6,0,L|142:237,1,31.6666666666667
141,181,10969,2,0,P|185:171|225:181,1,63.3333333333333
277,197,11219,1,0,0:0:0:0:
294,215,11302,1,0,0:0:0:0:
310,231,11385,1,0,0:0:0:0:
325,249,11469,5,0,0:0:0:0:
413,249,11635,5,0,0:0:0:0:
325,249,11802,5,0,0:0:0:0:
376,176,11969,6,0,P|382:104|353:71,1,63.3333333333333
315,60,12302,1,0,0:0:0:0:
244,114,12469,5,0,0:0:0:0:
164,152,12635,2,0,P|101:148|68:125,1,63.3333333333333
29,108,12969,1,0,0:0:0:0:
29,108,13052,1,0,0:0:0:0:
29,108,13135,2,0,L|18:212,2,63.3333333333333
29,108,13969,6,0,L|146:108,1,95
283,112,14469,1,0,0:0:0:0:
362,132,14635,1,0,0:0:0:0:
439,103,14802,1,0,0:0:0:0:
370,149,14969,1,0,0:0:0:0:
343,226,15135,1,0,0:0:0:0:
379,300,15302,1,0,0:0:0:0:
446,347,15469,5,0,0:0:0:0:
446,347,15969,2,0,L|449:287,1,31.6666666666667,2|0,0:0|0:0,0:0:0:0:
407,187,16469,5,0,0:0:0:0:
298,216,16635,1,0,0:0:0:0:
328,108,16802,1,0,0:0:0:0:
328,108,16969,1,0,0:0:0:0:
408,215,17135,5,0,0:0:0:0:
275,200,17301,1,0,0:0:0:0:
354,94,17468,1,0,0:0:0:0:
354,94,17969,5,0,0:0:0:0:
408,212,18135,1,0,0:0:0:0:
434,68,18302,1,0,0:0:0:0:
323,207,18469,1,0,0:0:0:0:
494,133,18635,1,0,0:0:0:0:
286,120,18802,1,0,0:0:0:0:
429,254,18968,1,0,0:0:0:0:
392,48,19135,1,0,0:0:0:0:
325,235,19302,1,0,0:0:0:0:
318,262,19385,1,0,0:0:0:0:
313,290,19469,5,0,0:0:0:0:
296,1,19719,1,0,0:0:0:0:
296,1,19969,5,0,0:0:0:0:
215,133,20135,1,0,0:0:0:0:
374,63,20302,1,0,0:0:0:0:
148,66,20469,1,0,0:0:0:0:
363,170,20635,1,0,0:0:0:0:
230,15,20802,1,0,0:0:0:0:
228,225,20969,1,0,0:0:0:0:
325,12,21135,1,0,0:0:0:0:
105,120,21302,1,0,0:0:0:0:
372,119,21469,1,0,0:0:0:0:
372,119,21969,5,0,0:0:0:0:
417,280,22135,1,0,0:0:0:0:
254,102,22302,1,0,0:0:0:0:
204,286,22469,1,0,0:0:0:0:
368,62,22635,1,0,0:0:0:0:
436,292,22802,1,0,0:0:0:0:
207,63,22969,1,0,0:0:0:0:
177,294,23135,5,0,0:0:0:0:
455,180,23302,1,0,0:0:0:0:
157,48,23469,1,0,0:0:0:0:
306,266,23802,5,0,0:0:0:0:
427,266,23969,2,0,B|391:277|348:254|348:254|332:252|298:269,1,126.666666666667
305,265,24469,6,0,B|341:276|384:253|384:253|400:251|426:264,1,126.666666666667
499,225,24969,1,0,0:0:0:0:
484,144,25135,1,0,0:0:0:0:
419,92,25302,1,0,0:0:0:0:
337,102,25469,6,0,L|222:107,1,63.3333333333333
232,101,25719,2,0,L|176:103,1,31.6666666666667
132,149,25969,2,0,P|117:101|144:40,1,95
246,20,26469,6,0,L|277:21,1,23.75
338,83,26719,2,0,L|305:83,1,23.75
246,145,26969,2,0,L|275:144,1,23.75
324,219,27219,2,0,L|282:222,1,23.75
256,283,27469,5,0,0:0:0:0:
345,313,27635,1,0,0:0:0:0:
216,315,27802,5,0,0:0:0:0:
373,274,27969,1,0,0:0:0:0:
373,274,28469,6,0,P|379:224|332:160,1,95
301,39,28969,2,0,P|302:86|326:127,1,95
456,99,29469,2,0,P|406:110|370:144,1,95
231,195,29969,2,0,P|286:197|333:160,1,95
164,154,30469,6,0,P|115:142|63:156,2,95
319,177,31219,2,0,P|366:189|435:158,1,95
463,88,31719,6,0,L|419:86,1,31.6666666666667
227,49,31969,6,0,L|271:47,1,31.6666666666667
372,27,32302,5,0,0:0:0:0:
372,27,32385,1,0,0:0:0:0:
372,27,32469,5,0,0:0:0:0:
317,188,32635,1,0,0:0:0:0:
263,27,32802,1,0,0:0:0:0:
410,141,32969,1,0,0:0:0:0:
234,140,33136,1,0,0:0:0:0:
321,93,33302,5,0,0:0:0:0:
321,93,33385,1,0,0:0:0:0:
321,93,33469,1,0,0:0:0:0:
305,272,33635,1,0,0:0:0:0:
164,79,33802,1,0,0:0:0:0:
155,271,33969,1,0,0:0:0:0:
155,271,34052,1,0,0:0:0:0:
155,271,34135,1,0,0:0:0:0:
404,171,34302,5,0,0:0:0:0:
97,170,34469,1,8,0:0:0:0:
249,317,34635,1,8,0:0:0:0:
250,52,34802,1,8,0:0:0:0:
404,171,34969,1,8,0:0:0:0:
97,170,35135,5,8,0:0:0:0:
249,317,35302,1,8,0:0:0:0:
250,52,35469,1,8,0:0:0:0:
404,171,35635,1,0,0:0:0:0:
97,170,35802,2,0,L|25:171,1,63.3333333333333
33,170,36469,5,0,0:0:0:0:
201,285,36635,1,0,0:0:0:0:
212,98,36802,1,0,0:0:0:0:
71,287,36969,1,0,0:0:0:0:
99,75,37135,5,0,0:0:0:0:
266,189,37302,1,0,0:0:0:0:
19,178,37469,1,0,0:0:0:0:
215,300,37635,1,0,0:0:0:0:
212,98,37802,1,0,0:0:0:0:
66,291,37969,1,0,0:0:0:0:
146,188,38219,5,0,0:0:0:0:
146,188,38469,5,0,0:0:0:0:
354,257,38635,1,0,0:0:0:0:
209,106,38802,1,0,0:0:0:0:
285,335,38969,1,0,0:0:0:0:
294,51,39135,1,0,0:0:0:0:
184,333,39302,1,0,0:0:0:0:
390,77,39469,1,0,0:0:0:0:
94,306,39635,1,0,0:0:0:0:
448,155,39802,1,0,0:0:0:0:
29,204,39969,2,0,B|139:185|113:260|219:238,1,190,0|4,0:0|0:0,0:0:0:0:
403,186,48469,6,0,P|310:175|272:188,1,126.666666666667
219,242,48969,1,0,0:0:0:0:
219,242,49135,1,0,0:0:0:0:
219,242,49302,1,0,0:0:0:0:
219,242,49469,2,0,L|216:371,2,126.666666666667
219,138,50469,6,0,P|224:77|292:33,1,126.666666666667
345,72,50969,1,0,0:0:0:0:
426,62,51135,1,0,0:0:0:0:
502,30,51302,1,0,0:0:0:0:
502,55,51385,1,0,0:0:0:0:
501,80,51469,5,0,0:0:0:0:
424,108,51635,1,0,0:0:0:0:
341,110,51802,1,0,0:0:0:0:
263,81,51969,1,0,0:0:0:0:
263,81,52469,5,0,0:0:0:0:
194,265,52635,1,0,0:0:0:0:
343,125,52802,1,0,0:0:0:0:
278,297,52969,1,0,0:0:0:0:
177,70,53135,1,0,0:0:0:0:
104,238,53302,1,0,0:0:0:0:
356,224,53469,1,0,0:0:0:0:
110,126,53635,1,0,0:0:0:0:
182,302,53802,1,0,0:0:0:0:
279,69,53969,1,0,0:0:0:0:
279,69,54469,5,0,0:0:0:0:
133,188,54635,1,0,0:0:0:0:
319,284,54802,1,0,0:0:0:0:
217,344,54969,5,0,0:0:0:0:
358,167,55135,1,0,0:0:0:0:
161,31,55302,1,0,0:0:0:0:
361,30,55469,6,0,L|361:-4,1,23.75
121,193,55635,1,0,0:0:0:0:
380,347,55802,1,0,0:0:0:0:
258,13,55969,2,0,B|278:69|237:84|268:187,1,126.666666666667
215,210,56469,6,2,B|236:186|260:184|260:184|313:205|369:186,1,158.333333333333,0|0,0:0|0:0,1:0:0:0:
441,212,57469,1,0,0:0:0:0:
474,280,57635,1,0,0:0:0:0:
456,347,57802,1,0,0:0:0:0:
401,378,57969,1,0,0:0:0:0:
351,373,58135,1,0,0:0:0:0:
320,352,58302,1,0,0:0:0:0:
291,336,58469,5,0,0:0:0:0:
291,336,58635,1,0,0:0:0:0:
299,314,58802,1,0,0:0:0:0:
302,282,58969,1,0,0:0:0:0:
288,246,59135,1,0,0:0:0:0:
259,211,59302,1,0,0:0:0:0:
222,175,59469,1,0,0:0:0:0:
195,124,59635,1,0,0:0:0:0:
208,61,59802,1,0,0:0:0:0:
259,6,59969,2,0,B|305:26|305:26|315:70|297:129,1,126.666666666667
248,158,60469,5,8,0:0:0:0:
141,292,60635,1,2,0:0:0:0:
98,133,60802,1,2,0:0:0:0:
236,266,60969,5,8,0:0:0:0:
60,233,61135,1,2,0:0:0:0:
182,100,61302,1,2,0:0:0:0:
246,320,61469,5,8,0:0:0:0:
354,148,61635,1,2,0:0:0:0:
158,155,61802,1,2,0:0:0:0:
385,280,61969,1,2,0:0:0:0:
267,70,62135,5,8,0:0:0:0:
162,290,62302,1,2,0:0:0:0:
419,190,62469,5,4,0:0:0:0:
150,109,62635,1,2,0:0:0:0:
293,340,62802,5,2,0:0:0:0:
395,86,62969,1,2,0:0:0:0:
82,218,63135,5,8,0:0:0:0:
381,333,63302,1,2,0:0:0:0:
253,51,63469,5,8,0:0:0:0:
136,337,63635,1,2,0:0:0:0:
448,165,63802,5,8,0:0:0:0:
158,71,63969,1,2,0:0:0:0:
350,337,64135,6,0,L|449:374,2,63.3333333333333
262,306,65469,1,0,0:0:0:0:
127,283,66469,5,0,0:0:0:0:
127,232,66635,1,0,0:0:0:0:
170,257,66802,1,0,0:0:0:0:
112,259,66969,1,0,0:0:0:0:
154,231,67135,1,0,0:0:0:0:
157,281,67302,1,0,0:0:0:0:
127,283,67469,1,0,0:0:0:0:
127,232,67635,1,0,0:0:0:0:
170,257,67802,1,0,0:0:0:0:
112,259,67969,1,0,0:0:0:0:
112,258,68469,5,0,0:0:0:0:
125,177,68635,2,0,L|128:93,2,63.3333333333333
112,258,69135,2,0,L|111:338,2,63.3333333333333
187,223,69635,2,0,L|250:221,2,63.3333333333333
60,209,70135,5,0,0:0:0:0:
42,128,70302,1,0,0:0:0:0:
128,150,70469,1,0,0:0:0:0:
60,209,70635,1,0,0:0:0:0:
111,60,70802,5,0,0:0:0:0:
128,150,70969,1,0,0:0:0:0:
42,128,71135,1,0,0:0:0:0:
111,60,71302,1,0,0:0:0:0:
128,150,71469,5,0,0:0:0:0:
60,209,71635,1,0,0:0:0:0:
42,128,71802,1,0,0:0:0:0:
111,60,71969,2,0,B|176:40|160:101|285:67,1,126.666666666667
291,144,72469,6,2,B|321:89|298:30|298:30|323:31|361:54,1,158.333333333333,2|0,1:0|0:0,1:0:0:0:
416,62,73469,1,0,0:0:0:0:
484,96,73635,1,0,0:0:0:0:
491,166,73802,1,0,0:0:0:0:
465,217,73969,1,0,0:0:0:0:
426,240,74135,1,0,0:0:0:0:
394,246,74302,1,0,0:0:0:0:
363,253,74469,5,0,0:0:0:0:
363,253,74635,1,0,0:0:0:0:
341,266,74802,1,0,0:0:0:0:
308,285,74969,1,0,0:0:0:0:
270,291,75135,1,0,0:0:0:0:
225,285,75302,1,0,0:0:0:0:
177,268,75469,1,0,0:0:0:0:
122,250,75635,1,0,0:0:0:0:
59,259,75802,1,0,0:0:0:0:
3,281,75969,2,0,B|-6:216|23:224|7:155,1,126.666666666667
51,86,76469,5,0,0:0:0:0:
129,63,76635,1,0,0:0:0:0:
194,112,76802,1,0,0:0:0:0:
242,203,76969,5,0,0:0:0:0:
315,240,77135,1,0,0:0:0:0:
392,211,77302,1,0,0:0:0:0:
460,119,77469,5,0,0:0:0:0:
329,12,77635,1,0,0:0:0:0:
392,211,77802,1,0,0:0:0:0:
436,1,77969,1,0,0:0:0:0:
255,128,78135,5,0,0:0:0:0:
336,295,78302,1,0,0:0:0:0:
206,53,78469,5,0,0:0:0:0:
157,283,78635,1,0,0:0:0:0:
348,22,78802,5,0,0:0:0:0:
399,290,78969,1,0,0:0:0:0:
192,15,79135,5,0,0:0:0:0:
134,300,79302,1,0,0:0:0:0:
437,92,79469,1,0,0:0:0:0:
90,89,79635,1,0,0:0:0:0:
401,305,79802,1,0,0:0:0:0:
356,17,79969,1,0,0:0:0:0:
255,277,80135,6,0,L|254:358,2,63.3333333333333
255,195,81469,1,0,0:0:0:0:
256,99,82469,5,0,0:0:0:0:
218,96,82635,1,0,0:0:0:0:
286,96,82802,1,0,0:0:0:0:
228,86,82969,1,0,0:0:0:0:
274,86,83135,1,0,0:0:0:0:
235,78,83302,1,0,0:0:0:0:
268,78,83469,1,0,0:0:0:0:
254,68,83635,1,0,0:0:0:0:
254,68,83802,1,0,0:0:0:0:
254,68,83969,1,0,0:0:0:0:
255,69,84469,5,0,0:0:0:0:
216,134,84635,2,0,P|169:135|136:126,2,63.3333333333333
255,69,85135,2,0,P|183:55|159:64,2,63.3333333333333
288,137,85635,2,0,L|286:230,2,63.3333333333333
327,72,86135,5,0,0:0:0:0:
398,45,86302,1,0,0:0:0:0:
471,66,86469,1,0,0:0:0:0:
395,62,86635,1,0,0:0:0:0:
327,97,86802,1,0,0:0:0:0:
401,81,86969,1,0,0:0:0:0:
472,105,87135,1,0,0:0:0:0:
325,132,87302,1,0,0:0:0:0:
506,187,87469,1,0,0:0:0:0:
276,220,87635,5,0,0:0:0:0:
500,267,87802,1,0,0:0:0:0:
261,323,87969,2,0,B|203:317|203:361|98:327,1,126.666666666667
58,384,88469,6,2,B|36:334|62:284|62:284|35:303|1:319,1,158.333333333333,0|0,0:0|0:0,1:0:0:0:
123,328,89469,6,0,P|115:251|150:198,1,126.666666666667
220,183,89969,1,0,0:0:0:0:
255,181,90135,1,0,0:0:0:0:
282,187,90302,1,0,0:0:0:0:
282,187,90469,1,0,0:0:0:0:
372,325,90969,1,0,0:0:0:0:
372,325,91302,5,0,0:0:0:0:
375,303,91385,1,0,0:0:0:0:
378,279,91469,1,0,0:0:0:0:
384,209,91635,5,0,0:0:0:0:
384,209,91802,5,0,0:0:0:0:
384,209,91969,5,0,0:0:0:0:
179,228,92219,2,0,L|184:332,2,95
123,171,92969,2,0,P|188:151|236:171,1,95
389,171,93469,2,0,P|324:151|276:171,1,95
333,228,93969,2,0,L|328:332,1,95
257,345,94469,6,0,B|234:313|257:248|329:191|292:115|201:151|182:193|239:238,1,285
