osu file format v14

[General]
AudioFilename: audio.mp3
AudioLeadIn: 0
PreviewTime: 17324
Countdown: 1
SampleSet: None
StackLeniency: 0.7
Mode: 0
LetterboxInBreaks: 0
WidescreenStoryboard: 1

[Editor]
Bookmarks: 3610,10447,15590,17304,31018,37875,44732,56752,58447,65304,72161,85875,99590,113304,120161,127018,132161,133875,147590
DistanceSpacing: 0.8
BeatDivisor: 4
GridSize: 4
TimelineZoom: 1

[Metadata]
Title:Final Battle
TitleUnicode:Final Battle
Artist:Yoshito Hirano, Yuka Tsujiyoko
ArtistUnicode:Yoshito Hirano, Yuka Tsujiyoko
Creator:ShinyButterfree
Version:Insane
Source:Paper Mario The Thousand Year Door
Tags:Paper Mario Shadow Queen Thousand Year Door Final Boss Nintendo TTYD
BeatmapID:1413500
BeatmapSetID:666708

[Difficulty]
HPDrainRate:5
CircleSize:4
OverallDifficulty:8
ApproachRate:9
SliderMultiplier:1.4
SliderTickRate:1

[Events]
//Background and Video events
0,0,"in_the_shadows_____by_starberry5994.png",0,0
//Break Periods
//Storyboard Layer 0 (Background)
//Storyboard Layer 1 (Fail)
//Storyboard Layer 2 (Pass)
//Storyboard Layer 3 (Foreground)
//Storyboard Sound Samples

[TimingPoints]
3610,428.571428571429,4,1,0,50,1,0
3610,-133.333333333333,4,3,0,50,0,0
4038,-133.333333333333,4,3,0,25,0,0
4458,-133.333333333333,4,3,0,50,0,0
4900,-133.333333333333,4,3,0,25,0,0
5272,-133.333333333333,4,3,0,50,0,0
5693,-133.333333333333,4,3,0,25,0,0
7348,-133.333333333333,4,3,0,50,0,0
8312,-133.333333333333,4,3,0,25,0,0
8690,-133.333333333333,4,3,0,50,0,0
9153,-133.333333333333,4,3,0,25,0,0
9531,-133.333333333333,4,3,0,50,0,0
10031,-133.333333333333,4,3,0,25,0,0
10370,-100,4,3,0,50,0,0
31183,-117.647058823529,4,3,0,50,0,0
31852,-117.647058823529,4,3,0,40,0,0
36739,-117.647058823529,4,3,0,42,0,0
36929,-117.647058823529,4,3,0,44,0,0
37139,-117.647058823529,4,3,0,46,0,0
37339,-117.647058823529,4,3,0,48,0,0
37549,-117.647058823529,4,3,0,50,0,0
37804,-153.846153846153,4,3,0,50,0,0
42243,-100,4,3,0,50,0,0
44682,-100,4,3,0,50,0,0
47711,-100,4,3,0,5,0,0
48098,-100,4,2,0,85,0,0
51117,-100,4,3,0,5,0,0
51512,-100,4,2,0,85,0,0
55197,-100,4,2,0,30,0,0
58456,-100,4,2,0,40,0,0
58570,-100,4,3,0,35,0,0

[HitObjects]
119,181,3610,6,4,P|139:130|196:101,1,105.000004005432,4|0,0:0|0:0,0:0:0:0:
244,205,4467,2,4,P|228:257|255:315,1,105.000004005432,4|0,0:0|0:0,0:0:0:0:
362,237,5324,2,4,P|374:183|341:127,2,105.000004005432,4|0|4,0:0|0:0|0:0,0:0:0:0:
263,196,6610,2,0,B|242:216|195:228|166:203|145:180|143:138|154:102|183:71,1,210.000008010865
265,72,7895,6,4,P|318:59|374:89,1,105.000004005432,4|0,0:0|0:0,0:0:0:0:
307,174,8752,2,4,P|356:198|379:257,1,105.000004005432,4|0,0:0|0:0,0:0:0:0:
266,288,9610,2,4,P|216:263|193:204,1,105.000004005432,4|0,0:0|0:0,0:0:0:0:
187,183,10145,1,8,0:0:0:0:
192,139,10252,1,12,0:0:0:0:
214,97,10360,1,12,0:0:0:0:
245,76,10467,6,0,P|286:76|323:96,1,70,8|0,0:0|0:0,0:0:0:0:
336,300,10895,1,0,0:0:0:0:
272,173,11110,1,0,0:0:0:0:
410,174,11324,1,8,0:0:0:0:
330,40,11538,1,0,0:0:0:0:
336,300,11752,1,0,0:0:0:0:
272,173,11967,1,0,0:0:0:0:
410,174,12181,6,0,P|438:202|451:243,2,70,8|0|0,0:0|0:0|0:0,0:0:0:0:
202,113,12824,1,0,0:0:0:0:
324,260,13038,2,0,P|321:300|298:336,2,70,8|0|0,0:0|0:0|0:0,0:0:0:0:
270,64,13681,1,0,0:0:0:0:
270,64,13788,1,0,0:0:0:0:
270,64,13895,1,8,0:0:0:0:
180,297,14110,1,0,0:0:0:0:
263,229,14324,2,0,P|261:268|280:307,2,70,8|0|8,0:0|0:0|0:0,0:0:0:0:
278,64,14967,1,8,0:0:0:0:
361,239,15181,1,8,0:0:0:0:
263,229,15395,1,8,0:0:0:0:
371,76,15610,6,8,P|403:55|455:39,2,70,4|0|4,0:0|0:0|0:0,0:0:0:0:
189,286,16252,1,8,0:0:0:0:
119,224,16467,1,12,0:0:0:0:
167,145,16681,1,8,0:0:0:0:
111,75,16895,2,8,P|78:54|27:38,2,70,4|8|4,0:0|0:0|0:0,0:0:0:0:
218,213,17538,5,0,0:0:0:0:
110,73,17752,1,8,0:0:0:0:
234,77,17967,1,0,0:0:0:0:
99,213,18181,1,4,0:0:0:0:
99,213,18395,2,0,L|101:315,2,70,0|8|0,0:0|0:0|0:0,0:0:0:0:
129,51,19038,2,0,P|174:44|219:66,1,70,4|0,0:0|0:0,0:0:0:0:
263,174,19467,2,8,P|218:181|173:159,1,70,4|0,0:0|0:0,0:0:0:0:
282,56,19895,2,0,P|327:49|372:71,1,70,4|0,0:0|0:0,0:0:0:0:
395,299,20324,5,8,0:0:0:0:
313,141,20538,1,0,0:0:0:0:
284,306,20752,1,4,0:0:0:0:
284,306,20967,1,0,0:0:0:0:
226,202,21181,2,4,P|181:195|136:217,2,70,12|0|4,0:0|0:0|0:0,0:0:0:0:
191,295,21824,5,0,0:0:0:0:
197,93,22038,1,8,0:0:0:0:
318,265,22252,1,0,0:0:0:0:
119,196,22467,1,4,0:0:0:0:
339,141,22681,1,0,0:0:0:0:
340,335,22895,1,8,0:0:0:0:
340,335,23110,1,0,0:0:0:0:
411,190,23324,6,4,P|424:146|408:98,1,70,4|0,0:0|0:0,0:0:0:0:
255,45,23752,1,8,0:0:0:0:
328,228,23967,1,0,0:0:0:0:
163,109,24181,1,4,0:0:0:0:
242,142,24395,1,0,0:0:0:0:
163,109,24610,2,0,P|154:153|174:199,1,70,8|0,0:0|0:0,0:0:0:0:
248,222,25038,2,0,P|256:266|236:312,2,70,4|0|8,0:0|0:0|0:0,0:0:0:0:
166,109,25681,5,0,0:0:0:0:
166,109,25895,1,4,0:0:0:0:
166,335,26110,1,0,0:0:0:0:
256,145,26324,1,8,0:0:0:0:
296,311,26538,1,0,0:0:0:0:
345,90,26752,2,0,P|354:134|334:180,1,70,4|0,0:0|0:0,0:0:0:0:
248,274,27181,2,0,P|241:239|251:206,2,70,12|0|4,0:0|0:0|0:0,0:0:0:0:
390,252,27824,5,0,0:0:0:0:
390,252,28038,1,8,0:0:0:0:
209,205,28252,1,0,0:0:0:0:
336,39,28467,2,0,P|304:24|269:24,1,70,4|0,0:0|0:0,0:0:0:0:
173,135,28895,2,0,P|206:143|240:136,2,70,8|0|4,0:0|0:0|0:0,0:0:0:0:
45,68,29538,1,0,0:0:0:0:
209,77,29752,1,8,0:0:0:0:
91,178,29967,1,0,0:0:0:0:
91,178,30181,1,4,0:0:0:0:
33,265,30395,2,0,P|73:279|129:261,1,70,8|4,0:0|0:0,0:0:0:0:
178,237,30824,2,0,L|254:236,1,70,8|4,0:0|0:0,0:0:0:0:
323,75,31467,6,0,P|262:55|197:95,1,119.000002269745,8|4,0:0|0:0,0:0:0:0:
269,141,32110,1,0,0:0:0:0:
151,164,32324,1,8,0:0:0:0:
261,229,32538,1,0,0:0:0:0:
151,164,32752,2,8,P|165:107|213:74,2,119.000002269745,4|4|8,0:0|0:0|0:0,0:0:0:0:
254,321,34038,5,0,0:0:0:0:
254,321,34467,6,0,P|192:302|162:232,1,119.000002269745,4|8,0:0|0:0,0:0:0:0:
141,174,35110,1,0,0:0:0:0:
251,232,35324,1,4,0:0:0:0:
208,70,35538,1,0,0:0:0:0:
195,302,35967,1,8,0:0:0:0:
195,302,36181,6,0,P|255:323|321:284,1,119.000002269745,4|8,0:0|0:0,0:0:0:0:
336,194,36824,1,8,0:0:0:0:
222,71,37038,1,4,0:0:0:0:
254,238,37252,1,8,0:0:0:0:
328,92,37467,1,4,0:0:0:0:
180,162,37681,1,8,0:0:0:0:
335,193,37895,6,0,B|384:218|369:272|353:303|292:301|292:301|260:262|202:233|153:260|110:301|110:301|40:266|43:192|85:145,1,545.999975006105,0|4,0:0|0:0,0:0:0:0:
103,86,40681,1,0,0:0:0:0:
156,147,40895,2,0,P|191:168|216:173,1,45.4999979171754,8|0,0:0|0:0,0:0:0:0:
283,131,41324,2,0,P|248:110|223:105,1,45.4999979171754,4|0,0:0|0:0,0:0:0:0:
290,235,41752,5,8,0:0:0:0:
195,169,41967,1,0,0:0:0:0:
213,252,42181,1,4,0:0:0:0:
292,117,42395,2,0,L|339:56,1,70,0|8,0:0|0:0,0:0:0:0:
311,270,42824,2,0,P|340:338|338:353,1,70,0|4,0:0|0:0,0:0:0:0:
164,95,43252,2,0,L|117:34,1,70,0|8,0:0|0:0,0:0:0:0:
165,245,43681,2,0,P|136:313|138:328,1,70,0|4,0:0|0:0,0:0:0:0:
136,306,44110,1,0,0:0:0:0:
265,311,44324,2,0,P|325:289|318:203,1,140,8|14,0:0|0:0,0:0:0:0:
256,192,44967,12,0,47752,0:0:0:0:
256,192,48181,5,2,0:0:0:0:
256,192,48395,12,0,51181,0:0:0:0:
256,192,51610,5,2,0:0:0:0:
256,192,51824,12,0,54610,0:0:0:0:
256,192,55038,5,2,0:0:0:0:
185,111,55252,1,0,0:0:0:0:
188,261,55467,2,0,P|232:288|275:277,1,70,2|2,0:0|0:0,0:0:0:0:
328,111,55895,2,2,P|351:136|358:170,1,70
227,191,56324,2,0,P|181:216|169:259,2,70,0|2|2,0:0|0:0|0:0,0:0:0:0:
370,191,56967,1,0,0:0:0:0:
227,191,57181,2,2,P|195:177|175:149,2,70
352,125,57824,1,2,0:0:0:0:
293,305,58038,5,2,0:0:0:0:
293,305,58145,1,0,0:0:0:0:
293,305,58252,1,10,0:0:0:0:
293,305,58360,1,10,0:0:0:0:
293,305,58467,2,0,L|220:314,1,70,14|0,0:0|0:0,0:0:0:0:
141,218,58895,2,0,L|214:227,1,70,8|0,0:0|0:0,0:0:0:0:
188,143,59324,1,4,0:0:0:0:
167,304,59538,1,0,0:0:0:0:
257,68,59752,1,8,0:0:0:0:
322,312,59967,5,0,0:0:0:0:
322,312,60181,2,0,L|409:312,2,70,4|0|8,0:0|0:0|0:0,0:0:0:0:
389,154,60824,5,0,0:0:0:0:
353,76,61038,2,0,P|313:115|303:157,1,70,4|0,0:0|0:0,0:0:0:0:
320,208,61467,2,0,P|360:247|370:289,1,70,8|0,0:0|0:0,0:0:0:0:
375,298,61788,1,0,0:0:0:0:
360,339,61895,1,4,0:0:0:0:
255,126,62110,1,0,0:0:0:0:
175,330,62324,6,0,P|128:296|124:258,1,70,8|0,0:0|0:0,0:0:0:0:
130,165,62752,2,0,L|191:227,1,70,4|0,0:0|0:0,0:0:0:0:
256,294,63181,1,8,0:0:0:0:
220,97,63395,1,0,0:0:0:0:
220,97,63502,1,0,0:0:0:0:
220,97,63610,1,4,0:0:0:0:
355,231,63824,5,0,0:0:0:0:
355,231,64038,2,0,P|402:197|406:159,1,70,8|0,0:0|0:0,0:0:0:0:
272,96,64466,2,0,L|333:158,2,70,4|0|8,0:0|0:0|0:0,0:0:0:0:
184,272,65110,1,0,0:0:0:0:
184,272,65217,1,0,0:0:0:0:
184,272,65324,2,0,P|232:292|264:276,1,70,4|0,0:0|0:0,0:0:0:0:
336,120,65752,1,0,0:0:0:0:
336,120,65967,1,0,0:0:0:0:
336,120,66181,2,0,P|288:88|256:84,1,70
160,240,66610,2,0,P|212:288|240:288,1,70
244,292,66931,1,0,0:0:0:0:
288,288,67038,1,0,0:0:0:0:
