osu file format v14

[General]
AudioFilename: audio.mp3
AudioLeadIn: 0
PreviewTime: 17324
Countdown: 1
SampleSet: Normal
StackLeniency: 0.7
Mode: 0
LetterboxInBreaks: 0
WidescreenStoryboard: 0

[Editor]
Bookmarks: 10447,15590,17304,31018,37875,44732,58447,65304,72161,85875,99590,113304,120161,127018,132161,133875,147590
DistanceSpacing: 0.8
BeatDivisor: 2
GridSize: 8
TimelineZoom: 1

[Metadata]
Title:Final Battle
TitleUnicode:Final Battle
Artist:Yoshito Hirano, Yuka Tsujiyoko
ArtistUnicode:Yoshito Hirano, Yuka Tsujiyoko
Creator:ShinyButterfree
Version:Easy
Source:Paper Mario The Thousand Year Door
Tags:Paper Mario Shadow Queen Thousand Year Door Final Boss Nintendo TTYD
BeatmapID:1410948
BeatmapSetID:666708

[Difficulty]
HPDrainRate:2
CircleSize:2.5
OverallDifficulty:2
ApproachRate:2
SliderMultiplier:1.4
SliderTickRate:1

[Events]
//Background and Video events
0,0,"in_the_shadows_____by_starberry5994.png",0,0
//Break Periods
2,71952,84335
2,113524,118621
//Storyboard Layer 0 (Background)
//Storyboard Layer 1 (Fail)
//Storyboard Layer 2 (Pass)
//Storyboard Layer 3 (Foreground)
//Storyboard Sound Samples

[TimingPoints]
3610,428.571428571429,4,1,0,50,1,0

[HitObjects]
256,88,3610,5,0,0:0:0:0:
344,96,4038,2,0,P|408:152|400:224,1,140
328,232,4895,1,0,0:0:0:0:
256,184,5324,1,0,0:0:0:0:
184,232,5752,1,0,0:0:0:0:
112,280,6181,2,0,P|72:211|98:143,1,140
160,112,7038,2,0,P|199:180|173:248,1,140
224,312,7895,5,0,0:0:0:0:
272,240,8324,1,0,0:0:0:0:
216,176,8752,1,0,0:0:0:0:
264,104,9181,1,0,0:0:0:0:
320,168,9610,1,0,0:0:0:0:
368,240,10038,1,0,0:0:0:0:
283,247,10467,6,0,P|227:295|203:207,2,140
248,168,11752,1,0,0:0:0:0:
168,144,12181,6,0,P|147:204|204:234,2,140
224,80,13467,5,0,0:0:0:0:
304,56,13895,1,0,0:0:0:0:
368,112,14324,2,0,L|408:248,1,140
384,328,15181,5,0,0:0:0:0:
304,296,15610,6,0,L|152:296,1,140
104,232,16467,2,0,P|200:208|272:224,1,140
320,248,17324,2,0,P|392:192|424:112,1,140
408,64,18181,2,0,P|331:113|292:190,1,140
336,232,19038,2,0,P|304:294|251:338,1,140
168,320,19895,2,0,P|200:258|254:215,1,140
336,240,20752,1,0,0:0:0:0:
316,158,21181,1,0,0:0:0:0:
232,192,21610,2,0,L|80:192,2,140
296,136,22895,5,0,0:0:0:0:
360,192,23324,1,0,0:0:0:0:
312,264,23752,1,0,0:0:0:0:
256,200,24181,6,0,P|192:184|152:96,1,140
236,103,25038,2,0,P|252:39|340:-1,1,140
345,78,25895,2,0,P|409:94|449:182,1,140
368,184,26752,2,0,P|352:248|264:288,2,140
344,104,28038,1,0,0:0:0:0:
296,32,28467,2,0,P|238:68|221:135,2,140
376,64,29752,5,0,0:0:0:0:
424,136,30181,1,0,0:0:0:0:
392,216,30610,1,0,0:0:0:0:
320,272,31038,6,0,L|320:72,1,140
240,96,31895,2,0,L|224:296,1,140
152,280,32752,2,0,L|144:80,2,140
216,336,34038,5,0,0:0:0:0:
272,272,34467,2,0,L|264:72,2,140
336,328,35752,1,0,0:0:0:0:
392,264,36181,6,0,L|352:112,2,140
336,328,37467,1,0,0:0:0:0:
256,296,37895,6,0,P|184:200|192:120,1,140
224,112,38752,6,0,P|293:107|351:69,2,140
144,80,40038,1,0,0:0:0:0:
152,168,40467,1,0,0:0:0:0:
160,256,40895,1,0,0:0:0:0:
248,256,41324,6,0,P|317:261|375:299,2,140
184,200,42610,1,0,0:0:0:0:
240,136,43038,1,0,0:0:0:0:
176,80,43467,1,0,0:0:0:0:
112,136,43895,2,0,P|120:240|184:288,1,140
256,192,44752,12,0,47752,0:0:0:0:
256,192,48181,12,0,51181,0:0:0:0:
256,192,51610,12,0,54610,0:0:0:0:
256,192,55038,12,0,58038,0:0:0:0:
80,192,58467,6,0,P|120:80|160:72,1,140
204,112,59324,2,0,P|262:147|327:127,1,140
392,72,60181,2,0,P|427:130|408:195,1,140
360,264,61038,2,0,P|418:299|483:279,2,140
283,229,62324,5,0,0:0:0:0:
232,296,62752,1,0,0:0:0:0:
152,264,63181,1,0,0:0:0:0:
104,192,63610,2,0,P|84:127|120:69,2,140
184,224,64895,1,0,0:0:0:0:
240,160,65324,5,0,0:0:0:0:
296,96,65752,2,0,P|336:200|288:272,1,140
288,296,66610,1,0,0:0:0:0:
200,296,67038,1,0,0:0:0:0:
152,224,67467,2,0,P|252:175|328:216,2,140
96,288,68752,2,0,P|56:216|56:144,1,140
109,94,69610,2,0,P|166:154|184:223,2,140
32,136,70895,1,0,0:0:0:0:
96,200,71324,2,0,P|176:248|248:248,1,140
256,96,85895,6,0,P|336:128|360:192,1,140
400,248,86752,2,0,P|320:281|258:253,2,140
432,168,88038,1,0,0:0:0:0:
400,88,88467,2,0,B|312:88|312:192|232:192,1,140
208,192,89324,2,0,B|192:312|312:408|440:312|440:200|432:160,1,420
384,96,91038,6,0,L|208:83,1,140
168,128,91895,6,0,L|160:288,1,140
209,341,92752,1,0,0:0:0:0:
272,280,93181,2,0,P|272:208|328:152,1,140
391,117,94038,1,0,0:0:0:0:
432,192,94467,2,0,B|416:312|275:373|176:247|205:139|223:103,1,420
304,104,96181,2,0,B|321:138|350:246|251:372|110:311|95:191,1,420
97,105,97895,5,0,0:0:0:0:
171,148,98324,1,0,0:0:0:0:
192,232,98752,1,0,0:0:0:0:
144,304,99181,1,0,0:0:0:0:
88,240,99610,6,0,L|88:64,1,140
173,93,100467,2,0,L|173:253,1,140
216,312,101324,2,0,L|386:266,1,140
339,191,102181,2,0,L|184:232,1,140
120,240,103038,2,0,L|120:64,1,140
206,85,103895,2,0,L|206:245,1,140
256,295,104752,2,0,L|380:170,1,140
425,245,105609,2,0,L|311:358,1,140
248,312,106467,6,0,P|160:256|144:184,1,140
128,144,107324,2,0,P|216:160|256:208,1,140
328,224,108181,6,0,P|296:323|231:357,1,140
192,376,109038,2,0,P|184:286|220:235,1,140
280,200,109895,2,0,L|234:29,1,140
320,20,110752,2,0,L|361:174,1,140
388,233,111610,6,0,P|260:273|124:225,1,280
72,160,112895,1,0,0:0:0:0:
128,96,113324,1,0,0:0:0:0:
384,72,120181,6,0,P|432:152|432:208,1,140
392,272,121038,1,0,0:0:0:0:
320,224,121467,1,0,0:0:0:0:
272,296,121895,1,0,0:0:0:0:
200,248,122324,1,0,0:0:0:0:
128,296,122752,2,0,P|80:224|80:160,1,140
160,152,123610,2,0,P|176:67|222:21,2,140
208,224,124895,5,0,0:0:0:0:
288,256,125324,1,0,0:0:0:0:
368,224,125752,1,0,0:0:0:0:
424,160,126181,1,0,0:0:0:0:
448,80,126610,1,0,0:0:0:0:
256,192,127038,12,0,131324,0:0:0:0:
184,184,132181,6,0,P|232:128|304:128,1,140
368,168,133038,2,0,P|320:224|248:224,1,140
184,184,133895,1,0,0:0:0:0:
