osu file format v14

[General]
AudioFilename: audio.mp3
AudioLeadIn: 0
PreviewTime: 55388
Countdown: 0
SampleSet: Soft
StackLeniency: 0.4
Mode: 0
LetterboxInBreaks: 0
WidescreenStoryboard: 1

[Editor]
Bookmarks:1360,10399,20993,31560,42148,56270,70384,84521
DistanceSpacing: 0.8
BeatDivisor: 4
GridSize: 4
TimelineZoom: 0.7599996

[Metadata]
Title:Koi no Orchestra (TV Size)
TitleUnicode:恋のオーケストラ (TV Size)
Artist:Yoshitani Ayako
ArtistUnicode:吉谷彩子
Creator:bossandy
Version:Normal
Source:謎の彼女X
Tags:Anime Japanese opening op J-pop Jpop pop MGX Mysterious Girlfriend X Nazo no Kanojo Ekkusu 植芝理一 Ueshiba Riichi Reach scissors Kyle_Y Kyle Y
BeatmapID:2861105
BeatmapSetID:1383986

[Difficulty]
HPDrainRate:4
CircleSize:3.2
OverallDifficulty:4
ApproachRate:6
SliderMultiplier:1.3
SliderTickRate:1

[Events]
//Background and Video events
Video,-1200,"video.avi"
0,0,"BG.jpg",0,0
//Break Periods
//Storyboard Layer 0 (Background)
//Storyboard Layer 1 (Fail)
//Storyboard Layer 2 (Pass)
//Storyboard Layer 3 (Foreground)
//Storyboard Layer 4 (Overlay)
//Storyboard Sound Samples

[TimingPoints]
1360,454.545454545455,4,2,1,40,1,0
1360,-100,4,2,1,40,0,0
8641,439.56043956044,4,2,1,70,1,8
8641,-100,4,2,1,70,0,8
9849,-100,4,2,1,5,0,8
9959,-100,4,2,1,70,0,8
10399,440.205429200293,4,2,1,70,1,0
10405,-100,4,2,1,70,0,0
20083,455.235204855842,4,2,1,70,1,8
20310,-100,4,2,1,50,0,0
20538,-100,4,2,1,70,0,0
20765,-100,4,2,1,90,0,0
20993,441.176470588235,4,2,2,50,1,0
20993,-100,4,2,2,50,0,0
29816,434.782608695652,4,2,2,60,1,8
29816,-100,4,2,2,60,0,8
30685,437.956204379562,4,2,1,60,1,8
30685,-100,4,2,1,60,0,8
31560,441.501103752759,4,2,1,60,1,0
31560,-100,4,2,1,60,0,0
38624,444.115470022206,4,2,1,60,1,0
38624,-100,4,2,1,60,0,0
40400,437.158469945355,4,2,1,60,1,8
40400,-100,4,2,1,60,0,8
42148,444.444444444444,4,2,1,70,1,0
42148,-100,4,2,1,70,0,0
45703,437.956204379562,4,2,1,70,1,8
45703,-100,4,2,1,70,0,8
46140,-100,4,2,1,40,0,8
46359,-100,4,2,1,70,0,8
47016,-100,4,2,1,40,0,8
47235,-100,4,2,1,70,0,8
49206,441.176470588235,4,2,1,70,1,0
49206,-100,4,2,1,70,0,0
54279,-100,4,2,1,80,0,0
54941,447.093889716841,4,2,1,80,1,8
54941,-100,4,2,1,80,0,8
55388,441.176470588235,4,2,1,80,1,8
55388,-100,4,2,1,80,0,8
56270,441.728631377457,4,2,1,90,1,1
56270,-100,4,2,1,90,0,1
69521,431.530494821634,4,2,1,90,1,8
69521,-100,4,2,1,90,0,8
70384,442.477876106195,4,2,1,90,1,1
70384,-100,4,2,1,90,0,1
77463,441.176470588235,4,2,1,90,1,1
77463,-100,4,2,1,90,0,1
84521,437.956204379562,4,2,1,60,1,0
84521,-100,4,2,1,60,0,0
86053,478.08764940239,4,2,1,60,1,8
86053,-100,4,2,1,60,0,8
86292,437.956204379562,4,2,1,60,1,8
86292,-100,4,2,1,60,0,8
86948,-100,4,2,1,40,0,0
87167,-100,4,2,1,35,0,0
87605,-100,4,2,1,30,0,0
88043,-100,4,2,1,25,0,0
88481,-100,4,2,1,20,0,0
88919,-100,4,2,1,15,0,0
89357,-100,4,2,1,10,0,0
89795,-100,4,2,1,5,0,0

[Colours]
Combo1 : 156,158,157
Combo2 : 1,107,181
Combo3 : 137,46,55
Combo4 : 226,149,11

[HitObjects]
48,24,1360,6,0,P|117:21|173:60,1,130,2|2,0:0|0:0,0:0:0:0:
196,96,2041,2,0,P|250:62|314:66,1,130,2|2,0:0|0:0,0:0:0:0:
276,164,2950,1,2,0:0:0:0:
360,224,3405,1,2,0:0:0:0:
360,224,3632,1,2,0:0:0:0:
128,344,4769,1,2,0:0:0:0:
80,328,4996,6,0,L|88:188,1,130,2|2,0:0|0:0,0:0:0:0:
132,172,5678,2,0,L|124:32,1,130,2|2,0:0|0:0,0:0:0:0:
92,4,6360,1,2,0:0:0:0:
280,96,7269,5,2,0:0:0:0:
224,184,7723,1,2,0:0:0:0:
256,284,8178,1,2,0:0:0:0:
256,284,9410,6,0,P|336:304|416:264,1,162.5,8|10,0:0|0:0,0:0:0:0:
428,228,10179,1,6,3:0:0:0:
428,228,10399,5,6,3:2:0:0:
328,200,10839,2,0,B|312:156|312:156|324:72,1,130,10|2,0:0|3:2,0:0:0:0:
288,36,11499,1,2,0:0:0:0:
288,36,11719,2,0,L|200:48,1,65,10|2,0:0|0:0,0:0:0:0:
200,92,12159,2,0,B|144:100|144:100|104:108|44:68,1,130,2|10,3:2|0:0,0:0:0:0:
36,48,12820,1,2,0:0:0:0:
4,148,13260,2,0,L|24:232,1,65,2|8,0:0|0:0,0:0:0:0:
32,264,13700,1,2,0:0:0:0:
32,264,13920,6,0,P|92:292|172:268,1,130,2|10,3:0|0:0,0:0:0:0:
216,200,14801,2,0,P|273:172|336:183,1,130,2|10,3:0|0:0,0:0:0:0:
380,212,15461,2,0,L|372:348,1,130,2|2,0:0|0:0,0:0:0:0:
324,360,16121,1,10,0:0:0:0:
224,384,16561,1,0,3:0:0:0:
128,348,17002,2,0,L|63:352,1,65,10|2,0:0|0:0,0:0:0:0:
20,320,17442,6,0,L|32:252,1,65,2|2,3:2|0:0,0:0:0:0:
76,232,17882,2,0,B|84:188|84:188|60:88,1,130,10|2,0:0|3:2,0:0:0:0:
52,56,18542,1,2,0:0:0:0:
52,56,18762,2,0,L|140:36,1,65,10|2,0:0|0:0,0:0:0:0:
164,64,19203,2,0,L|290:35,1,130,2|10,3:2|0:0,0:0:0:0:
340,56,19863,1,2,0:0:0:0:
316,156,20310,2,0,L|296:224,2,65,10|8|10,0:0|0:0|0:0,0:0:0:0:
368,152,20993,6,0,P|432:200|416:324,1,195,6|2,3:2|0:0,0:0:0:0:
400,348,21875,2,0,P|326:379|227:303,1,195,2|2,0:0|0:0,0:0:0:0:
216,276,22757,2,0,L|224:212,1,65,2|2,0:0|0:0,0:0:0:0:
212,160,23198,1,2,0:0:0:0:
272,76,23640,1,2,0:0:0:0:
64,56,24522,6,0,L|76:148,1,65,2|2,0:0|0:0,0:0:0:0:
48,168,24963,1,2,0:0:0:0:
48,168,25184,2,0,P|36:240|64:300,1,130,2|2,0:0|0:0,0:0:0:0:
136,224,26066,2,0,B|216:203|296:224|296:224|376:244|456:224,1,325,2|2,0:0|0:0,0:0:0:0:
504,132,27610,1,8,0:0:0:0:
412,80,28051,6,0,L|344:84,1,65,2|2,0:0|0:0,0:0:0:0:
308,48,28493,2,0,L|240:52,1,65,2|2,0:0|0:0,0:0:0:0:
204,20,28934,1,2,0:0:0:0:
204,20,29154,2,0,P|136:12|68:52,1,130,2|2,0:0|3:2,0:0:0:0:
64,88,29816,1,2,3:0:0:0:
160,124,30250,1,10,0:3:0:0:
84,192,30685,2,0,L|12:184,2,65,0|0|8,3:0|3:0|0:0,0:0:0:0:
120,232,31341,1,8,0:0:0:0:
120,232,31560,6,0,L|312:212,1,130,6|8,3:2|0:0,0:0:0:0:
300,212,32222,1,2,0:0:0:0:
300,212,32443,2,0,L|280:20,1,130,2|8,3:2|0:0,0:0:0:0:
392,80,33326,2,0,L|398:144,1,65,2|2,3:2|0:0,0:0:0:0:
404,196,33767,1,10,0:0:0:0:
412,300,34209,1,2,3:2:0:0:
308,308,34650,2,0,L|243:314,1,65,8|2,0:0|0:0,0:0:0:0:
216,360,35092,6,0,P|152:372|72:344,1,130,2|10,3:2|0:0,0:0:0:0:
56,316,35754,1,2,0:0:0:0:
16,220,36195,2,0,L|20:152,1,65,2|8,0:0|0:0,0:0:0:0:
24,104,36637,2,0,B|76:108|76:108|96:100|96:100|156:104,1,130,2|0,0:0|0:0,0:0:0:0:
204,108,37299,1,8,0:0:0:0:
180,208,37741,2,0,B|236:204|236:204|256:212|256:212|308:208,1,130,2|8,3:2|0:0,0:0:0:0:
412,200,38624,5,2,3:2:0:0:
496,264,39068,1,10,0:0:0:0:
496,264,39290,2,0,P|512:208|492:136,1,130,2|2,0:0|0:0,0:0:0:0:
464,100,39956,1,10,0:0:0:0:
464,100,40178,2,0,L|292:112,1,129,2|0,0:0|0:0,0:0:0:0:
284,112,40837,1,10,0:0:0:0:
296,216,41274,2,0,L|304:296,1,65,2|2,3:2|0:0,0:0:0:0:
304,332,41711,2,0,L|240:320,1,65,10|10,0:0|3:0,0:0:0:0:
188,308,42148,5,6,3:2:0:0:
92,348,42592,1,8,0:0:0:0:
40,260,43036,2,0,L|52:196,1,65,0|2,3:0|0:0,0:0:0:0:
64,144,43481,1,8,0:0:0:0:
64,144,43703,2,0,P|112:104|184:112,1,130,2|2,0:0|0:0,0:0:0:0:
272,68,44592,2,0,P|282:129|239:187,1,130,2|2,0:0|0:0,0:0:0:0:
200,204,45259,1,8,0:0:0:0:
148,296,45703,6,0,L|152:364,2,65,2|2|14,3:2|0:0|1:2,0:0:0:0:
96,204,46578,2,0,P|71:221|51:252,2,65,2|2|12,3:2|0:0|1:2,0:0:0:0:
200,204,47454,1,2,3:2:0:0:
200,204,47673,2,0,P|256:236|320:232,1,130,2|2,0:0|0:0,0:0:0:0:
364,204,48330,2,0,L|428:212,1,65,0|2,3:0|3:0,0:0:0:0:
476,188,48768,1,10,0:0:0:0:
448,88,49206,6,0,L|368:76,1,65,2|2,3:2|0:0,0:0:0:0:
336,100,49647,2,0,L|256:88,1,65,10|2,0:0|0:0,0:0:0:0:
224,108,50088,1,2,3:2:0:0:
128,68,50529,2,0,L|116:148,1,65,10|2,0:0|0:0,0:0:0:0:
140,180,50970,2,0,L|128:260,1,65,2|2,3:2|0:0,0:0:0:0:
148,292,51411,2,0,P|208:320|292:300,1,130,10|2,0:0|3:2,0:0:0:0:
312,280,52073,1,2,0:0:0:0:
312,280,52294,1,8,0:0:0:0:
224,224,52735,6,0,L|240:88,1,130,2|10,3:2|0:0,0:0:0:0:
248,44,53397,2,0,L|384:60,1,130,2|0,0:0|0:0,0:0:0:0:
428,64,54058,1,10,0:0:0:0:
428,64,54279,1,6,3:2:0:0:
380,156,54720,1,8,0:0:0:0:
380,156,54941,1,10,1:3:0:0:
300,292,55608,2,0,L|216:292,2,65,10|10|10,0:0|0:0|3:0,0:0:0:0:
340,324,56270,6,0,P|408:320|460:264,1,130,6|10,3:2|0:0,0:0:0:0:
460,176,57153,2,0,L|464:104,1,65,2|2,3:2|0:0,0:0:0:0:
412,108,57595,2,0,L|340:104,1,65,10|2,0:0|0:0,0:0:0:0:
316,148,58036,2,0,B|276:176|232:172|232:172|180:164,1,130,2|10,3:2|0:0,0:0:0:0:
140,156,58699,1,2,0:0:0:0:
70,78,59141,2,0,B|110:50|154:54|154:54|206:62,1,130,2|2,0:0|0:0,0:0:0:0:
246,70,59803,5,2,3:2:0:0:
316,148,60245,1,8,0:0:0:0:
412,104,60687,2,0,P|419:169|374:236,1,130,2|10,3:2|0:0,0:0:0:0:
344,248,61349,2,0,B|299:260|256:236|256:236|216:260,1,130,2|2,0:0|0:0,0:0:0:0:
176,284,62012,1,8,0:0:0:0:
176,284,62233,1,2,0:0:0:0:
80,244,62675,2,0,P|72:276|80:328,2,65,2|10|2,0:0|0:0|0:0,0:0:0:0:
116,204,63337,6,0,P|140:156|128:64,1,130,0|10,3:0|0:0,0:0:0:0:
120,32,64000,1,2,0:0:0:0:
120,32,64221,1,2,3:2:0:0:
224,48,64662,2,0,L|288:56,1,65,8|2,0:0|0:0,0:0:0:0:
340,60,65104,2,0,B|312:120|312:120|320:188,1,130,2|10,3:2|0:0,0:0:0:0:
324,236,65767,2,0,L|468:228,1,130,2|2,0:0|0:0,0:0:0:0:
504,228,66429,1,8,0:0:0:0:
456,136,66871,5,2,3:2:0:0:
500,40,67313,1,8,0:0:0:0:
500,40,67534,2,0,B|469:30|435:36|435:36|406:19|373:17,1,130,2|2,0:0|0:0,0:0:0:0:
328,40,68196,1,10,0:0:0:0:
328,40,68417,2,0,B|297:49|263:43|263:43|234:60|201:62,1,130,2|2,0:0|0:0,0:0:0:0:
152,48,69080,1,10,0:0:0:0:
56,96,69521,2,0,L|72:184,1,65,8|10,0:0|0:0,0:0:0:0:
48,208,69952,2,0,L|64:296,1,65,10|6,3:0|3:0,0:0:0:0:
28,312,70384,6,0,L|180:320,1,130,6|10,3:2|0:0,0:0:0:0:
252,360,71268,2,0,P|260:328|256:284,1,65,2|2,3:2|0:0,0:0:0:0:
236,248,71711,2,0,L|308:256,1,65,10|2,0:0|0:0,0:0:0:0:
344,284,72153,2,0,P|400:312|468:300,1,130,2|10,3:2|0:0,0:0:0:0:
500,264,72817,1,2,0:0:0:0:
416,204,73260,2,0,P|388:148|400:80,1,130,2|2,0:0|0:0,0:0:0:0:
436,48,73923,5,2,3:2:0:0:
340,4,74366,2,0,L|260:16,1,65,8|2,0:0|0:0,0:0:0:0:
224,24,74808,2,0,B|216:88|216:88|240:156,1,130,2|10,3:2|0:0,0:0:0:0:
256,200,75472,1,2,0:0:0:0:
292,296,75914,1,2,0:0:0:0:
200,348,76357,2,0,P|136:352|76:316,1,130,2|2,0:0|0:0,0:0:0:0:
68,268,77021,2,0,L|72:192,1,65,10|2,0:0|0:0,0:0:0:0:
60,152,77463,5,2,3:2:0:0:
28,52,77904,1,10,0:0:0:0:
28,52,78124,2,0,L|184:64,1,130,2|2,0:0|0:0,0:0:0:0:
188,160,79007,2,0,L|344:148,1,130,2|2,0:0|0:0,0:0:0:0:
344,104,79668,2,0,P|400:76|472:92,2,130,10|2|8,0:0|3:2|0:0,0:0:0:0:
317,150,80771,1,2,0:0:0:0:
317,150,80992,6,0,L|328:292,1,130,2|10,3:2|0:0,0:0:0:0:
352,324,81654,2,0,P|408:352|480:336,1,130,2|2,0:0|0:0,0:0:0:0:
504,300,82315,1,10,0:0:0:0:
428,228,82757,1,2,3:2:0:0:
484,140,83198,2,0,L|472:76,1,65,10|0,0:0|0:0,0:0:0:0:
432,44,83639,2,0,L|368:56,1,65,10|8,0:0|0:0,0:0:0:0:
316,64,84080,1,2,3:2:0:0:
260,152,84521,6,0,L|272:216,1,65,4|2,3:2|0:0,0:0:0:0:
280,268,84958,1,10,0:0:0:0:
220,352,85396,1,2,3:2:0:0:
136,292,85834,2,0,L|124:228,1,65,10|2,0:0|3:2,0:0:0:0:
116,176,86292,1,2,3:2:0:0:
176,92,86729,1,6,3:2:0:0:
256,192,86948,12,0,89795,0:0:0:0:
