osu file format v14

[General]
AudioFilename: audio.mp3
AudioLeadIn: 0
PreviewTime: 55388
Countdown: 0
SampleSet: Soft
StackLeniency: 0.4
Mode: 0
LetterboxInBreaks: 0
WidescreenStoryboard: 1

[Editor]
Bookmarks: 1360,10399,20993,31560,42148,56270,70384,84521
DistanceSpacing: 1.2
BeatDivisor: 4
GridSize: 16
TimelineZoom: 1.96

[Metadata]
Title:Koi no Orchestra (TV Size)
TitleUnicode:恋のオーケストラ (TV Size)
Artist:Yoshitani Ayako
ArtistUnicode:吉谷彩子
Creator:bossandy
Version:Ky's Hard
Source:謎の彼女X
Tags:Anime Japanese opening op J-pop Jpop pop MGX Mysterious Girlfriend X Nazo no Kanojo Ekkusu 植芝理一 Ueshiba Riichi Reach scissors Kyle_Y Kyle Y
BeatmapID:2861075
BeatmapSetID:1383986

[Difficulty]
HPDrainRate:5.3
CircleSize:3.7
OverallDifficulty:6.1
ApproachRate:7.3
SliderMultiplier:1.5
SliderTickRate:1

[Events]
//Background and Video events
Video,-1200,"video.avi"
0,0,"BG.jpg",0,0
//Break Periods
//Storyboard Layer 0 (Background)
//Storyboard Layer 1 (Fail)
//Storyboard Layer 2 (Pass)
//Storyboard Layer 3 (Foreground)
//Storyboard Layer 4 (Overlay)
//Storyboard Sound Samples

[TimingPoints]
1360,454.545454545455,4,2,1,40,1,0
1360,-133.333333333333,4,2,1,40,0,0
8178,-131.803628601922,4,2,1,40,0,0
8405,-131.803628601922,4,2,1,5,0,0
8632,-131.803628601922,4,2,1,5,0,0
8641,439.56043956044,4,2,1,5,1,8
9410,-100,4,2,1,70,0,8
10399,440.205429200293,4,2,1,70,1,0
10405,-100,4,2,1,70,0,0
20083,455.235204855842,4,2,1,70,1,8
20310,-100,4,2,1,50,0,0
20538,-100,4,2,1,70,0,0
20765,-100,4,2,1,90,0,0
20993,441.176470588235,4,2,2,50,1,0
20993,-111.111111111111,4,2,2,50,0,0
29816,434.782608695652,4,2,2,60,1,8
29816,-107.52688172043,4,2,2,60,0,8
30685,437.956204379562,4,2,1,60,1,8
30685,-100,4,2,1,60,0,8
31560,441.501103752759,4,2,1,60,1,0
31560,-100,4,2,1,60,0,0
38624,444.115470022206,4,2,1,60,1,0
38624,-100,4,2,1,60,0,0
40400,437.158469945355,4,2,1,60,1,8
40400,-100,4,2,1,60,0,8
42148,444.444444444444,4,2,1,70,1,0
42148,-100,4,2,1,70,0,0
45703,437.956204379562,4,2,1,70,1,8
45703,-100,4,2,1,70,0,8
46140,-100,4,2,1,40,0,8
46359,-100,4,2,1,70,0,8
47016,-100,4,2,1,40,0,8
47235,-100,4,2,1,70,0,8
49206,441.176470588235,4,2,1,70,1,0
49206,-100,4,2,1,70,0,0
54279,-100,4,2,1,80,0,0
54941,447.093889716841,4,2,1,80,1,8
54941,-100,4,2,1,80,0,8
55388,441.176470588235,4,2,1,80,1,8
55388,-100,4,2,1,80,0,8
56270,441.728631377457,4,2,1,90,1,1
56270,-89.2857142857143,4,2,1,90,0,1
56601,-89.2857142857143,4,2,1,5,0,1
56711,-89.2857142857143,4,2,1,90,0,1
63668,-89.2857142857143,4,2,1,5,0,1
63779,-89.2857142857143,4,2,1,90,0,1
69521,431.530494821634,4,2,1,90,1,8
69521,-89.2857142857143,4,2,1,90,0,0
70384,442.477876106195,4,2,1,90,1,1
70384,-89.2857142857143,4,2,1,90,0,1
70715,-89.2857142857143,4,2,1,5,0,1
70826,-89.2857142857143,4,2,1,90,0,1
77463,441.176470588235,4,2,1,90,1,1
77463,-89.2857142857143,4,2,1,90,0,1
84521,437.956204379562,4,2,1,60,1,0
84521,-89.2857142857143,4,2,1,60,0,0
86053,478.08764940239,4,2,1,60,1,8
86053,-89.2857142857143,4,2,1,60,0,0
86292,437.956204379562,4,2,1,60,1,8
86292,-89.2857142857143,4,2,1,60,0,0
86839,-89.2857142857143,4,2,1,40,0,0
87167,-89.2857142857143,4,2,1,35,0,0
87605,-89.2857142857143,4,2,1,30,0,0
88043,-89.2857142857143,4,2,1,25,0,0
88481,-89.2857142857143,4,2,1,20,0,0
88919,-89.2857142857143,4,2,1,15,0,0
89357,-89.2857142857143,4,2,1,10,0,0
89795,-89.2857142857143,4,2,1,5,0,0

[Colours]
Combo1 : 156,158,157
Combo2 : 1,107,181
Combo3 : 137,46,55
Combo4 : 226,149,11

[HitObjects]
32,108,1360,6,0,P|16:171|52:226,1,112.500004291535,2|2,0:0|0:0,0:0:0:0:
104,260,2041,2,0,L|222:239,1,112.500004291535,2|2,0:0|0:0,0:0:0:0:
250,75,2950,2,0,L|368:95,1,112.500004291535,2|2,0:0|0:0,0:0:0:0:
411,26,3632,2,0,B|466:16|466:16|486:128|486:128|431:138,1,225.000008583069,2|0,0:0|0:0,0:0:0:0:
356,176,4769,1,2,0:0:0:0:
285,129,4996,6,0,P|267:181|288:232,1,112.500004291535,2|2,0:0|0:0,0:0:0:0:
365,266,5678,2,0,L|483:245,1,112.500004291535,2|2,0:0|0:0,0:0:0:0:
508,324,6360,2,0,B|516:378|516:378|405:359,1,168.750006437302,2|0,0:0|0:0,0:0:0:0:
315,339,7269,1,2,0:0:0:0:
240,192,7723,1,2,0:0:0:0:
112,301,8178,6,0,B|61:292|61:292|78:192|78:192|60:90|60:90|111:84,1,308.5,2|8,0:0|0:0,0:0:0:0:
149,82,9520,1,8,0:0:0:0:
236,131,9739,5,10,0:0:0:0:
236,131,9849,1,2,0:0:0:0:
236,131,9959,2,0,L|295:120,3,37.5,10|10|6|2,0:0|0:0|3:0|0:0,0:0:0:0:
310,118,10399,6,0,L|295:34,1,75,6|0,3:2|0:0,0:0:0:0:
381,12,10839,2,0,L|400:122,1,112.5,10|2,0:0|0:0,0:0:0:0:
406,160,11279,1,2,3:2:0:0:
479,211,11499,1,2,0:0:0:0:
479,211,11719,2,0,L|465:287,1,75,10|2,0:0|0:0,0:0:0:0:
508,364,12159,6,0,P|451:374|394:338,1,112.5,2|2,3:2|0:0,0:0:0:0:
383,318,12600,1,10,0:0:0:0:
318,255,12820,2,0,L|244:267,1,75,2|0,0:0|3:0,0:0:0:0:
178,329,13260,2,0,L|104:316,1,75,2|8,0:0|0:0,0:0:0:0:
40,256,13700,1,2,0:0:0:0:
40,256,13810,1,2,0:0:0:0:
40,256,13920,6,0,L|52:182,1,75,2|0,3:0|0:0,0:0:0:0:
36,93,14360,2,0,L|109:105,1,75,10|0,0:0|0:0,0:0:0:0:
144,188,14801,2,0,P|201:187|251:142,1,112.5,2|0,3:0|0:0,0:0:0:0:
258,126,15241,1,10,0:0:0:0:
265,36,15461,6,0,L|338:48,1,75,2|0,0:0|3:0,0:0:0:0:
414,96,15901,1,2,0:0:0:0:
471,26,16121,2,0,P|500:75|463:170,1,150,10|0,0:0|3:0,0:0:0:0:
426,235,16781,1,2,0:0:0:0:
426,235,16892,1,2,0:0:0:0:
426,235,17002,2,0,L|415:294,3,37.5,10|2|2|2,0:0|0:0|0:0|0:0,0:0:0:0:
404,306,17442,6,0,L|320:291,1,75,2|2,3:2|0:0,0:0:0:0:
285,205,17882,2,0,L|175:186,1,112.5,10|2,0:0|0:0,0:0:0:0:
137,176,18322,1,2,3:2:0:0:
60,220,18542,1,2,0:0:0:0:
60,220,18762,2,0,L|45:304,1,75,10|2,0:0|0:0,0:0:0:0:
118,362,19203,6,0,P|175:372|232:336,1,112.5,2|0,3:2|0:0,0:0:0:0:
252,326,19643,1,10,0:0:0:0:
264,236,19863,2,0,L|276:162,1,75,2|0,0:0|3:0,0:0:0:0:
355,117,20310,1,10,0:0:0:0:
355,117,20538,1,8,0:0:0:0:
417,191,20765,1,10,0:0:0:0:
460,106,20993,6,0,B|512:133|511:196|511:196|494:295,1,202.499993820191,6|2,3:2|0:0,0:0:0:0:
433,359,21875,2,0,L|299:336,1,134.999995880127,2|8,0:0|0:0,0:0:0:0:
215,313,22537,1,2,0:0:0:0:
215,313,22757,6,0,L|219:233,1,67.4999979400635,2|2,0:0|0:0,0:0:0:0:
238,153,23198,2,0,L|371:130,2,134.999995880127,2|2|10,0:0|0:0|0:0,0:0:0:0:
156,104,24301,1,2,0:0:0:0:
217,32,24522,6,0,L|290:44,2,67.4999979400635,2|2|2,0:0|0:0|0:0,0:0:0:0:
125,14,25184,2,0,P|89:36|65:133,1,134.999995880127,2|2,0:0|0:0,0:0:0:0:
114,198,25845,1,8,0:0:0:0:
194,148,26066,2,0,L|200:111,2,33.7499989700318,2|2|2,0:0|0:0|0:0,0:0:0:0:
237,232,26507,6,0,P|296:239|365:174,1,134.999995880127,2|0,0:0|0:0,0:0:0:0:
322,107,27169,2,0,L|334:33,1,67.4999979400635,2|0,0:0|0:0,0:0:0:0:
422,10,27610,1,8,0:0:0:0:
445,210,28051,6,0,L|511:220,2,67.4999979400635,2|2|2,0:0|0:0|0:0,0:0:0:0:
372,148,28713,2,0,L|305:158,1,67.4999979400635,2|2,0:0|0:0,0:0:0:0:
233,97,29154,2,0,P|210:147|246:235,1,134.999995880127,2|2,0:0|3:2,0:0:0:0:
316,253,29816,5,2,3:0:0:0:
316,253,30250,5,10,0:3:0:0:
270,329,30468,2,0,L|122:353,1,139.500004363632,2|0,0:0|3:0,0:0:0:0:
96,363,31013,1,8,0:0:0:0:
96,363,31122,1,8,0:0:0:0:
20,319,31341,5,8,0:0:0:0:
20,319,31451,1,8,0:0:0:0:
20,319,31560,2,0,P|-8:247|18:171,1,150,6|8,3:2|0:0,0:0:0:0:
96,133,32222,1,2,0:0:0:0:
171,194,32443,2,0,P|242:213|310:185,1,150,2|8,3:2|0:0,0:0:0:0:
349,96,33105,1,2,0:0:0:0:
425,156,33326,6,0,L|437:230,1,75,2|2,3:2|0:0,0:0:0:0:
416,333,33767,2,0,P|375:295|319:291,1,112.5,10|0,0:0|0:0,0:0:0:0:
284,305,34209,1,2,3:2:0:0:
209,355,34429,1,2,0:0:0:0:
153,284,34650,2,0,L|165:210,1,75,8|2,0:0|0:0,0:0:0:0:
103,143,35092,6,0,L|29:131,2,75,2|2|10,3:2|0:0|0:0,0:0:0:0:
166,78,35754,2,0,P|207:74|240:90,1,75,2|0,0:0|3:0,0:0:0:0:
325,104,36195,2,0,P|307:141|277:162,1,75,2|8,0:0|0:0,0:0:0:0:
194,186,36637,1,2,0:0:0:0:
237,264,36858,6,0,P|308:283|376:255,1,150,2|8,3:2|0:0,0:0:0:0:
402,169,37520,1,2,0:0:0:0:
491,182,37741,2,0,L|503:108,1,75,2|0,3:2|0:0,0:0:0:0:
451,34,38182,1,8,0:0:0:0:
277,122,38624,6,0,L|203:110,1,75,2|2,3:2|0:0,0:0:0:0:
134,51,39068,1,10,0:0:0:0:
67,122,39290,2,0,B|68:165|109:182|109:182|182:194,1,150,2|2,0:0|0:0,0:0:0:0:
256,256,39956,1,10,0:0:0:0:
333,193,40178,6,0,B|403:181|403:181|444:164|445:121,1,149,2|0,0:0|0:0,0:0:0:0:
380,58,40837,2,0,L|306:70,1,75,10|0,0:0|0:0,0:0:0:0:
256,144,41274,1,2,3:2:0:0:
206,70,41492,1,2,0:0:0:0:
206,70,41602,1,8,0:0:0:0:
206,70,41711,2,0,L|132:58,1,75,10|10,0:0|3:0,0:0:0:0:
65,118,42148,5,6,3:2:0:0:
65,118,42592,6,0,L|89:266,1,150,8|0,0:0|3:0,0:0:0:0:
155,326,43259,6,0,L|229:314,1,75,2|8,0:0|0:0,0:0:0:0:
315,342,43703,2,0,L|326:267,1,75,2|0,0:0|3:0,0:0:0:0:
379,194,44148,2,0,L|312:160,1,75,2|8,0:0|0:0,0:0:0:0:
258,87,44592,2,0,L|205:140,1,75,2|0,0:0|3:0,0:0:0:0:
120,169,45036,2,0,L|154:235,1,75,2|8,0:0|0:0,0:0:0:0:
242,288,45481,5,2,0:0:0:0:
242,288,45703,2,0,L|207:354,1,75,2|2,3:2|0:0,0:0:0:0:
112,332,46140,1,14,1:2:0:0:
57,251,46359,5,2,0:0:0:0:
57,251,46578,2,0,L|22:184,1,75,2|2,3:2|0:0,0:0:0:0:
70,99,47016,1,12,1:2:0:0:
160,146,47235,5,2,0:0:0:0:
160,146,47454,2,0,L|212:92,2,75,2|2|8,3:2|0:0|0:0,0:0:0:0:
176,246,48111,5,2,0:0:0:0:
176,246,48330,2,0,P|244:275|326:247,1,150,0|10,3:0|0:0,0:0:0:0:
366,176,48987,1,0,0:0:0:0:
366,176,49097,1,8,0:0:0:0:
366,176,49206,6,0,L|354:102,1,75,2|2,3:2|0:0,0:0:0:0:
380,15,49647,2,0,L|454:27,1,75,10|2,0:0|0:0,0:0:0:0:
492,108,50088,2,0,L|468:256,1,150,2|10,3:2|0:0,0:0:0:0:
396,310,50750,5,2,0:0:0:0:
325,253,50970,2,0,L|251:265,1,75,2|2,3:2|0:0,0:0:0:0:
182,324,51411,2,0,P|163:291|178:214,1,112.5,10|0,0:0|0:0,0:0:0:0:
199,192,51853,2,0,L|175:44,1,150,2|8,3:2|0:0,0:0:0:0:
256,0,52514,1,2,0:0:0:0:
302,76,52735,6,0,L|376:88,1,75,2|0,3:2|0:0,0:0:0:0:
445,147,53176,1,10,0:0:0:0:
512,76,53397,2,0,B|511:33|470:16|470:16|397:4,1,150,2|0,0:0|0:0,0:0:0:0:
315,38,54058,1,10,0:0:0:0:
341,124,54279,6,0,L|323:235,1,112.5,6|0,3:2|0:0,0:0:0:0:
317,268,54720,1,8,0:0:0:0:
376,335,54941,2,0,L|449:323,1,75,10|0,1:3|0:0,0:0:0:0:
487,321,55276,1,8,0:0:0:0:
487,321,55388,1,0,3:0:0:0:
509,233,55608,5,10,0:0:0:0:
426,202,55829,1,10,0:0:0:0:
426,202,55939,1,8,0:0:0:0:
426,202,56049,1,10,3:0:0:0:
338,251,56270,6,0,B|275:261|275:261|214:251,1,126.000001538086,6|0,3:2|0:0,0:0:0:0:
186,224,56711,2,0,L|210:83,1,126.000001538086,10|2,0:0|0:0,0:0:0:0:
216,63,57153,1,2,3:2:0:0:
299,111,57374,1,2,0:0:0:0:
350,28,57595,2,0,L|436:13,1,84.0000010253906,10|2,0:0|0:0,0:0:0:0:
489,93,58036,6,0,L|468:217,1,126.000001538086,2|0,3:2|0:0,0:0:0:0:
466,254,58478,1,10,0:0:0:0:
505,342,58699,2,0,P|461:350|416:335,1,84.0000010253906,2|2,0:0|3:2,0:0:0:0:
369,259,59141,2,0,P|324:258|282:281,1,84.0000010253906,2|10,0:0|0:0,0:0:0:0:
238,358,59582,1,2,0:0:0:0:
155,306,59803,6,0,L|141:223,1,84.0000010253906,2|0,3:2|0:0,0:0:0:0:
136,185,60135,1,0,0:0:0:0:
136,185,60245,1,8,0:0:0:0:
196,103,60466,1,2,0:0:0:0:
261,174,60687,2,0,P|305:174|347:151,1,84.0000010253906,2|0,3:2|0:0,0:0:0:0:
362,63,61129,1,10,0:0:0:0:
444,112,61349,6,0,P|462:149|455:190,1,84.0000010253906,2|0,0:0|3:0,0:0:0:0:
511,268,61791,2,0,P|474:286|432:278,1,84.0000010253906,2|8,0:0|0:0,0:0:0:0:
352,235,62233,1,2,0:0:0:0:
352,235,62454,2,0,P|344:194|363:157,2,84.0000010253906,2|2|10,3:2|0:0|0:0,0:0:0:0:
352,331,63116,1,2,0:0:0:0:
352,331,63227,1,8,0:0:0:0:
352,331,63337,6,0,B|289:341|289:341|228:331,1,126.000001538086,0|0,3:0|0:0,0:0:0:0:
189,331,63779,2,0,L|164:190,1,126.000001538086,10|2,0:0|0:0,0:0:0:0:
155,171,64221,1,2,3:2:0:0:
80,240,64441,2,0,P|31:241|-7:221,1,84.0000010253906,2|8,0:0|0:0,0:0:0:0:
53,147,64883,1,2,0:0:0:0:
3,64,65104,6,0,P|63:51|127:85,1,126.000001538086,2|0,3:2|0:0,0:0:0:0:
142,108,65546,1,10,0:0:0:0:
223,56,65767,2,0,P|241:93|234:134,1,84.0000010253906,2|2,0:0|3:2,0:0:0:0:
175,211,66208,2,0,P|157:248|164:289,1,84.0000010253906,2|8,0:0|0:0,0:0:0:0:
194,320,66540,1,2,0:0:0:0:
194,320,66650,1,2,0:0:0:0:
280,362,66871,6,0,L|420:337,1,126.000001538086,2|0,3:2|0:0,0:0:0:0:
442,333,67313,1,8,0:0:0:0:
496,252,67534,2,0,P|503:211|484:174,1,84.0000010253906,2|2,0:0|3:2,0:0:0:0:
391,149,67975,1,2,0:0:0:0:
342,232,68196,1,10,0:0:0:0:
411,299,68417,6,0,B|409:324|382:345|382:345|271:326,1,168.000002050781,2|2,0:0|0:0,0:0:0:0:
227,240,69080,2,0,L|243:146,1,84.0000010253906,10|0,0:0|0:0,0:0:0:0:
177,84,69521,5,8,0:0:0:0:
156,88,69628,1,8,0:0:0:0:
135,92,69736,1,10,0:0:0:0:
114,95,69844,1,8,0:0:0:0:
94,99,69952,2,0,L|47:90,3,42.0000005126953,10|0|6|4,3:0|3:0|3:0|3:0,0:0:0:0:
16,103,70384,6,0,B|5:165|5:165|16:226,1,126.000001538086,6|0,3:2|0:0,0:0:0:0:
43,255,70826,2,0,L|183:230,1,126.000001538086,10|2,0:0|0:0,0:0:0:0:
204,225,71268,1,2,3:2:0:0:
249,138,71490,1,2,0:0:0:0:
323,200,71711,2,0,L|339:293,1,84.0000010253906,10|2,0:0|0:0,0:0:0:0:
296,369,72153,6,0,P|358:377|415:337,1,126.000001538086,2|0,3:2|0:0,0:0:0:0:
437,318,72596,1,10,0:0:0:0:
419,223,72817,2,0,L|404:140,1,84.0000010253906,2|2,0:0|3:2,0:0:0:0:
497,104,73260,2,0,L|482:21,1,84.0000010253906,2|10,0:0|0:0,0:0:0:0:
391,3,73702,1,2,0:0:0:0:
338,83,73923,6,0,L|255:69,1,84.0000010253906,2|0,3:2|0:0,0:0:0:0:
217,64,74255,1,0,0:0:0:0:
217,64,74366,1,8,0:0:0:0:
136,11,74587,1,2,0:0:0:0:
80,90,74808,2,0,L|93:172,1,84.0000010253906,2|2,3:2|0:0,0:0:0:0:
160,242,75251,1,10,0:0:0:0:
220,166,75472,6,0,P|246:197|255:246,1,84.0000010253906,2|2,0:0|3:2,0:0:0:0:
349,262,75914,2,0,P|335:300|297:332,1,84.0000010253906,2|10,0:0|0:0,0:0:0:0:
215,369,76357,2,0,L|49:342,1,168.000002050781,2|2,0:0|0:0,0:0:0:0:
18,260,77021,1,10,0:0:0:0:
18,260,77131,1,2,0:0:0:0:
18,260,77242,1,2,0:0:0:0:
90,195,77463,6,0,P|67:155|73:109,1,84.0000010253906,2|0,3:2|0:0,0:0:0:0:
141,53,77904,1,10,0:0:0:0:
189,136,78124,2,0,P|229:144|268:128,1,84.0000010253906,2|2,0:0|3:2,0:0:0:0:
350,180,78565,2,0,P|370:143|367:102,1,84.0000010253906,2|8,0:0|0:0,0:0:0:0:
442,40,79007,6,0,P|413:9|373:0,1,84.0000010253906,2|2,0:0|3:2,0:0:0:0:
283,33,79448,1,2,0:0:0:0:
268,128,79668,2,0,L|185:113,1,84.0000010253906,10|0,0:0|0:0,0:0:0:0:
117,44,80110,2,0,L|34:58,1,84.0000010253906,2|0,3:2|0:0,0:0:0:0:
1,149,80551,1,8,0:0:0:0:
93,175,80771,1,2,0:0:0:0:
46,259,80992,6,0,L|60:341,1,84.0000010253906,2|0,3:2|0:0,0:0:0:0:
148,382,81433,1,10,0:0:0:0:
192,296,81654,2,0,P|232:288|271:304,1,84.0000010253906,2|0,0:0|3:2,0:0:0:0:
350,367,82095,1,2,0:0:0:0:
350,367,82315,2,0,P|368:329|403:308,1,84.0000010253906,10|2,0:0|0:0,0:0:0:0:
445,310,82646,1,2,0:0:0:0:
445,310,82757,1,2,3:2:0:0:
486,223,82977,5,0,0:0:0:0:
391,201,83198,2,0,P|355:179|344:130,1,84.0000010253906,10|0,0:0|0:0,0:0:0:0:
351,106,83529,1,8,0:0:0:0:
351,106,83639,2,0,P|297:132|198:107,1,126.000001538086,10|0,0:0|0:0,0:0:0:0:
201,110,84080,2,0,L|208:69,2,42.0000005126953,2|8|8,3:2|0:0|3:0,0:0:0:0:
151,193,84521,5,4,3:2:0:0:
59,164,84739,1,2,0:0:0:0:
37,258,84958,2,0,L|51:340,1,84.0000010253906,10|0,0:0|0:0,0:0:0:0:
135,293,85396,2,0,B|119:201|119:201|96:164|53:163,1,168.000002050781,2|10,3:2|0:0,0:0:0:0:
24,172,85944,1,2,0:0:0:0:
24,172,86053,1,2,3:2:0:0:
22,74,86292,6,0,L|104:60,1,84.0000010253906,2|0,3:2|0:0,0:0:0:0:
180,121,86729,1,6,3:2:0:0:
256,192,86839,12,0,89795,0:0:0:0:
