osu file format v14

[General]
AudioFilename: audio.ogg
AudioLeadIn: 0
PreviewTime: 48757
Countdown: 0
SampleSet: Soft
StackLeniency: 0.5
Mode: 0
LetterboxInBreaks: 0
WidescreenStoryboard: 1

[Editor]
DistanceSpacing: 0.9
BeatDivisor: 4
GridSize: 8
TimelineZoom: 2.1

[Metadata]
Title:Wonderful Precure! evolution!! (TV Size)
TitleUnicode:わんだふるぷりきゅあ!evolution!! (TV Size)
Artist:Yoshitake Chihaya
ArtistUnicode:吉武千颯
Creator:Sagisawa Arisa
Version:normal!!
Source:わんだふるぷりきゅあ!
Tags:precure mahou shojo pretty cure anime japanese op j pop j-pop jpop bandai namco toei animation 東映アニメーション株式会社 株式会社バンダイナムコホールディングス female vocal poyoyo kohno marika kohno_marika hvick225 snowwhite matsuyuki ame matsuyuki_ame rk657
BeatmapID:4576810
BeatmapSetID:2168960

[Difficulty]
HPDrainRate:3.5
CircleSize:3.5
OverallDifficulty:4
ApproachRate:6
SliderMultiplier:0.999999999999999
SliderTickRate:1

[Events]
//Background and Video events
0,0,"arukas.jpg",0,0
Video,-130,"v.mp4"
//Break Periods
//Storyboard Layer 0 (Background)
//Storyboard Layer 1 (Fail)
//Storyboard Layer 2 (Pass)
//Storyboard Layer 3 (Foreground)
//Storyboard Layer 4 (Overlay)
//Storyboard Sound Samples

[TimingPoints]
-4949,344.827586206897,4,2,1,75,1,0
2464,-100,4,2,2,75,0,0
2808,-100,4,2,1,75,0,0
3326,344.827586206897,4,2,1,70,1,0
19877,-100,4,2,1,65,0,0
20050,-100,4,2,2,65,0,0
20221,-100,4,2,1,65,0,0
22809,-100,4,2,2,65,0,0
22980,-100,4,2,1,65,0,0
23499,-100,4,2,2,65,0,0
23670,-100,4,2,1,65,0,0
28153,-100,4,2,1,75,0,0
30912,-100,4,2,1,70,0,0
39361,-100,4,2,2,70,0,0
39532,-100,4,2,1,70,0,0
39705,-100,4,2,2,70,0,0
39792,-100,4,2,1,70,0,0
40740,-100,4,2,2,70,0,0
40911,-100,4,2,1,70,0,0
41430,-100,4,2,2,70,0,0
41601,-100,4,2,1,70,0,0
42809,-100,4,2,2,70,0,0
42980,-100,4,2,1,70,0,0
44705,-100,4,2,1,75,0,0
46084,-100,4,2,1,80,0,0
47463,-100,4,2,1,70,0,0
48843,344.827586206897,4,2,1,85,1,0
48843,-100,4,2,1,85,0,1
70911,-100,4,2,1,70,0,0
74877,-100,4,2,1,80,0,0
76429,-100,4,2,1,85,0,1
81946,-100,4,2,1,75,0,0
84705,-100,4,2,1,85,0,0

[Colours]
Combo1 : 255,255,64
Combo2 : 255,128,255

[HitObjects]
63,36,568,6,0,P|38:84|54:142,1,99.9999999999999,4|2,1:2|2:0,2:0:0:0:
106,206,1257,2,0,P|154:187|213:197,1,99.9999999999999,4|2,1:2|3:2,2:0:0:0:
275,259,1947,2,0,L|267:309,1,50,8|2,2:3|1:2,2:0:0:0:
260,361,2292,1,8,2:0:0:0:
260,361,2464,2,0,P|209:360|176:311,1,99.9999999999999,4|0,1:2|1:0,2:0:0:0:
41,263,3326,6,0,L|55:162,1,99.9999999999999,2|2,1:2|1:2,2:0:0:0:
65,114,3843,2,0,P|101:140|161:131,1,99.9999999999999,2|2,2:0|2:0,2:0:0:0:
219,59,4532,1,2,2:0:0:0:
309,102,4877,1,2,2:0:0:0:
395,50,5222,1,2,2:0:0:0:
395,50,5394,2,0,P|427:89|409:153,1,99.9999999999999,2|0,1:2|1:0,2:0:0:0:
347,203,6084,6,0,L|333:317,1,99.9999999999999,2|2,1:2|1:2,2:0:0:0:
356,347,6601,2,0,P|408:350|452:312,1,99.9999999999999,2|2,2:0|2:0,2:0:0:0:
446,222,7291,1,2,1:2:0:0:
347,203,7636,1,8,2:3:0:0:
281,278,7981,1,2,1:2:0:0:
281,278,8153,2,0,P|235:288|184:258,1,99.9999999999999,2|8,1:2|2:0,2:0:0:0:
121,190,8843,6,0,B|54:204,2,50,6|2|8,1:2|2:0|2:0,2:0:0:0:
154,152,9360,2,0,P|201:157|245:110,1,99.9999999999999,2|0,2:0|2:0,2:0:0:0:
253,77,9877,1,0,1:0:0:0:
350,54,10222,2,0,L|361:-1,2,50,2|2|8,1:2|2:0|2:0,2:0:0:0:
382,92,10739,2,0,P|420:122|427:171,1,99.9999999999999,2|0,2:0|2:0,2:0:0:0:
411,218,11257,1,0,1:0:0:0:
317,254,11601,6,0,L|328:309,1,50,2|2,1:2|2:0,2:0:0:0:
342,355,11946,1,8,2:0:0:0:
342,355,12119,1,2,2:0:0:0:
243,370,12463,2,0,L|181:363,1,50,2|2,2:0|1:2,2:0:0:0:
166,321,12808,2,0,P|119:297|60:321,1,99.9999999999999,2|2,2:0|2:0,2:0:0:0:
31,326,13326,1,8,2:0:0:0:
31,326,13498,2,0,P|12:279|24:232,1,99.9999999999999,8|8,2:0|2:0,2:0:0:0:
44,187,14015,1,0,1:0:0:0:
138,219,14360,6,0,P|168:223|200:204,1,50,6|2,1:2|2:0,2:0:0:0:
227,186,14705,1,8,2:0:0:0:
227,186,14877,2,0,L|213:76,1,99.9999999999999,2|0,2:0|2:0,2:0:0:0:
126,37,15567,2,0,P|75:50|61:102,1,99.9999999999999,2|2,2:0|2:0,2:0:0:0:
84,141,16084,1,8,2:0:0:0:
84,141,16257,2,0,L|197:125,1,99.9999999999999,2|8,2:0|2:3,2:0:0:0:
214,86,16774,2,0,L|285:99,1,50,4|8,2:3|2:3,2:0:0:0:
311,105,17119,5,4,1:2:0:0:
381,176,17463,1,2,2:0:0:0:
471,134,17808,1,2,2:0:0:0:
456,34,18153,2,0,L|402:45,1,50,8|8,2:0|2:0,2:0:0:0:
358,57,18498,1,4,1:2:0:0:
299,137,18843,2,0,L|245:126,1,50,2|10,1:2|2:0,2:0:0:0:
201,114,19188,1,8,1:2:0:0:
144,196,19532,2,0,L|156:250,1,50,2|8,2:0|2:3,2:0:0:0:
170,292,19877,6,0,P|223:300|257:265,1,99.9999999999999,4|2,1:2|1:2,2:0:0:0:
317,193,20567,2,0,L|379:204,1,50,0|2,1:0|2:0,2:0:0:0:
397,240,20912,2,0,L|458:231,1,50,0|2,1:0|2:0,2:0:0:0:
481,196,21257,2,0,P|494:149|470:90,1,99.9999999999999,2|0,1:2|1:0,2:0:0:0:
454,57,21774,1,2,2:0:0:0:
362,95,22119,1,2,2:0:0:0:
306,234,22636,6,0,P|257:242|205:215,1,99.9999999999999,0|2,1:0|1:2,2:0:0:0:
183,180,23153,2,0,P|134:172|60:249,1,150,2|2,2:0|1:2,2:0:0:0:
18,144,24015,2,0,P|4:94|25:43,1,99.9999999999999,2|0,1:2|1:0,2:0:0:0:
46,13,24532,1,2,2:0:0:0:
46,13,24705,2,0,P|89:47|138:42,1,99.9999999999999,0|0,1:2|1:0,2:0:0:0:
222,4,25394,5,2,1:2:0:0:
300,66,25739,1,2,1:2:0:0:
248,150,26084,2,0,L|233:251,1,99.9999999999999,2|0,1:2|1:2,2:0:0:0:
232,302,26601,1,2,2:0:0:0:
232,302,26774,2,0,P|277:337|332:329,1,99.9999999999999,2|0,1:2|1:2,2:0:0:0:
404,286,27463,1,2,1:2:0:0:
477,351,27808,1,2,1:2:0:0:
509,255,28153,6,0,L|495:154,1,99.9999999999999,8|2,2:0|1:2,2:0:0:0:
470,113,28670,2,0,P|425:147|368:127,1,99.9999999999999,8|2,2:0|1:2,2:0:0:0:
346,109,29188,1,8,2:0:0:0:
346,109,29360,2,0,P|309:78|261:85,1,99.9999999999999,2|0,1:2|1:0,2:0:0:0:
222,117,29877,1,8,2:0:0:0:
241,215,30222,1,8,2:0:0:0:
241,215,30912,6,0,L|232:274,2,50,4|2|8,1:2|1:2|2:0,2:0:0:0:
285,188,31429,1,2,2:0:0:0:
285,188,31601,2,0,P|332:189|371:228,1,99.9999999999999,2|8,1:2|2:0,2:0:0:0:
426,306,32291,1,2,1:2:0:0:
353,374,32636,1,8,2:0:0:0:
265,326,32981,2,0,L|201:338,1,50,2|0,1:2|1:0,2:0:0:0:
167,347,33326,1,8,2:0:0:0:
95,277,33670,6,0,L|104:220,1,50,0|2,1:2|1:2,2:0:0:0:
67,192,34015,2,0,L|58:135,1,50,8|2,2:0|2:0,2:0:0:0:
92,104,34360,2,0,P|148:120|194:101,1,99.9999999999999,2|8,1:2|2:0,2:0:0:0:
254,33,35050,1,2,1:2:0:0:
350,58,35394,1,8,2:0:0:0:
380,153,35739,2,0,L|371:210,1,50,2|0,1:2|1:0,2:0:0:0:
362,251,36084,1,8,2:0:0:0:
286,316,36429,6,0,L|301:376,2,50,0|2|8,1:2|1:2|2:0,2:0:0:0:
244,287,36946,1,8,2:0:0:0:
244,287,37119,2,0,P|192:316|141:304,1,99.9999999999999,2|8,1:2|2:0,2:0:0:0:
108,221,37808,1,2,1:2:0:0:
17,264,38153,1,8,2:0:0:0:
60,353,38498,1,2,1:2:0:0:
153,310,38843,1,8,2:0:0:0:
153,310,39015,6,0,B|232:297|209:364|320:353,1,150,2|8,1:2|2:0,2:0:0:0:
338,335,39705,2,0,P|359:287|326:244,1,99.9999999999999,2|2,2:0|2:0,2:0:0:0:
296,219,40222,1,8,2:0:0:0:
206,174,40567,2,0,P|186:129|220:74,1,99.9999999999999,2|8,1:2|2:0,2:0:0:0:
281,21,41257,2,0,P|329:40|385:21,1,99.9999999999999,2|8,1:2|2:0,2:0:0:0:
424,115,41946,6,0,B|462:113|462:113|504:79,2,74.9999999999999,4|2|2,1:2|2:0|2:0,2:0:0:0:
383,145,42636,2,0,P|386:200|398:248,1,99.9999999999999,2|8,1:2|2:0,2:0:0:0:
317,304,43326,2,0,P|318:342|303:388,2,74.9999999999999,4|2|2,1:2|2:0|2:0,2:0:0:0:
288,262,44015,2,0,B|189:250,1,99.9999999999999,2|8,1:2|2:3,2:0:0:0:
108,189,44705,6,0,L|32:199,2,74.9999999999999,4|2|2,1:2|1:2|1:2,2:0:0:0:
147,158,45394,2,0,P|165:114|133:63,1,99.9999999999999,2|0,1:2|1:0,2:0:0:0:
56,18,46084,1,12,1:2:0:0:
256,192,46257,12,8,47463,2:0:0:0:
446,41,48843,6,0,P|414:77|346:86,1,99.9999999999999,4|8,1:2|1:2,2:0:0:0:
316,76,49360,1,0,2:0:0:0:
316,76,49532,2,0,L|334:188,1,99.9999999999999,2|8,1:2|1:2,2:0:0:0:
294,267,50222,2,0,P|250:239|191:246,1,99.9999999999999,2|8,1:2|1:2,2:0:0:0:
169,277,50739,2,0,P|125:305|66:298,1,99.9999999999999,2|2,2:0|2:0,2:0:0:0:
34,278,51256,1,8,1:2:0:0:
99,202,51601,6,0,L|87:143,2,50,0|2|8,1:0|2:0|1:2,2:0:0:0:
139,232,52118,1,0,2:0:0:0:
139,232,52291,2,0,L|126:291,2,50,2|0|8,1:2|2:0|1:2,2:0:0:0:
205,156,52980,2,0,P|254:148|305:187,1,99.9999999999999,4|8,1:2|1:2,2:0:0:0:
336,202,53498,2,0,L|348:94,1,99.9999999999999,2|0,2:0|2:0,2:0:0:0:
352,52,54015,1,8,1:2:0:0:
257,19,54360,6,0,P|205:12|157:51,1,99.9999999999999,4|8,1:2|1:2,2:0:0:0:
133,73,54877,1,0,2:0:0:0:
133,73,55049,2,0,P|81:80|33:41,1,99.9999999999999,2|8,1:2|1:2,2:0:0:0:
21,153,55739,2,0,P|34:206|42:257,1,99.9999999999999,2|8,1:2|1:2,2:0:0:0:
33,300,56256,2,0,P|91:282|131:308,1,99.9999999999999,2|2,2:0|2:0,2:0:0:0:
154,338,56774,1,8,1:2:0:0:
233,278,57118,6,0,P|277:282|326:241,1,99.9999999999999,4|8,1:2|1:2,2:0:0:0:
349,209,57636,2,0,L|343:156,1,50,2|0,2:0|1:2,2:0:0:0:
303,129,57980,2,0,L|311:69,1,50,8|0,2:0|1:0,2:0:0:0:
335,36,58325,2,0,B|387:31|378:73|435:63,1,99.9999999999999,8|8,2:0|1:2,2:0:0:0:
473,41,58843,1,8,1:2:0:0:
494,138,59187,1,8,1:2:0:0:
414,198,59532,2,0,L|422:251,1,50,2|2,1:2|1:2,2:0:0:0:
448,289,59877,6,0,P|393:297|359:349,1,99.9999999999999,4|2,1:2|1:2,2:0:0:0:
339,373,60394,1,8,2:0:0:0:
339,373,60567,2,0,L|221:361,1,99.9999999999999,2|0,1:2|1:0,2:0:0:0:
139,358,61256,2,0,P|122:310|155:266,1,99.9999999999999,2|2,1:2|1:2,2:0:0:0:
184,238,61774,2,0,B|199:190|199:190|178:138,1,99.9999999999999,10|8,2:0|2:0,2:0:0:0:
156,99,62291,1,0,1:0:0:0:
69,148,62636,6,0,L|9:141,2,50,0|8|2,1:2|2:0|1:2,2:0:0:0:
103,184,63153,1,8,2:0:0:0:
103,184,63325,2,0,L|163:177,2,50,0|8|2,1:0|2:0|1:2,2:0:0:0:
37,259,64015,2,0,P|16:302|47:349,1,99.9999999999999,4|2,1:2|1:2,2:0:0:0:
84,365,64532,2,0,P|129:337|181:348,1,99.9999999999999,10|8,2:0|2:0,2:0:0:0:
219,363,65049,1,0,1:0:0:0:
297,301,65394,6,0,L|306:196,1,99.9999999999999,4|2,1:2|1:2,2:0:0:0:
345,170,65911,1,8,2:0:0:0:
345,170,66084,2,0,P|387:187|441:166,1,99.9999999999999,2|0,1:2|1:2,2:0:0:0:
469,75,66774,2,0,B|454:47|454:47|361:37,1,99.9999999999999,2|2,1:2|1:2,2:0:0:0:
345,68,67291,2,0,P|307:104|257:103,1,99.9999999999999,10|8,2:0|2:0,2:0:0:0:
211,99,67808,1,0,1:0:0:0:
143,173,68153,5,4,1:2:0:0:
165,275,68498,1,2,1:2:0:0:
165,275,68670,2,0,P|137:287|101:278,1,50,10|8,2:0|1:2,2:0:0:0:
73,308,69015,2,0,P|48:289|38:254,1,50,8|8,2:0|2:0,2:0:0:0:
7,234,69360,2,0,L|24:128,1,99.9999999999999,2|8,1:2|2:0,2:0:0:0:
32,85,69877,1,8,2:0:0:0:
113,27,70222,6,0,B|153:33|153:33|165:46|165:46|211:52,1,99.9999999999999,10|2,2:0|2:0,2:0:0:0:
303,25,70911,2,0,P|318:77|292:124,1,99.9999999999999,4|0,1:2|2:0,2:0:0:0:
211,160,71601,1,0,1:2:0:0:
211,160,71774,2,0,L|203:216,1,50,2|8,2:0|2:3,2:0:0:0:
198,259,72118,2,0,P|272:250|329:319,1,150,2|0,2:0|2:0,2:0:0:0:
413,342,72980,6,0,L|427:233,1,99.9999999999999,0|4,1:2|2:3,2:0:0:0:
465,150,73670,2,0,P|420:158|346:92,1,150,2|0,1:2|1:0,2:0:0:0:
345,44,74360,2,0,P|299:83|241:77,1,99.9999999999999,0|8,1:2|2:3,2:0:0:0:
217,60,74877,2,0,P|101:56|195:178,1,350,4|8,1:2|2:3,2:0:0:0:
285,218,76429,5,4,1:2:0:0:
245,310,76774,1,8,1:2:0:0:
146,294,77118,2,0,L|89:309,1,50,2|0,1:2|2:0,2:0:0:0:
53,283,77463,2,0,L|40:222,1,50,8|0,1:2|2:0,2:0:0:0:
36,184,77808,2,0,P|68:150|126:159,1,99.9999999999999,2|8,1:2|2:0,2:0:0:0:
160,179,78325,2,0,L|178:68,1,99.9999999999999,10|8,2:0|2:0,2:0:0:0:
184,30,78843,1,8,1:2:0:0:
281,8,79187,6,0,P|335:9|368:57,1,99.9999999999999,2|2,1:2|2:0,2:0:0:0:
394,81,79705,2,0,L|515:65,2,99.9999999999999,2|8|10,2:0|2:0|2:0,2:0:0:0:
349,172,80739,1,8,1:2:0:0:
349,172,80911,1,8,1:2:0:0:
253,143,81256,1,8,1:2:0:0:
253,143,81946,6,0,L|241:255,1,99.9999999999999,4|8,1:2|2:0,2:0:0:0:
267,285,82463,2,0,P|316:288|350:254,1,99.9999999999999,2|2,2:0|2:0,2:0:0:0:
440,209,83153,1,2,2:0:0:0:
507,282,83498,1,2,2:0:0:0:
449,363,83843,1,2,2:0:0:0:
449,363,84015,2,0,L|331:351,1,99.9999999999999,2|8,1:2|2:0,2:0:0:0:
277,282,84705,6,0,P|224:282|184:323,1,99.9999999999999,12|8,1:2|1:2,2:0:0:0:
155,347,85222,2,0,L|137:235,1,99.9999999999999,10|8,1:2|1:2,2:0:0:0:
61,184,85911,2,0,L|79:72,1,99.9999999999999,12|8,1:2|1:2,2:0:0:0:
112,49,86429,1,10,1:2:0:0:
205,84,86774,1,10,1:2:0:0:
