osu file format v14

[General]
AudioFilename: audio.ogg
AudioLeadIn: 0
PreviewTime: 48757
Countdown: 0
SampleSet: Soft
StackLeniency: 0.5
Mode: 0
LetterboxInBreaks: 0
WidescreenStoryboard: 1

[Editor]
Bookmarks: 8844,19878,30912,39188,48844,59878,70912,81947
DistanceSpacing: 0.2
BeatDivisor: 4
GridSize: 8
TimelineZoom: 2.1

[Metadata]
Title:Wonderful Precure! evolution!! (TV Size)
TitleUnicode:わんだふるぷりきゅあ!evolution!! (TV Size)
Artist:Yoshitake Chihaya
ArtistUnicode:吉武千颯
Creator:Sagisawa Arisa
Version:Iroha & Komugi's insane!!
Source:わんだふるぷりきゅあ!
Tags:precure mahou shojo pretty cure anime japanese op j pop j-pop jpop bandai namco toei animation 東映アニメーション株式会社 株式会社バンダイナムコホールディングス female vocal poyoyo kohno marika kohno_marika hvick225 snowwhite matsuyuki ame matsuyuki_ame rk657
BeatmapID:4577772
BeatmapSetID:2168960

[Difficulty]
HPDrainRate:5
CircleSize:4
OverallDifficulty:8
ApproachRate:9
SliderMultiplier:1.5
SliderTickRate:1

[Events]
//Background and Video events
Video,-130,"v.mp4"
0,0,"arukas.jpg",0,0
//Break Periods
//Storyboard Layer 0 (Background)
//Storyboard Layer 1 (Fail)
//Storyboard Layer 2 (Pass)
//Storyboard Layer 3 (Foreground)
//Storyboard Layer 4 (Overlay)
//Storyboard Sound Samples

[TimingPoints]
-4949,344.827586206897,4,2,1,75,1,0
568,-125,4,2,1,75,0,0
2464,-100,4,2,2,75,0,0
2808,-100,4,2,1,75,0,0
3326,344.827586206897,4,2,1,70,1,0
19877,-111.111111111111,4,2,1,65,0,0
20049,-111.111111111111,4,2,2,65,0,0
20222,-111.111111111111,4,2,1,65,0,0
20394,-111.111111111111,4,2,2,65,0,0
20567,-111.111111111111,4,2,1,65,0,0
22808,-111.111111111111,4,2,2,65,0,0
22980,-111.111111111111,4,2,1,65,0,0
23153,-111.111111111111,4,2,2,65,0,0
23326,-111.111111111111,4,2,1,65,0,0
23497,-111.111111111111,4,2,2,65,0,0
23670,-111.111111111111,4,2,1,65,0,0
25566,-111.111111111111,4,2,2,65,0,0
25739,-111.111111111111,4,2,1,65,0,0
25911,-111.111111111111,4,2,2,65,0,0
26084,-111.111111111111,4,2,1,65,0,0
28153,-100,4,2,1,75,0,0
30567,-100,4,2,2,70,0,0
30912,-100,4,2,1,70,0,0
39360,-100,4,2,2,70,0,0
39532,-100,4,2,1,70,0,0
39705,-100,4,2,2,70,0,0
39792,-100,4,2,1,70,0,0
40739,-100,4,2,2,70,0,0
40912,-100,4,2,1,70,0,0
41084,-100,4,2,2,70,0,0
41257,-100,4,2,1,70,0,0
41429,-100,4,2,2,70,0,0
41601,-100,4,2,1,70,0,0
42118,-100,4,2,2,70,0,0
42291,-100,4,2,1,70,0,0
42463,-100,4,2,2,70,0,0
42636,-100,4,2,1,70,0,0
42809,-100,4,2,2,70,0,0
42980,-100,4,2,1,70,0,0
44705,-90.9090909090909,4,2,1,75,0,0
46084,-90.9090909090909,4,2,1,80,0,0
47636,-90.9090909090909,4,2,1,70,0,0
48843,344.827586206897,4,2,1,85,1,0
48843,-100,4,2,1,85,0,1
70222,-125,4,2,1,85,0,1
70911,-125,4,2,1,70,0,0
74877,-125,4,2,1,80,0,0
76084,-100,4,2,1,80,0,0
76429,-100,4,2,1,85,0,1
81601,-100,4,2,2,85,0,1
81775,-100,4,2,1,85,0,1
81946,-100,4,2,1,75,0,0
84705,-100,4,2,1,85,0,0

[Colours]
Combo1 : 255,255,64
Combo2 : 255,128,255

[HitObjects]
169,156,395,5,0,2:0:0:0:
169,156,482,1,0,2:0:0:0:
169,156,568,2,0,P|191:210|206:288,1,120,4|2,1:2|2:0,2:0:0:0:
339,217,1257,2,0,P|317:163|302:85,1,120,4|2,1:2|3:2,2:0:0:0:
446,49,1775,5,0,1:0:0:0:
446,49,1861,1,0,1:0:0:0:
446,49,1947,1,8,2:3:0:0:
424,216,2119,1,2,1:2:0:0:
504,129,2292,1,8,2:0:0:0:
304,103,2464,2,0,B|217:103|255:157|166:157,1,150,4|0,1:2|1:0,2:0:0:0:
40,25,3154,5,8,2:0:0:0:
40,25,3240,1,8,2:0:0:0:
40,25,3326,2,0,P|117:23|171:88,1,150,2|2,1:2|1:2,2:0:0:0:
122,245,3843,2,0,P|71:191|75:118,1,150,2|2,2:0|2:0,2:0:0:0:
166,72,4360,1,0,1:0:0:0:
290,183,4532,6,0,B|347:176|347:176|373:151|373:151|445:143,2,150,2|2|2,2:0|2:0|2:0,2:0:0:0:
348,313,5394,2,0,P|292:333|213:280,1,150,2|0,1:2|1:0,2:0:0:0:
298,190,5912,5,0,2:0:0:0:
298,190,5998,1,0,2:0:0:0:
298,190,6084,2,0,L|286:98,1,75,2|0,1:2|2:0,2:0:0:0:
364,29,6429,1,2,1:2:0:0:
364,29,6601,2,0,L|456:41,1,75,2|0,2:0|1:0,2:0:0:0:
288,115,6946,2,0,L|196:103,1,75,2|0,2:0|1:0,2:0:0:0:
411,231,7291,6,0,P|424:284|377:343,1,112.5,2|0,1:2|2:0,2:0:0:0:
267,315,7636,2,0,P|253:261|301:203,1,112.5,8|0,2:3|2:0,2:0:0:0:
339,273,7981,1,2,1:2:0:0:
188,361,8153,2,0,B|113:376|113:376|27:340,1,150,2|8,1:2|2:0,2:0:0:0:
47,329,8584,1,2,2:0:0:0:
50,310,8670,1,2,2:0:0:0:
53,291,8757,1,2,2:0:0:0:
55,273,8843,5,6,1:2:0:0:
141,196,9015,1,2,2:0:0:0:
7,148,9188,1,8,2:0:0:0:
158,200,9360,6,0,P|222:175|310:175,1,150,2|2,2:0|2:0,2:0:0:0:
302,173,9791,1,2,2:0:0:0:
302,173,9877,1,0,1:0:0:0:
364,100,10050,1,0,2:0:0:0:
447,127,10222,5,2,1:2:0:0:
307,39,10394,1,2,2:0:0:0:
304,191,10567,1,8,2:0:0:0:
310,21,10739,2,0,P|246:46|158:46,1,150,2|0,2:0|2:0,2:0:0:0:
165,47,11170,1,0,2:0:0:0:
165,47,11257,1,0,1:0:0:0:
63,162,11429,1,2,2:0:0:0:
63,162,11515,1,2,2:0:0:0:
63,162,11601,6,0,P|71:113|60:88,1,75,2|2,1:2|2:0,2:0:0:0:
5,246,11946,1,8,2:0:0:0:
5,246,12119,2,0,B|104:241|55:297|162:285,1,150,2|2,2:0|2:0,2:0:0:0:
307,219,12636,1,2,1:2:0:0:
180,126,12808,1,2,2:0:0:0:
234,294,12981,6,0,P|228:332|225:383,1,75,0|2,1:0|2:0,2:0:0:0:
397,245,13326,2,0,P|393:207|388:170,1,75,8|8,2:0|2:0,2:0:0:0:
443,98,13670,1,0,1:0:0:0:
307,219,13843,1,8,2:0:0:0:
307,219,13929,1,8,2:0:0:0:
307,219,14015,2,0,L|248:225,3,37.5,0|2|2|2,1:0|2:3|2:3|2:3,2:0:0:0:
235,226,14360,5,6,1:2:0:0:
120,152,14532,1,2,2:0:0:0:
97,303,14705,1,8,2:0:0:0:
129,136,14877,2,0,P|177:91|264:96,1,150,2|2,2:0|2:0,2:0:0:0:
257,92,15308,1,2,2:0:0:0:
257,92,15394,1,0,1:0:0:0:
356,303,15567,6,0,L|378:127,1,150,2|2,2:0|2:0,2:0:0:0:
279,206,16084,1,8,2:0:0:0:
457,226,16257,1,2,2:0:0:0:
268,204,16429,6,0,P|230:210|187:222,1,75,0|8,1:0|2:3,2:0:0:0:
45,115,16774,2,0,P|108:102|187:83,1,112.5,4|0,2:3|2:3,2:0:0:0:
185,78,17119,5,4,1:2:0:0:
109,10,17291,1,2,2:0:0:0:
271,56,17463,1,2,2:0:0:0:
163,170,17636,1,2,2:0:0:0:
283,49,17808,6,0,P|297:89|290:126,1,75,2|2,2:0|1:2,2:0:0:0:
164,249,18153,2,0,P|150:209|157:172,1,75,8|8,2:0|2:0,2:0:0:0:
98,310,18498,5,4,1:2:0:0:
239,199,18670,1,2,2:0:0:0:
70,134,18843,1,2,1:2:0:0:
176,263,19015,1,10,2:0:0:0:
176,263,19101,1,8,2:0:0:0:
176,263,19188,2,0,P|186:287|183:311,3,37.5,8|8|0|2,1:2|2:0|1:0|2:0,2:0:0:0:
172,322,19532,2,0,P|133:313|91:310,1,75,2|8,2:0|2:3,2:0:0:0:
239,199,19877,6,0,P|276:195|312:187,1,67.5000000000001,4|2,1:2|2:0,2:0:0:0:
336,214,20136,1,0,2:0:0:0:
336,214,20222,2,0,P|339:251|347:287,1,67.5000000000001,2|2,1:2|2:0,2:0:0:0:
452,140,20567,2,0,P|418:133|385:129,1,67.5000000000001,0|2,1:0|2:0,2:0:0:0:
239,199,20912,2,0,P|276:195|312:187,1,67.5000000000001,0|2,1:0|2:0,2:0:0:0:
277,61,21257,6,0,P|217:44|159:92,1,135,2|0,1:2|1:0,2:0:0:0:
206,166,21774,2,0,P|146:183|88:135,1,135,2|2,2:0|2:0,2:0:0:0:
162,84,22291,1,0,1:0:0:0:
139,218,22636,5,0,1:0:0:0:
162,84,22808,2,0,L|169:44,3,22.5,2|2|2|2,2:0|2:0|2:0|1:2,2:0:0:0:
139,218,23153,2,0,P|188:207|258:269,1,135,2|2,2:0|2:0,2:0:0:0:
166,369,23670,2,0,L|176:285,1,67.5000000000001,2|0,1:2|2:0,2:0:0:0:
309,334,24015,2,0,P|373:333|416:272,1,135,2|0,1:2|1:0,2:0:0:0:
473,200,24532,1,2,2:0:0:0:
473,200,24619,1,0,2:0:0:0:
473,200,24705,2,0,L|394:192,1,67.5000000000001,0|2,1:2|2:0,2:0:0:0:
332,246,25050,1,0,1:0:0:0:
291,30,25394,6,0,P|311:52|296:89,1,67.5000000000001,2|2,1:2|2:0,2:0:0:0:
215,96,25739,2,0,P|194:73|209:36,1,67.5000000000001,2|2,1:2|2:0,2:0:0:0:
167,178,26084,2,0,P|100:183|61:258,1,135,2|0,1:2|1:2,2:0:0:0:
188,337,26601,1,2,2:0:0:0:
188,337,26774,2,0,L|196:202,1,135,2|0,1:2|1:2,2:0:0:0:
10,108,27463,2,0,B|71:137|71:137|150:130,1,135,2|2,1:2|1:2,2:0:0:0:
291,55,28153,6,0,P|310:89|316:128,1,75,8|0,2:0|1:0,2:0:0:0:
309,229,28498,1,2,1:2:0:0:
443,316,28670,2,0,P|436:259|444:195,1,112.5,8|0,2:0|2:0,2:0:0:0:
452,172,29015,1,2,1:2:0:0:
316,125,29188,1,8,2:0:0:0:
305,263,29360,6,0,P|238:279|166:212,1,150,2|0,1:2|1:0,2:0:0:0:
125,92,29877,1,8,2:0:0:0:
228,149,30050,1,0,1:0:0:0:
77,200,30222,1,8,2:0:0:0:
228,149,30567,5,4,2:0:0:0:
116,75,30912,5,4,1:2:0:0:
116,75,31084,1,2,1:2:0:0:
189,22,31257,2,0,P|228:35|268:42,1,75,8|2,2:0|2:0,2:0:0:0:
359,178,31601,2,0,P|311:139|225:150,1,150,2|8,1:2|2:0,2:0:0:0:
218,159,32291,6,0,P|227:195|234:251,1,75,2|0,1:2|1:0,2:0:0:0:
330,337,32636,2,0,P|335:299|344:263,1,75,8|0,2:0|2:0,2:0:0:0:
127,211,32981,2,0,P|136:247|141:285,1,75,2|0,1:2|1:0,2:0:0:0:
226,363,33326,6,0,L|244:230,1,112.5,8|0,2:0|2:0,2:0:0:0:
244,232,33670,1,0,1:2:0:0:
216,93,33843,1,2,1:2:0:0:
362,131,34015,2,0,P|323:140|281:152,1,75,8|2,2:0|2:0,2:0:0:0:
104,196,34360,6,0,B|190:187|162:253|255:229,2,150,2|8|2,1:2|2:0|1:2,2:0:0:0:
45,112,35222,1,0,1:0:0:0:
22,261,35394,1,8,2:0:0:0:
40,98,35567,1,0,2:0:0:0:
185,186,35739,1,2,1:2:0:0:
152,9,35912,1,0,1:0:0:0:
152,9,35998,1,0,1:0:0:0:
152,9,36084,2,0,L|139:92,1,75,8|2,2:0|2:0,2:0:0:0:
95,169,36429,5,0,1:2:0:0:
223,107,36601,1,2,1:2:0:0:
56,27,36774,2,0,P|38:68|42:105,1,75,8|8,2:0|2:0,2:0:0:0:
195,221,37119,6,0,P|263:198|342:198,2,150,2|8|2,1:2|2:0|1:2,2:0:0:0:
153,316,37981,1,0,1:0:0:0:
90,158,38153,2,0,P|100:195|107:239,1,75,8|0,2:0|2:0,2:0:0:0:
241,360,38498,2,0,P|247:323|257:286,1,75,2|0,1:2|1:0,2:0:0:0:
257,286,38757,1,0,1:0:0:0:
257,286,38843,1,8,2:0:0:0:
147,327,39015,1,2,1:2:0:0:
340,362,39188,6,0,P|383:357|422:349,1,75,4|2,1:2|2:0,2:0:0:0:
413,350,39446,1,0,2:0:0:0:
413,350,39532,1,8,2:0:0:0:
493,213,39705,2,0,P|424:201|373:279,1,150,2|2,2:0|2:0,2:0:0:0:
487,317,40222,2,0,L|493:240,1,75,8|0,2:0|2:0,2:0:0:0:
382,122,40567,6,0,P|341:117|300:93,1,75,2|2,1:2|2:0,2:0:0:0:
311,102,40826,1,0,2:0:0:0:
311,102,40912,1,8,2:0:0:0:
472,36,41084,1,2,2:0:0:0:
478,171,41257,2,0,P|469:210|466:253,1,75,2|2,1:2|2:0,2:0:0:0:
353,322,41601,2,0,P|349:284|341:248,1,75,8|0,2:0|2:0,2:0:0:0:
231,108,41946,6,0,B|208:141|208:141|218:198,1,75,4|2,1:2|2:0,2:0:0:0:
214,175,42205,1,0,2:0:0:0:
214,175,42291,1,8,2:0:0:0:
314,157,42463,1,2,2:0:0:0:
250,12,42636,2,0,B|192:21|192:21|163:41|163:41|101:49,1,150,2|8,1:2|2:0,2:0:0:0:
17,205,43326,6,0,P|49:186|86:188,1,75,4|0,1:2|2:0,2:0:0:0:
122,214,43584,1,2,2:0:0:0:
122,214,43670,1,8,2:0:0:0:
61,307,43843,1,2,2:0:0:0:
223,261,44015,2,0,P|246:196|201:129,1,150,2|8,1:2|2:3,2:0:0:0:
205,131,44446,1,4,2:3:0:0:
205,131,44532,1,0,1:0:0:0:
167,329,44705,6,0,P|201:350|242:347,1,82.5,4|0,1:2|2:0,2:0:0:0:
276,205,44963,2,0,P|240:223|223:260,1,82.5,2|0,1:2|2:0,2:0:0:0:
309,290,45222,2,0,L|368:280,1,41.25,2|0,1:2|2:0,2:0:0:0:
479,198,45394,6,0,P|400:195|363:126,1,165,2|0,1:2|1:0,2:0:0:0:
365,117,45826,1,8,2:0:0:0:
367,109,45912,1,0,1:0:0:0:
369,100,45998,1,0,1:0:0:0:
371,92,46084,1,12,1:2:0:0:
256,192,46170,12,0,47291,1:0:0:0:
363,126,47636,5,0,1:0:0:0:
387,218,47808,1,0,1:0:0:0:
454,152,47981,1,0,1:0:0:0:
294,193,48153,5,2,1:2:0:0:
478,243,48326,1,2,1:2:0:0:
430,61,48498,1,8,2:0:0:0:
375,264,48670,1,2,1:2:0:0:
464,152,48843,6,0,P|420:157|377:167,1,75,4|0,1:2|2:0,2:0:0:0:
372,347,49187,2,0,P|385:305|389:259,1,75,8|0,1:2|2:0,2:0:0:0:
264,122,49532,2,0,P|269:159|280:194,1,75,2|0,1:2|2:0,2:0:0:0:
280,194,49791,1,0,2:0:0:0:
280,194,49877,1,8,1:2:0:0:
322,49,50049,1,0,2:0:0:0:
176,101,50222,5,2,1:2:0:0:
332,40,50394,1,0,2:0:0:0:
165,5,50567,1,8,1:2:0:0:
264,122,50739,2,0,P|289:184|276:276,1,150,2|2,2:0|2:0,2:0:0:0:
155,327,51256,1,8,1:2:0:0:
317,379,51429,1,2,2:0:0:0:
201,205,51601,5,0,1:0:0:0:
139,336,51774,1,2,2:0:0:0:
275,282,51946,2,0,B|345:272|320:319|413:292,1,112.5,8|0,1:2|2:0,2:0:0:0:
383,298,52291,1,2,1:2:0:0:
295,153,52463,1,0,2:0:0:0:
474,45,52636,6,0,P|464:101|458:173,1,112.5,8|0,1:2|2:0,2:0:0:0:
458,156,52980,1,4,1:2:0:0:
359,82,53153,1,0,2:0:0:0:
378,216,53325,5,8,1:2:0:0:
354,65,53498,1,2,2:0:0:0:
202,175,53670,5,8,1:2:0:0:
385,238,53843,1,0,2:0:0:0:
241,367,54015,1,8,1:2:0:0:
241,367,54101,1,8,2:0:0:0:
241,367,54187,1,8,2:0:0:0:
241,367,54274,1,8,2:0:0:0:
241,367,54360,6,0,P|182:332|116:341,1,112.5,4|0,1:2|2:0,2:0:0:0:
106,350,54705,2,0,P|100:307|91:258,1,75,8|0,1:2|2:0,2:0:0:0:
220,158,55049,2,0,P|225:200|235:250,1,75,2|0,1:2|2:0,2:0:0:0:
231,232,55308,1,0,2:0:0:0:
231,232,55394,1,8,1:2:0:0:
140,110,55567,1,0,2:0:0:0:
278,91,55739,5,2,1:2:0:0:
128,210,55911,1,0,2:0:0:0:
317,183,56084,1,8,1:2:0:0:
201,40,56256,6,0,P|155:77|63:78,1,150,2|2,2:0|2:0,2:0:0:0:
67,79,56687,1,0,2:0:0:0:
67,79,56774,1,8,1:2:0:0:
224,198,56946,1,0,2:0:0:0:
113,311,57118,6,0,L|138:156,1,150,4|8,1:2|1:2,2:0:0:0:
297,115,57636,1,2,2:0:0:0:
199,28,57808,1,0,1:2:0:0:
226,208,57980,5,8,2:0:0:0:
227,215,58067,1,8,2:0:0:0:
228,222,58153,1,0,1:0:0:0:
229,229,58239,1,8,2:0:0:0:
230,236,58325,2,0,P|303:223|376:221,1,112.5,8|0,2:0|2:0,2:0:0:0:
377,232,58670,5,8,1:2:0:0:
412,75,58843,1,8,1:2:0:0:
412,75,59015,1,0,1:2:0:0:
512,173,59187,2,0,P|471:167|417:157,1,75,8|0,1:2|1:2,2:0:0:0:
304,47,59532,1,2,1:2:0:0:
304,47,59618,1,8,2:0:0:0:
304,47,59705,1,2,1:2:0:0:
304,47,59791,1,2,1:2:0:0:
304,47,59877,5,4,1:2:0:0:
164,87,60049,1,10,2:0:0:0:
268,179,60222,1,2,1:2:0:0:
268,179,60308,1,0,1:0:0:0:
268,179,60394,1,8,2:0:0:0:
148,71,60567,2,0,L|134:163,1,75,2|8,1:2|2:0,2:0:0:0:
279,253,60911,2,0,L|265:161,1,75,0|8,1:0|2:0,2:0:0:0:
70,323,61256,6,0,P|116:334|158:266,1,112.5,2|0,1:2|2:0,2:0:0:0:
168,256,61601,1,2,1:2:0:0:
268,179,61774,2,0,L|280:254,1,75,10|0,2:0|1:0,2:0:0:0:
136,145,62118,2,0,L|147:70,1,75,8|0,2:0|1:0,2:0:0:0:
147,70,62377,1,0,1:0:0:0:
147,70,62463,1,8,2:0:0:0:
266,12,62636,5,0,1:2:0:0:
350,163,62808,1,8,2:0:0:0:
433,80,62980,2,0,L|342:70,1,75,2|8,1:2|2:0,2:0:0:0:
235,175,63325,5,0,1:0:0:0:
396,258,63498,1,8,2:0:0:0:
290,352,63670,2,0,L|280:262,1,75,2|8,1:2|2:0,2:0:0:0:
229,192,64015,5,4,1:2:0:0:
137,314,64187,1,8,2:0:0:0:
215,174,64360,5,2,1:2:0:0:
42,205,64532,1,10,2:0:0:0:
71,44,64705,5,0,1:0:0:0:
136,223,64877,1,8,2:0:0:0:
238,82,65049,1,0,1:0:0:0:
238,82,65136,1,0,1:0:0:0:
238,82,65222,1,8,2:0:0:0:
238,82,65308,1,8,2:0:0:0:
238,82,65394,5,4,1:2:0:0:
389,115,65567,1,8,2:0:0:0:
291,210,65739,1,2,1:2:0:0:
291,210,65825,1,0,1:0:0:0:
291,210,65911,1,8,2:0:0:0:
404,99,66084,2,0,L|416:182,1,75,2|8,1:2|2:0,2:0:0:0:
280,284,66429,2,0,L|292:199,1,75,0|8,1:2|2:0,2:0:0:0:
499,300,66774,6,0,P|477:344|414:367,1,112.5,2|0,1:2|2:0,2:0:0:0:
384,355,67118,1,2,1:2:0:0:
290,209,67291,2,0,L|280:291,1,75,10|0,2:0|1:0,2:0:0:0:
414,173,67636,2,0,L|405:99,1,75,8|0,2:0|1:0,2:0:0:0:
294,24,67980,5,8,2:0:0:0:
294,24,68067,1,0,1:0:0:0:
294,24,68153,2,0,P|241:73|150:77,1,150,4|2,1:2|1:2,2:0:0:0:
34,26,68670,2,0,P|47:63|54:101,1,75,10|8,2:0|1:2,2:0:0:0:
56,105,68929,1,8,2:0:0:0:
57,112,69015,1,8,2:0:0:0:
57,119,69101,1,8,2:0:0:0:
57,126,69187,1,8,2:0:0:0:
113,266,69360,6,0,P|132:219|223:252,1,150,2|8,1:2|2:0,2:0:0:0:
279,298,69877,1,8,2:0:0:0:
216,233,70049,1,0,1:2:0:0:
346,198,70222,6,0,P|346:151|364:101,2,90,10|4|0,2:0|2:3|1:0,2:0:0:0:
428,324,70911,6,0,P|379:262|278:283,1,180,4|0,1:2|1:0,2:0:0:0:
222,329,71601,1,0,1:2:0:0:
222,329,71774,2,0,P|238:263|240:191,1,120,2|2,2:0|2:0,2:0:0:0:
92,134,72291,6,0,B|195:158|158:74|283:106,1,180,0|0,1:0|1:0,2:0:0:0:
403,100,72980,1,0,1:2:0:0:
271,115,73153,1,8,2:3:0:0:
348,6,73325,2,0,P|332:40|339:83,1,60,4|0,2:3|2:0,2:0:0:0:
441,187,73670,6,0,P|348:191|260:221,1,180,2|0,1:2|1:0,2:0:0:0:
266,219,74360,2,0,P|271:254|276:304,1,60,0|8,1:2|2:0,2:0:0:0:
146,333,74705,1,8,2:3:0:0:
146,333,74877,2,0,P|136:265|130:185,1,120,4|2,1:2|2:0,2:0:0:0:
131,213,75308,1,2,2:0:0:0:
131,213,75394,1,2,2:0:0:0:
33,252,75567,1,2,2:0:0:0:
54,154,75739,2,0,P|50:134|42:107,3,30,2|2|2|2,2:0|2:0|2:0|2:0,2:0:0:0:
41,95,76084,6,0,P|99:117|176:109,1,112.5,8|0,2:3|2:0,2:0:0:0:
180,95,76429,1,4,1:2:0:0:
148,238,76601,1,0,2:0:0:0:
293,168,76774,5,8,1:2:0:0:
143,254,76946,1,0,2:0:0:0:
347,298,77118,6,0,P|305:287|255:285,1,75,2|0,1:2|2:0,2:0:0:0:
273,284,77377,1,0,2:0:0:0:
273,284,77463,1,8,1:2:0:0:
419,234,77636,1,0,2:0:0:0:
338,384,77808,5,2,1:2:0:0:
417,222,77980,1,0,2:0:0:0:
509,370,78153,1,8,2:0:0:0:
347,298,78325,2,0,P|321:228|347:149,1,150,10|8,2:0|2:0,2:0:0:0:
340,157,78756,1,8,2:0:0:0:
340,157,78843,1,8,1:2:0:0:
480,136,79015,1,8,2:3:0:0:
382,26,79187,6,0,B|263:4|304:115|162:71,1,225,2|2,1:2|2:0,2:0:0:0:
147,189,79877,1,0,1:0:0:0:
76,37,80049,1,8,2:0:0:0:
76,37,80136,1,8,2:0:0:0:
76,37,80222,1,8,2:0:0:0:
226,112,80394,1,10,2:0:0:0:
52,168,80739,5,8,1:2:0:0:
237,115,80911,1,8,1:2:0:0:
237,115,81084,1,0,2:0:0:0:
156,276,81256,2,0,L|170:358,1,75,8|0,1:2|1:2,2:0:0:0:
168,349,81515,1,0,1:2:0:0:
168,349,81601,2,0,P|226:330|297:338,1,112.5,12|0,2:0|2:0,2:0:0:0:
311,351,81946,6,0,P|364:293|346:222,1,150,4|8,1:2|2:0,2:0:0:0:
240,186,82463,2,0,P|287:201|371:152,1,150,2|2,2:0|2:0,2:0:0:0:
289,103,82980,1,0,1:2:0:0:
139,167,83153,2,0,B|117:268|117:268|145:313,2,150,2|2|2,2:0|2:0|2:0,2:0:0:0:
112,48,84015,2,0,P|149:42|192:64,1,75,2|0,1:2|2:0,2:0:0:0:
320,160,84360,5,8,2:0:0:0:
309,175,84446,1,8,2:3:0:0:
294,186,84532,1,4,2:3:0:0:
276,192,84618,1,0,1:0:0:0:
258,193,84705,5,12,1:2:0:0:
183,56,85049,1,8,1:2:0:0:
258,193,85222,1,10,1:2:0:0:
354,68,85567,1,8,1:2:0:0:
258,193,85911,5,12,1:2:0:0:
183,56,86256,1,8,1:2:0:0:
258,193,86429,1,10,1:2:0:0:
354,68,86774,1,10,1:2:0:0:
266,112,86946,5,2,2:0:0:0:
266,112,87032,1,2,2:0:0:0:
266,112,87118,1,0,1:2:0:0:
