osu file format v14

[General]
AudioFilename: uchuutoseizagadaisukinachuugakuninensei.mp3
AudioLeadIn: 0
PreviewTime: 54144
Countdown: 0
SampleSet: Soft
StackLeniency: 0.7
Mode: 0
LetterboxInBreaks: 0
WidescreenStoryboard: 1

[Editor]
DistanceSpacing: 0.4
BeatDivisor: 4
GridSize: 4
TimelineZoom: 1

[Metadata]
Title:Papepipu*Romantic (TV Size)
TitleUnicode:パペピプ☆ロマンチック (TV Size)
Artist:Yoshitake Chihaya
ArtistUnicode:吉武千颯
Creator:Little
Version:Imagination
Source:スター☆トゥインクルプリキュア
Tags:スタプリ プリキュア Star Twinkle Precure Pretty Cure japanese pop anime ending ED CloudSplash16 Kyle73
BeatmapID:2405474
BeatmapSetID:1152445

[Difficulty]
HPDrainRate:6
CircleSize:3.2
OverallDifficulty:7
ApproachRate:9
SliderMultiplier:2
SliderTickRate:1

[Events]
//Background and Video events
0,0,"imaimaimaimagination.jpg",0,0
Video,-205,"oyo~.mp4"
//Break Periods
//Storyboard Layer 0 (Background)
//Storyboard Layer 1 (Fail)
//Storyboard Layer 2 (Pass)
//Storyboard Layer 3 (Foreground)
//Storyboard Layer 4 (Overlay)
//Storyboard Sound Samples

[TimingPoints]
395,384.615384615385,4,2,2,50,1,0
5010,384.615384615385,4,2,2,60,1,0
5010,-166.666666666667,4,2,2,60,0,0
13279,-200,4,2,2,60,0,0
14241,-100,4,2,2,60,0,0
16548,-200,4,2,2,60,0,0
16837,-200,4,2,2,30,0,0
16933,-50,4,2,2,60,0,0
17318,-83.3333333333333,4,2,1,70,0,0
17991,-83.3333333333333,4,2,1,30,0,0
18087,-83.3333333333333,4,2,1,70,0,0
19721,-83.3333333333333,4,2,1,30,0,0
19818,-83.3333333333333,4,2,1,70,0,0
22895,-125,4,2,1,70,0,0
23471,-100,4,2,1,60,0,0
23856,-83.3333333333333,4,2,1,60,0,0
24145,-83.3333333333333,4,2,1,30,0,0
24241,-100,4,2,1,60,0,0
25395,-83.3333333333333,4,2,1,60,0,0
25683,-83.3333333333333,4,2,1,30,0,0
25779,-83.3333333333333,4,2,1,60,0,0
26548,-125,4,2,1,60,0,0
26933,-83.3333333333333,4,2,1,60,0,0
27221,-83.3333333333333,4,2,1,30,0,0
27318,-125,4,2,1,60,0,0
29625,-100,4,2,1,60,0,0
30010,-83.3333333333333,4,2,1,60,0,0
30298,-83.3333333333333,4,2,1,30,0,0
30395,-100,4,2,1,60,0,0
31548,-83.3333333333333,4,2,1,60,0,0
31837,-83.3333333333333,4,2,1,30,0,0
31933,-100,4,2,1,60,0,0
32702,-125,4,2,1,60,0,0
33087,-83.3333333333333,4,2,1,60,0,0
33375,-83.3333333333333,4,2,1,30,0,0
33471,-125,4,2,1,60,0,0
35779,-125,4,2,1,65,0,0
51260,-125,4,2,1,55,0,0
51933,-125,4,2,1,60,0,0
52895,-125,4,2,1,65,0,0
53856,-125,4,2,2,70,0,0
54240,-100,4,2,1,70,0,1
62798,-100,4,2,1,35,0,1
62895,-100,4,2,1,70,0,1
63471,-83.3333333333333,4,2,1,70,0,1
63760,-83.3333333333333,4,2,1,35,0,1
63856,-83.3333333333333,4,2,1,70,0,1
65875,-83.3333333333333,4,2,1,35,0,1
65971,-83.3333333333333,4,2,1,70,0,1
66548,-100,4,2,1,70,0,1
75106,-100,4,2,1,35,0,1
75202,-100,4,2,1,70,0,1
75779,384.615384615385,4,2,1,70,1,1
81548,-100,4,2,2,70,0,1
81932,-100,4,2,1,70,0,0
88856,-100,4,2,1,50,0,0

[Colours]
Combo1 : 15,176,221
Combo2 : 234,97,133
Combo3 : 73,188,189
Combo4 : 242,143,0
Combo5 : 157,120,180

[HitObjects]
256,160,1741,6,0,L|262:209,1,50,0|0,0:0|0:0,0:0:0:0:
360,235,1933,6,0,P|385:193|388:144,1,100,2|0,0:0|0:0,0:0:0:0:
151,84,2318,2,0,P|126:126|123:175,1,100,0|0,0:0|0:0,0:0:0:0:
388,144,2702,6,0,L|374:44,1,100,2|0,0:0|0:0,0:0:0:0:
124,176,3087,2,0,L|137:275,1,100,0|0,0:0|0:0,0:0:0:0:
388,144,3471,5,2,0:0:0:0:
124,176,3664,1,0,0:0:0:0:
318,209,3856,5,2,0:0:0:0:
193,110,4049,1,0,0:0:0:0:
230,218,4241,5,2,0:0:0:0:
281,101,4433,2,0,L|276:67,3,33.3333333333333,0|0|0|0,3:0|3:0|3:0|3:0,0:0:0:0:
281,101,5010,5,4,0:0:0:0:
334,128,5202,1,0,0:0:0:0:
390,109,5395,1,0,0:0:0:0:
416,55,5587,1,0,0:0:0:0:
281,101,5779,5,0,0:0:0:0:
313,150,5971,1,0,0:0:0:0:
371,162,6164,1,0,0:0:0:0:
420,128,6356,1,4,3:0:0:0:
281,101,6548,5,4,0:0:0:0:
300,239,6740,2,0,L|308:299,1,59.9999981689454,8|0,0:3|0:0,0:0:0:0:
281,101,7125,2,0,L|272:41,1,59.9999981689454,8|0,0:3|0:0,0:0:0:0:
201,182,7510,2,0,L|221:180,3,19.9999993896485,0|0|0|8,3:0|3:0|3:0|3:0,0:0:0:0:
201,182,8087,5,4,0:0:0:0:
148,209,8279,1,0,0:0:0:0:
92,190,8472,1,0,0:0:0:0:
66,136,8664,1,0,0:0:0:0:
201,182,8856,5,0,0:0:0:0:
169,231,9048,1,0,0:0:0:0:
111,243,9241,1,4,3:0:0:0:
62,209,9433,1,0,0:0:0:0:
201,182,9625,5,4,0:0:0:0:
154,315,9818,1,8,0:3:0:0:
154,315,9914,1,0,0:0:0:0:
154,315,10010,1,0,0:0:0:0:
62,209,10202,1,8,0:3:0:0:
244,272,10587,2,0,L|263:269,3,19.9999993896485,0|0|0|8,3:0|3:0|3:0|3:0,0:0:0:0:
392,192,10971,2,0,L|372:189,2,19.9999993896485,8|8|8,0:0|0:0|0:0,0:0:0:0:
392,192,11164,6,0,L|375:73,1,119.999996337891,4|0,0:0|0:0,0:0:0:0:
201,182,11933,2,0,L|217:300,1,119.999996337891,4|0,0:0|0:0,0:0:0:0:
392,192,12702,6,0,L|332:183,1,59.9999981689454,4|0,0:0|0:0,0:0:0:0:
124,156,13087,1,8,0:3:0:0:
224,44,13279,2,0,B|248:20|248:20|232:135,1,149.999995422363,4|0,0:0|0:0,0:0:0:0:
205,316,14241,5,4,0:3:0:0:
332,183,14433,2,0,B|337:222|337:222|347:237|347:237|353:279,1,100,4|0,0:3|0:0,0:0:0:0:
353,279,14818,5,4,0:3:0:0:
124,156,15010,2,0,B|118:195|118:195|108:210|108:210|102:252,1,100,4|0,0:3|0:0,0:0:0:0:
102,252,15395,5,4,0:3:0:0:
404,88,15587,2,0,B|409:127|409:127|419:142|419:142|425:184,1,100,4|0,0:3|0:0,0:0:0:0:
425,184,15971,5,4,0:3:0:0:
274,170,16164,1,4,0:3:0:0:
124,156,16356,1,4,0:3:0:0:
124,156,16548,2,0,L|113:81,1,75,4|0,0:3|0:0,0:0:0:0:
83,64,16933,2,0,P|23:139|54:230,1,200,8|0,0:1|0:0,0:0:0:0:
363,264,17318,6,0,P|389:211|381:152,1,119.999996337891,4|0,0:0|0:0,0:0:0:0:
124,156,17702,2,0,B|183:164|183:164|212:184|212:184|296:196,1,179.999994506836,8|0,0:0|0:0,0:0:0:0:
296,196,18087,1,4,0:3:0:0:
172,64,18279,1,4,0:3:0:0:
144,256,18471,2,0,L|127:374,1,119.999996337891,8|0,0:0|0:0,0:0:0:0:
20,196,18856,5,4,0:3:0:0:
212,168,19048,2,0,L|330:151,1,119.999996337891,0|8,0:0|0:0,0:0:0:0:
340,344,19433,2,0,P|254:360|183:309,1,179.999994506836,0|0,0:0|0:0,0:0:0:0:
183,309,19818,1,8,0:0:0:0:
456,224,20010,1,8,0:0:0:0:
456,224,20395,5,4,0:3:0:0:
212,168,20587,1,0,0:0:0:0:
336,272,20779,1,8,0:0:0:0:
369,125,20971,1,0,0:0:0:0:
176,272,21164,5,4,0:3:0:0:
143,125,21356,1,4,0:3:0:0:
300,168,21548,1,8,0:0:0:0:
56,224,21740,1,4,0:3:0:0:
300,168,22125,5,8,0:0:0:0:
143,125,22317,1,8,0:0:0:0:
300,168,22510,1,8,0:0:0:0:
143,125,22702,1,8,0:0:0:0:
143,125,22895,6,0,L|131:45,2,80,0|2|0,0:0|0:0|0:0,0:0:0:0:
376,244,23471,6,0,P|401:202|404:153,1,100,4|0,0:3|0:0,0:0:0:0:
176,136,23856,2,0,B|184:195|184:195|204:224|204:224|216:308,1,179.999994506836,8|0,0:1|0:0,0:0:0:0:
216,308,24241,1,4,0:3:0:0:
376,244,24433,1,4,0:3:0:0:
216,308,24625,2,0,L|116:294,1,100,8|0,0:1|0:0,0:0:0:0:
43,138,25010,6,0,L|143:125,1,100,4|0,0:3|0:0,0:0:0:0:
376,244,25395,2,0,B|384:185|384:185|404:156|404:156|416:72,1,179.999994506836,8|0,0:1|0:0,0:0:0:0:
416,72,25780,1,4,0:3:0:0:
176,136,25971,1,4,0:3:0:0:
376,244,26164,1,8,0:1:0:0:
136,308,26355,1,4,0:3:0:0:
136,308,26452,1,4,0:3:0:0:
136,308,26548,6,0,L|56:296,1,80,4|0,0:3|0:0,0:0:0:0:
312,336,26933,2,0,P|350:272|275:268,1,179.999994506836,8|0,0:1|0:0,0:0:0:0:
274,268,27318,1,4,0:3:0:0:
450,296,27510,1,4,0:3:0:0:
274,268,27702,1,8,0:1:0:0:
274,268,28087,5,4,0:3:0:0:
442,218,28279,2,0,P|454:256|450:296,1,80,0|8,0:0|0:1,0:0:0:0:
274,268,28664,2,0,P|262:230|266:190,1,80,0|4,0:0|0:3,0:0:0:0:
412,120,29048,1,8,0:0:0:0:
304,366,29241,1,8,0:0:0:0:
304,366,29625,6,0,L|204:353,1,100,4|0,0:3|0:0,0:0:0:0:
108,212,30010,2,0,P|172:153|257:170,1,179.999994506836,8|0,0:1|0:0,0:0:0:0:
257,170,30395,1,4,0:3:0:0:
396,72,30587,1,4,0:3:0:0:
257,170,30779,2,0,L|271:270,1,100,8|0,0:1|0:0,0:0:0:0:
496,272,31164,6,0,L|510:172,1,100,4|0,0:3|0:0,0:0:0:0:
257,170,31548,2,0,P|321:228|406:211,1,179.999994506836,8|0,0:1|0:0,0:0:0:0:
406,211,31933,1,4,0:3:0:0:
148,140,32125,1,4,0:3:0:0:
298,101,32318,1,8,0:1:0:0:
256,256,32510,1,4,0:3:0:0:
256,256,32606,1,4,0:3:0:0:
256,256,32702,6,0,L|234:332,1,80,4|0,0:3|0:0,0:0:0:0:
124,172,33087,2,0,B|212:208|212:136|300:172,1,179.999994506836,8|0,0:1|0:0,0:0:0:0:
298,171,33471,1,4,0:3:0:0:
452,80,33664,1,4,0:3:0:0:
298,171,33856,1,8,0:1:0:0:
298,171,34241,5,4,0:3:0:0:
428,264,34433,2,0,L|507:252,1,80,0|8,3:0|0:1,0:0:0:0:
452,80,34818,2,0,L|372:91,1,80,4|0,0:3|0:0,0:0:0:0:
256,256,35202,1,8,0:0:0:0:
112,128,35395,1,8,0:0:0:0:
452,80,35779,6,0,P|488:148|460:220,1,160,4|0,0:0|3:0,0:0:0:0:
356,284,36356,1,4,0:3:0:0:
356,284,36548,1,4,0:3:0:0:
149,194,36741,2,0,L|175:190,3,26.6666666666667,0|0|0|8,3:0|3:0|3:0|3:0,0:0:0:0:
393,154,37125,1,0,0:0:0:0:
252,36,37318,6,0,B|260:92|260:92|275:110|275:110|286:189,1,160,4|0,0:3|3:0,0:0:0:0:
302,307,37895,1,4,0:3:0:0:
302,307,38087,1,0,0:0:0:0:
128,248,38279,2,0,L|124:274,3,26.6666666666667,4|0|0|0,0:3|3:0|3:0|3:0,0:0:0:0:
286,189,38664,1,0,0:0:0:0:
76,100,38856,6,0,P|151:117|214:71,1,160,4|0,0:3|3:0,0:0:0:0:
393,154,39433,1,4,0:3:0:0:
393,154,39625,2,0,L|404:233,1,80,4|0,0:3|3:0,0:0:0:0:
260,292,40010,2,0,L|248:212,1,80,8|0,3:0|0:0,0:0:0:0:
404,233,40395,5,4,0:3:0:0:
224,188,40587,1,0,0:0:0:0:
352,54,40779,1,0,3:0:0:0:
404,233,40971,1,4,0:3:0:0:
283,117,41164,5,4,0:3:0:0:
311,213,41356,1,0,3:0:0:0:
381,140,41548,1,8,0:3:0:0:
283,117,41741,1,4,0:3:0:0:
404,232,41933,6,0,P|465:185|471:107,1,160,4|8,0:0|0:1,0:0:0:0:
283,117,42510,1,0,0:0:0:0:
305,273,42702,2,0,L|316:352,1,80,4|4,0:3|0:3,0:0:0:0:
156,300,43087,2,0,L|145:221,1,80,8|0,0:1|0:0,0:0:0:0:
283,117,43471,6,0,L|294:38,1,80,4|0,0:3|0:0,0:0:0:0:
144,220,43856,1,8,0:1:0:0:
300,308,44048,1,0,3:0:0:0:
300,308,44145,1,0,3:0:0:0:
300,308,44241,2,0,P|339:314|376:302,1,80,4|4,0:3|0:3,0:0:0:0:
384,136,44625,2,0,P|344:129|307:141,1,80,8|0,0:1|3:0,0:0:0:0:
176,240,45010,6,0,L|165:319,1,80,4|0,0:3|0:0,0:0:0:0:
44,168,45395,2,0,L|55:89,1,80,8|0,0:1|0:0,0:0:0:0:
176,240,45779,1,4,0:3:0:0:
240,104,45971,1,4,0:3:0:0:
44,168,46164,1,8,0:1:0:0:
44,168,46548,6,0,P|81:179|120:173,1,80,4|0,0:3|0:0,0:0:0:0:
316,109,46933,2,0,P|279:97|240:104,1,80,8|0,0:1|3:0,0:0:0:0:
144,272,47318,1,4,0:3:0:0:
274,181,47510,1,4,0:3:0:0:
248,364,47702,1,8,0:1:0:0:
152,156,47895,1,4,0:3:0:0:
152,156,47991,1,4,0:3:0:0:
152,156,48087,5,4,0:3:0:0:
152,156,48664,5,4,0:3:0:0:
380,228,48856,1,4,0:3:0:0:
380,228,49433,5,4,0:3:0:0:
411,223,49818,1,4,0:3:0:0:
442,218,50202,1,4,0:3:0:0:
376,364,50395,2,0,P|337:371|299:359,1,80,4|0,0:3|0:0,0:0:0:0:
192,240,50779,2,0,L|188:213,3,26.6666666666667,0|0|0|0,3:0|3:0|3:0|3:0,0:0:0:0:
348,112,51164,5,4,3:2:0:0:
348,136,51260,1,0,3:0:0:0:
327,148,51356,1,0,3:0:0:0:
305,136,51452,1,0,3:0:0:0:
302,109,51548,1,4,3:2:0:0:
323,88,51645,1,0,3:0:0:0:
354,89,51741,1,0,3:0:0:0:
377,113,51837,1,0,3:0:0:0:
378,148,51933,1,4,3:2:0:0:
357,176,52029,1,0,3:0:0:0:
323,187,52125,1,0,3:0:0:0:
287,176,52221,1,0,3:0:0:0:
260,148,52318,1,4,3:2:0:0:
249,107,52414,1,0,3:0:0:0:
257,64,52510,2,0,L|262:24,1,40,4|0,3:2|3:0,0:0:0:0:
442,218,52895,5,4,0:3:0:0:
256,312,53087,1,4,0:3:0:0:
442,218,53279,1,4,0:3:0:0:
256,312,53471,1,4,0:3:0:0:
36,164,53856,1,8,0:1:0:0:
36,164,54241,5,4,0:0:0:0:
128,88,54433,1,0,0:0:0:0:
199,267,54625,1,8,0:0:0:0:
80,275,54818,1,0,0:0:0:0:
128,88,55010,1,4,0:3:0:0:
228,152,55202,1,4,0:3:0:0:
80,275,55395,1,8,0:0:0:0:
37,165,55587,1,0,0:0:0:0:
199,267,55779,5,4,0:3:0:0:
316,196,55971,2,0,P|326:147|312:99,1,100,0|8,0:0|0:0,0:0:0:0:
76,178,56356,2,0,P|66:227|80:275,1,100,0|4,0:0|0:3,0:0:0:0:
224,360,56741,1,8,0:0:0:0:
448,248,56933,1,8,0:0:0:0:
448,248,57318,5,4,0:3:0:0:
378,150,57510,1,0,0:0:0:0:
263,305,57702,1,8,0:0:0:0:
376,343,57895,1,0,0:0:0:0:
378,150,58087,1,4,0:3:0:0:
265,186,58279,1,4,0:3:0:0:
376,343,58472,1,8,0:0:0:0:
446,248,58664,1,0,0:0:0:0:
263,305,58856,5,4,0:3:0:0:
81,242,59048,1,0,0:0:0:0:
265,186,59241,1,8,0:0:0:0:
148,339,59433,1,4,0:3:0:0:
153,148,59818,1,8,0:0:0:0:
153,148,60010,1,8,0:0:0:0:
446,248,60395,6,0,P|463:201|457:152,1,100,4|0,0:0|0:0,0:0:0:0:
278,224,60779,1,8,0:0:0:0:
446,248,60971,1,0,0:0:0:0:
278,224,61164,2,0,P|260:270|266:318,1,100,4|4,0:3|0:3,0:0:0:0:
446,248,61548,1,8,0:0:0:0:
414,209,61644,1,0,0:0:0:0:
368,191,61740,1,0,0:0:0:0:
319,196,61836,1,0,0:0:0:0:
278,224,61932,5,4,0:3:0:0:
446,248,62125,2,0,P|463:201|457:152,1,100,0|8,0:0|0:0,0:0:0:0:
276,60,62510,2,0,B|267:119|267:119|257:134|257:134|247:205,1,150,4|0,0:3|0:0,0:0:0:0:
247,205,62895,1,8,0:0:0:0:
72,152,63087,1,8,0:0:0:0:
128,344,63279,1,0,0:0:0:0:
128,344,63471,6,0,P|199:292|285:308,1,179.999994506836,4|0,0:3|0:0,0:0:0:0:
285,308,63856,1,8,0:0:0:0:
448,176,64048,2,0,P|394:202|336:194,1,119.999996337891,0|4,0:0|0:3,0:0:0:0:
180,100,64433,1,4,0:3:0:0:
372,44,64625,1,8,0:0:0:0:
285,308,64818,5,4,0:0:0:0:
285,308,65202,1,4,0:0:0:0:
112,252,65395,1,4,0:3:0:0:
248,134,65587,2,0,B|256:194|256:194|271:212|271:212|285:308,1,179.999994506836,4|0,0:0|0:0,0:0:0:0:
285,308,65971,1,8,0:3:0:0:
438,190,66164,1,8,0:3:0:0:
438,190,66356,6,0,L|433:219,4,29.9999990844727,0|0|0|0|4,3:0|0:0|0:0|0:0|0:0,0:0:0:0:
352,106,66740,1,0,0:0:0:0:
266,278,66932,1,8,0:0:0:0:
384,296,67125,1,0,0:0:0:0:
352,106,67317,1,4,0:3:0:0:
247,161,67509,1,4,0:3:0:0:
384,296,67702,1,8,0:0:0:0:
436,190,67894,1,0,0:0:0:0:
266,278,68086,5,4,0:3:0:0:
156,197,68278,2,0,P|150:147|168:100,1,100,0|8,0:0|0:0,0:0:0:0:
396,200,68663,2,0,P|401:249|383:296,1,100,4|0,0:3|0:0,0:0:0:0:
233,368,69048,1,8,0:0:0:0:
20,237,69240,1,8,0:0:0:0:
20,237,69625,5,4,0:3:0:0:
81,133,69817,1,0,0:0:0:0:
209,277,70009,1,8,0:0:0:0:
100,325,70202,1,0,0:0:0:0:
81,133,70394,1,4,0:3:0:0:
196,159,70586,1,4,0:3:0:0:
100,325,70779,1,8,0:0:0:0:
21,236,70971,1,0,0:0:0:0:
209,277,71163,5,4,0:3:0:0:
385,199,71355,1,0,0:0:0:0:
196,159,71548,1,8,0:0:0:0:
326,301,71740,1,4,0:3:0:0:
305,111,72125,1,8,0:0:0:0:
305,111,72317,1,8,0:0:0:0:
109,263,72702,6,0,L|209:277,1,100,4|0,0:0|0:0,0:0:0:0:
305,111,73087,2,0,L|205:97,1,100,8|0,0:0|0:0,0:0:0:0:
109,263,73471,1,4,0:3:0:0:
305,111,73664,1,4,0:3:0:0:
228,304,73856,1,8,0:0:0:0:
186,70,74048,1,0,0:0:0:0:
384,169,74241,6,0,P|401:122|395:73,1,100,4|0,0:3|0:0,0:0:0:0:
180,180,74625,1,8,0:0:0:0:
326,301,74818,2,0,L|474:280,1,150,4|0,0:3|0:0,0:0:0:0:
474,280,75202,1,8,0:0:0:0:
180,180,75395,1,8,0:0:0:0:
395,73,75587,1,0,3:0:0:0:
395,73,75683,1,0,3:0:0:0:
395,73,75779,5,4,0:3:0:0:
326,301,75971,1,4,0:3:0:0:
248,74,76356,5,4,0:3:0:0:
443,213,76549,1,8,1:3:0:0:
205,216,76933,5,4,0:3:0:0:
395,73,77125,1,4,0:3:0:0:
205,316,77510,5,4,0:3:0:0:
51,271,77702,1,4,0:3:0:0:
205,216,77895,1,4,0:3:0:0:
112,350,78087,1,4,0:3:0:0:
108,188,78471,1,4,0:3:0:0:
373,297,78856,5,4,0:3:0:0:
221,53,79048,2,0,L|229:85,3,33.3333333333333,8|0|0|0,3:0|3:0|3:0|3:0,0:0:0:0:
202,341,79433,5,4,0:3:0:0:
385,118,79625,2,0,L|356:135,3,33.3333333333333,8|0|0|0,3:0|3:0|3:0|3:0,0:0:0:0:
108,188,80010,5,4,0:3:0:0:
373,297,80202,2,0,L|347:275,3,33.3333333333333,8|0|0|0,3:0|3:0|3:0|3:0,0:0:0:0:
185,98,80587,5,4,0:3:0:0:
171,287,80779,1,4,0:3:0:0:
296,136,80972,1,4,0:3:0:0:
108,188,81164,1,4,0:3:0:0:
289,258,81548,1,8,0:1:0:0:
289,258,81933,6,0,L|388:244,1,100,4|0,0:0|0:0,0:0:0:0:
468,96,82318,2,0,L|368:82,1,100,8|0,0:0|0:0,0:0:0:0:
280,292,82702,2,0,L|379:278,1,100,4|0,0:3|0:0,0:0:0:0:
459,130,83087,2,0,L|359:116,1,100,8|0,0:0|0:0,0:0:0:0:
120,156,83471,5,4,0:3:0:0:
225,31,83664,2,0,L|239:131,1,100,0|8,0:0|0:0,0:0:0:0:
445,229,84048,2,0,L|459:130,1,100,0|4,0:0|0:3,0:0:0:0:
239,131,84433,1,0,3:0:0:0:
239,131,84529,1,0,3:0:0:0:
239,131,84625,1,8,0:0:0:0:
445,229,84818,1,0,3:0:0:0:
445,229,84914,1,0,3:0:0:0:
445,229,85010,5,4,0:3:0:0:
201,285,85202,1,0,0:0:0:0:
325,181,85394,1,8,0:0:0:0:
358,328,85586,1,0,0:0:0:0:
165,181,85779,5,4,0:3:0:0:
132,328,85971,1,0,0:0:0:0:
289,285,86163,1,8,0:0:0:0:
45,229,86355,1,4,0:3:0:0:
381,84,86741,5,8,0:3:0:0:
445,229,86933,1,8,0:3:0:0:
303,148,87126,1,8,0:3:0:0:
466,132,87318,1,8,0:3:0:0:
345,240,87702,1,4,0:3:0:0:
152,152,87895,6,0,B|111:190|111:190|57:203|57:203|80:253|80:253|76:309|76:309|131:302|131:302|184:326|184:326|194:269|194:269|230:227|230:227|180:200,1,500,4|0,0:0|0:0,0:0:0:0:
