osu file format v14

[General]
AudioFilename: audio.mp3
AudioLeadIn: 0
PreviewTime: 37195
Countdown: 0
SampleSet: Soft
StackLeniency: 0.7
Mode: 0
LetterboxInBreaks: 0
WidescreenStoryboard: 1

[Editor]
DistanceSpacing: 0.9
BeatDivisor: 4
GridSize: 16
TimelineZoom: 2.2

[Metadata]
Title:DEKOBOKO (TV Size)
TitleUnicode:凸凹 (TV Size)
Artist:Yoshioka Kiyoe
ArtistUnicode:吉岡聖恵
Creator:Zekk
Version:Insane
Source:カッコウの許嫁
Tags:kakkou no iinazuke A Couple of Cuckoos cuckoo's fiancee unevenness ikimonogakari ikimono gakari haruko nagaya ryokuoushoku shakai japanese pop jpop j-pop anime opening op
BeatmapID:3618575
BeatmapSetID:1767814

[Difficulty]
HPDrainRate:5
CircleSize:4
OverallDifficulty:8
ApproachRate:8.3
SliderMultiplier:1.6
SliderTickRate:1

[Events]
//Background and Video events
Video,0,"Yoshioka Kiyoe - DEKOBOKO.mp4"
0,0,"aakki malding.jpg",0,0
//Break Periods
//Storyboard Layer 0 (Background)
//Storyboard Layer 1 (Fail)
//Storyboard Layer 2 (Pass)
//Storyboard Layer 3 (Foreground)
//Storyboard Layer 4 (Overlay)
//Storyboard Sound Samples

[TimingPoints]
5630,329.67032967033,4,2,31,65,1,0
5630,-111.111111111111,4,2,31,65,0,0
13542,-142.857142857143,4,2,31,65,0,0
15520,-111.111111111111,4,2,31,65,0,0
16179,-111.111111111111,4,2,31,60,0,0
26728,-125,4,2,31,55,0,0
32003,-111.111111111111,4,2,31,65,0,0
34640,-111.111111111111,4,2,31,65,0,0
37278,-100,4,2,31,80,0,1
37608,-100,4,2,32,80,0,1
37772,-100,4,2,31,80,0,1
38926,-100,4,2,32,80,0,1
39090,-100,4,2,31,80,0,1
41728,-100,4,2,32,80,0,1
41892,-100,4,2,31,80,0,1
42058,-100,4,2,32,80,0,1
42222,-100,4,2,31,80,0,1
45520,-100,4,2,32,80,0,1
46179,-100,4,2,31,80,0,1
46509,-100,4,2,31,80,0,0
47003,-83.3333333333333,4,2,31,80,0,0
47498,-100,4,2,31,80,0,0
47827,-100,4,2,31,80,0,1
57058,-100,4,2,34,80,0,1
57882,-100,4,2,32,80,0,1
58377,-100,4,2,31,80,0,1
66289,-100,4,2,34,80,0,1
68102,-100,4,2,31,80,0,1
74201,-100,4,2,31,70,0,0
76014,-111.111111111111,4,2,32,70,0,0
76178,-111.111111111111,4,2,31,70,0,0
76838,-111.111111111111,4,2,31,65,0,0
81289,-111.111111111111,4,2,32,65,0,0
81453,-111.111111111111,4,2,31,65,0,0
89119,-111.111111111111,4,2,31,5,0,0

[Colours]
Combo1 : 250,180,240
Combo2 : 120,200,230
Combo3 : 255,230,130
Combo4 : 160,230,150

[HitObjects]
485,110,5630,6,0,P|445:117|383:127,1,71.9999978027344,12|0,0:1|0:0,0:0:0:0:
223,166,5959,2,0,P|263:173|326:183,1,71.9999978027344,8|0,0:0|0:0,0:0:0:0:
404,227,6289,1,8,0:0:0:0:
325,82,6454,1,8,0:0:0:0:
66,100,8267,6,0,P|76:62|87:6,1,71.9999978027344,12|0,0:1|0:0,0:0:0:0:
206,182,8597,2,0,P|216:220|227:276,1,71.9999978027344,8|0,0:0|0:0,0:0:0:0:
87,192,8926,1,8,0:0:0:0:
223,87,9091,1,8,0:0:0:0:
376,239,10904,6,0,P|416:253|472:270,1,71.9999978027344,12|0,0:1|0:0,0:0:0:0:
243,320,11234,2,0,P|203:334|147:351,1,71.9999978027344,8|0,0:0|0:0,0:0:0:0:
250,118,11564,1,8,0:0:0:0:
300,262,11728,1,8,0:0:0:0:
44,152,13377,5,2,0:0:0:0:
44,152,13459,1,2,0:0:0:0:
44,152,13542,2,0,B|148:150|216:232|216:232|301:227|311:123,1,335.999989746094,2|0,0:1|0:0,0:0:0:0:
308,143,14860,1,2,0:0:0:0:
308,143,15190,1,2,0:0:0:0:
320,154,15520,5,2,0:2:0:0:
320,154,15684,1,0,3:2:0:0:
283,264,15849,2,0,P|246:263|200:255,1,71.9999978027344,8|0,0:2|0:0,0:0:0:0:
86,346,16179,6,0,P|44:284|66:194,1,143.999995605469,6|10,3:2|0:2,0:0:0:0:
154,173,16673,1,0,3:2:0:0:
74,113,16838,2,0,P|67:78|61:31,1,71.9999978027344,2|0,3:2|3:2,0:0:0:0:
269,30,17168,6,0,P|260:80|228:194,1,143.999995605469,10|0,0:2|3:2,0:0:0:0:
360,102,17662,1,0,0:0:0:0:
438,181,17827,2,0,P|483:179|540:167,1,71.9999978027344,8|0,0:2|3:2,0:0:0:0:
364,268,18157,1,2,3:2:0:0:
317,187,18322,1,2,3:2:0:0:
451,259,18487,2,0,P|444:294|424:352,1,71.9999978027344,10|0,0:2|0:0,0:0:0:0:
270,384,18816,6,0,P|259:349|252:314,1,71.9999978027344,2|0,3:2|0:0,0:0:0:0:
164,228,19146,1,8,0:2:0:0:
287,171,19311,1,0,3:2:0:0:
176,142,19476,2,0,P|136:134|83:119,1,71.9999978027344,2|0,3:2|3:2,0:0:0:0:
301,253,19805,6,0,P|373:242|466:223,1,143.999995605469,10|0,0:2|0:2,0:0:0:0:
480,114,20300,1,0,3:2:0:0:
374,65,20465,2,0,P|383:113|397:158,1,71.9999978027344,8|0,0:2|0:2,0:0:0:0:
193,62,20794,1,2,3:2:0:0:
304,11,20959,1,2,3:2:0:0:
294,166,21124,2,0,P|259:156|225:144,1,71.9999978027344,10|8,0:2|3:0,0:0:0:0:
225,144,21371,1,4,3:0:0:0:
225,144,21454,6,0,P|167:156|56:172,1,143.999995605469,6|10,3:1|0:2,0:0:0:0:
168,237,21948,1,0,0:2:0:0:
61,319,22113,1,2,3:2:0:0:
1,248,22278,1,2,3:2:0:0:
147,312,22443,2,0,P|143:344|130:396,1,71.9999978027344,10|0,0:2|0:2,0:0:0:0:
262,283,22772,6,0,B|309:298|344:323|344:323|381:307|412:304,1,143.999995605469,2|10,3:2|0:2,0:0:0:0:
512,245,23267,2,0,P|477:236|426:228,1,71.9999978027344,2|2,3:2|3:2,0:0:0:0:
284,177,23597,2,0,P|319:170|354:161,1,71.9999978027344,2|8,3:2|0:2,0:0:0:0:
450,113,23926,1,0,0:2:0:0:
354,15,24091,6,0,P|362:53|376:108,1,71.9999978027344,2|0,3:2|0:0,0:0:0:0:
228,203,24421,2,0,P|235:167|243:132,1,71.9999978027344,10|0,0:2|3:2,0:0:0:0:
315,240,24750,1,2,3:2:0:0:
228,297,24915,1,0,3:2:0:0:
128,241,25080,2,0,P|92:230|35:220,1,71.9999978027344,8|2,0:2|0:2,0:0:0:0:
300,362,25410,6,0,P|336:351|393:341,1,71.9999978027344,4|0,3:2|3:2,0:0:0:0:
454,277,25739,1,8,0:2:0:0:
395,194,25904,1,0,0:2:0:0:
324,258,26069,1,2,3:0:0:0:
475,293,26234,1,10,0:2:0:0:
467,123,26399,1,10,0:2:0:0:
403,230,26564,1,10,0:2:0:0:
311,148,26728,6,0,B|267:139|225:172|225:172|195:140|172:141,1,128,4|2,3:1|3:2,0:0:0:0:
125,115,27223,1,0,0:0:0:0:
64,163,27388,2,0,P|33:170|1:175,1,64,8|0,0:2|0:2,0:0:0:0:
63,30,27717,6,0,P|135:30|213:60,1,128,6|2,3:2|0:2,0:0:0:0:
308,22,28212,2,0,P|296:60|280:101,1,64,8|2,0:2|3:2,0:0:0:0:
215,146,28542,1,2,0:2:0:0:
310,175,28706,2,0,P|351:171|395:162,1,64,8|0,0:2|0:0,0:0:0:0:
437,238,29036,2,0,P|468:243|500:245,1,64,2|0,0:2|0:0,0:0:0:0:
388,330,29366,5,0,3:2:0:0:
313,283,29531,2,0,P|245:279|192:337,1,128,8|2,0:2|0:2,0:0:0:0:
102,379,30025,2,0,P|92:342|95:297,1,64,10|2,0:2|0:2,0:0:0:0:
0,196,30355,6,0,B|47:181|47:181|78:210|126:213,1,128,6|2,3:2|0:2,0:0:0:0:
178,149,30849,1,8,0:2:0:0:
269,183,31014,2,0,P|308:197|343:206,1,64,2|2,3:2|0:2,0:0:0:0:
447,129,31344,1,8,0:2:0:0:
365,55,31509,1,2,0:2:0:0:
365,55,31673,1,0,3:2:0:0:
445,26,31838,1,0,3:2:0:0:
354,133,32003,1,12,0:1:0:0:
354,133,32333,6,0,P|360:171|369:213,1,71.9999978027344,2|0,3:2|0:2,0:0:0:0:
260,357,32662,2,0,P|265:321|272:286,1,71.9999978027344,2|0,3:2|3:2,0:0:0:0:
114,177,32992,1,2,3:2:0:0:
163,286,33157,1,0,3:2:0:0:
235,157,33322,5,10,0:2:0:0:
96,175,33487,1,8,0:2:0:0:
261,227,33651,1,8,0:2:0:0:
78,254,33816,2,0,P|42:260|2:263,1,71.9999978027344,10|8,0:2|0:2,0:0:0:0:
214,143,34146,2,0,P|250:149|290:152,1,71.9999978027344,8|10,0:2|0:2,0:0:0:0:
95,9,34476,1,8,0:2:0:0:
117,165,34640,6,0,P|113:204|105:248,1,71.9999978027344,6|0,3:1|0:2,0:0:0:0:
212,384,34970,2,0,P|208:345|200:301,1,71.9999978027344,0|0,3:2|0:2,0:0:0:0:
287,254,35300,1,8,0:2:0:0:
374,283,35465,1,0,3:2:0:0:
434,211,35630,1,8,3:0:0:0:
383,118,35794,1,0,3:2:0:0:
210,200,35959,1,8,0:2:0:0:
391,125,36783,5,0,3:2:0:0:
391,125,36866,1,0,3:2:0:0:
391,125,36948,2,0,P|349:139|295:153,1,71.9999978027344,8|0,0:2|0:2,0:0:0:0:
186,207,37278,6,0,P|141:158|148:63,1,160,12|8,0:1|3:2,0:0:0:0:
39,162,37772,2,0,P|25:201|13:253,1,80,8|0,0:2|3:2,0:0:0:0:
65,356,38102,1,0,3:2:0:0:
157,301,38267,2,0,P|202:293|256:288,1,80,8|0,0:2|0:2,0:0:0:0:
451,234,38597,6,0,P|386:230|288:207,1,160,8|8,0:2|3:2,0:0:0:0:
375,30,39091,2,0,P|382:72|390:137,1,80,8|0,0:2|3:2,0:0:0:0:
481,27,39421,1,0,3:2:0:0:
300,69,39586,2,0,P|259:59|194:40,1,80,8|0,0:2|0:2,0:0:0:0:
12,214,39915,6,0,B|55:163|113:190|113:190|136:174|188:177,1,160,12|0,0:2|3:2,0:0:0:0:
342,247,40410,1,8,0:2:0:0:
247,152,40575,2,0,P|241:188|238:239,1,80,0|0,3:2|0:2,0:0:0:0:
394,384,40904,2,0,P|400:344|402:304,1,80,8|0,0:2|0:2,0:0:0:0:
512,147,41234,6,0,P|460:165|353:161,1,160,8|0,0:2|3:2,0:0:0:0:
262,56,41728,1,8,0:2:0:0:
262,56,41811,1,8,0:0:0:0:
262,56,41893,2,0,P|308:47|368:30,1,80,0|8,3:2|3:2,0:0:0:0:
196,157,42223,2,0,P|150:148|90:131,1,80,8|0,0:2|3:2,0:0:0:0:
266,296,42553,6,0,P|276:259|291:197,1,80,12|0,0:2|0:2,0:0:0:0:
356,320,42882,1,0,3:2:0:0:
176,303,43047,2,0,P|110:295|18:245,1,160,8|0,0:2|0:2,0:0:0:0:
3,127,43542,2,0,P|51:122|111:106,1,80,8|0,0:2|0:2,0:0:0:0:
235,17,43871,6,0,P|276:65|285:177,1,160,8|0,0:2|3:2,0:0:0:0:
186,273,44366,1,8,0:2:0:0:
140,184,44531,1,0,3:2:0:0:
282,245,44695,1,0,0:2:0:0:
103,287,44860,2,0,P|66:282|14:269,1,80,8|0,0:2|0:2,0:0:0:0:
259,372,45190,1,12,3:2:0:0:
259,372,45520,6,0,L|304:362,3,40,8|8|8|8,3:2|0:2|0:2|0:2,0:0:0:0:
340,332,45849,2,0,L|385:322,3,40,8|8|8|8,3:2|0:2|0:2|0:2,0:0:0:0:
410,293,46179,2,0,P|465:308|518:321,1,80,6|0,3:0|0:0,0:0:0:0:
362,167,46509,5,8,0:2:0:0:
289,212,46673,2,0,P|232:219|165:171,1,120,8|0,0:2|0:0,0:0:0:0:
178,189,47003,2,0,P|111:212|10:236,1,143.999995605469,14|0,0:1|0:0,0:0:0:0:
40,229,47333,1,0,3:2:0:0:
78,66,47498,1,8,0:2:0:0:
78,66,47827,6,0,P|126:74|178:79,1,80,4|0,3:1|3:2,0:0:0:0:
295,202,48157,2,0,P|247:210|195:215,1,80,10|0,0:2|3:2,0:0:0:0:
316,92,48487,1,2,0:2:0:0:
453,173,48651,1,0,3:2:0:0:
422,85,48816,2,0,P|432:45|457:-9,1,80,10|0,0:2|0:2,0:0:0:0:
400,303,49146,5,2,3:2:0:0:
336,163,49311,1,0,3:2:0:0:
504,239,49476,1,8,0:2:0:0:
311,292,49640,2,0,B|281:283|281:283|251:293|251:293|200:272|132:278,1,160,2|0,3:2|3:2,0:0:0:0:
37,307,50135,2,0,P|45:339|63:397,1,80,8|0,0:2|0:2,0:0:0:0:
188,198,50465,5,2,3:2:0:0:
35,135,50630,1,0,3:2:0:0:
83,250,50794,1,10,0:2:0:0:
220,111,50959,1,0,0:2:0:0:
273,205,51124,2,0,P|311:217|363:223,1,80,2|0,0:2|3:2,0:0:0:0:
139,32,51454,2,0,P|134:72|128:112,1,80,10|0,0:2|0:2,0:0:0:0:
322,19,51783,5,2,3:2:0:0:
399,68,51948,2,0,P|446:62|503:43,1,80,0|8,3:2|0:2,0:0:0:0:
424,242,52278,6,0,P|352:208|265:206,1,160,2|0,0:0|3:0,0:0:0:0:
186,301,52772,2,0,P|193:343|211:397,1,80,8|0,0:2|0:2,0:0:0:0:
0,179,53102,6,0,B|55:174|101:211|101:211|127:188|173:171,1,160,6|10,3:2|0:2,0:0:0:0:
246,93,53597,2,0,P|239:58|208:-3,1,80,2|0,0:2|0:0,0:0:0:0:
374,101,53926,1,2,3:2:0:0:
323,180,54091,2,0,P|283:176|232:161,1,80,8|0,0:2|0:2,0:0:0:0:
383,255,54421,1,0,3:2:0:0:
481,153,54586,1,0,3:2:0:0:
511,304,54750,1,8,0:2:0:0:
361,262,54915,6,0,P|296:258|207:324,1,160,0|0,0:2|3:2,0:0:0:0:
107,346,55410,2,0,P|59:340|7:325,1,80,8|0,0:2|0:2,0:0:0:0:
173,213,55739,6,0,P|221:207|273:192,1,80,2|0,3:2|3:2,0:0:0:0:
375,103,56069,1,8,0:2:0:0:
225,56,56234,1,0,0:2:0:0:
333,209,56399,2,0,P|340:171|348:116,1,80,2|0,0:2|3:2,0:0:0:0:
172,291,56728,2,0,P|177:330|185:369,1,80,8|0,0:2|0:2,0:0:0:0:
401,290,57058,1,2,3:2:0:0:
240,210,57223,1,0,3:2:0:0:
464,163,57388,1,10,0:0:0:0:
239,234,57553,1,0,0:0:0:0:
341,145,57717,6,0,P|334:103|327:54,1,80,2|8,3:2|0:2,0:0:0:0:
328,65,57965,1,8,0:2:0:0:
328,65,58047,2,0,L|284:78,3,40,8|8|8|8,0:2|0:2|0:2|0:2,0:0:0:0:
250,99,58377,6,0,P|186:89|72:63,1,160,6|8,3:2|0:2,0:0:0:0:
3,168,58871,1,0,0:2:0:0:
73,223,59036,2,0,P|84:261|92:328,1,80,2|0,0:2|3:2,0:0:0:0:
192,363,59366,2,0,P|243:347|296:323,1,80,8|0,0:2|0:2,0:0:0:0:
449,287,59695,5,2,3:2:0:0:
322,229,59860,1,0,3:2:0:0:
465,156,60025,1,10,0:2:0:0:
363,301,60190,2,0,P|350:246|344:124,1,160,0|0,3:2|3:2,0:0:0:0:
424,58,60684,2,0,P|468:64|538:71,1,80,10|2,0:2|0:2,0:0:0:0:
259,142,61014,5,0,3:2:0:0:
337,6,61179,1,0,3:2:0:0:
204,70,61344,2,0,P|183:115|187:236,1,160,8|0,0:2|0:2,0:0:0:0:
285,312,61838,1,0,3:2:0:0:
135,317,62003,2,0,P|91:309|26:291,1,80,8|0,0:2|0:2,0:0:0:0:
325,382,62333,6,0,P|369:374|434:356,1,80,2|0,3:2|3:2,0:0:0:0:
466,193,62662,1,10,0:2:0:0:
340,259,62827,2,0,P|238:240|155:210,1,160,0|0,3:2|3:2,0:0:0:0:
288,64,63322,2,0,P|300:104|310:154,1,80,10|0,0:2|0:2,0:0:0:0:
84,291,63651,6,0,P|72:251|62:201,1,80,2|0,3:2|3:2,0:0:0:0:
102,26,63981,1,10,0:2:0:0:
214,131,64146,1,0,0:2:0:0:
288,64,64311,2,0,P|334:52|382:47,1,80,2|0,0:2|3:2,0:0:0:0:
479,213,64640,2,0,P|433:201|385:196,1,80,10|0,0:2|0:2,0:0:0:0:
203,277,64970,6,0,B|266:268|306:309|306:309|332:294|370:293,1,160,2|8,3:2|0:2,0:0:0:0:
456,337,65465,1,0,3:2:0:0:
400,196,65630,1,2,0:2:0:0:
284,348,65794,1,0,3:2:0:0:
203,277,65959,2,0,P|161:272|91:254,1,80,10|0,0:2|0:2,0:0:0:0:
271,85,66289,6,0,P|285:129|292:186,1,80,2|0,3:2|3:2,0:0:0:0:
166,66,66619,1,10,0:2:0:0:
335,15,66783,1,0,0:2:0:0:
202,157,66948,1,2,0:2:0:0:
411,104,67113,1,0,3:2:0:0:
139,74,67278,2,0,P|104:68|43:56,1,80,10|0,0:2|0:2,0:0:0:0:
313,251,67608,5,0,3:2:0:0:
377,207,67772,2,0,P|416:198|472:194,1,80,0|8,3:2|0:2,0:0:0:0:
263,357,68102,2,0,B|210:334|159:363|159:363|134:339|95:334,1,160,4|0,3:1|3:2,0:0:0:0:
12,236,68597,2,0,P|60:225|117:218,1,80,8|0,0:2|3:2,0:0:0:0:
243,99,68926,6,0,P|195:88|138:81,1,80,4|0,3:1|0:2,0:0:0:0:
268,192,69256,1,10,0:2:0:0:
372,127,69421,1,0,0:2:0:0:
418,197,69586,2,0,P|411:232|391:294,1,80,2|0,0:2|3:2,0:0:0:0:
278,384,69915,2,0,P|266:345|258:306,1,80,8|0,0:2|0:2,0:0:0:0:
150,181,70245,1,2,3:2:0:0:
94,247,70410,2,0,P|55:262|11:268,1,80,0|8,3:2|0:2,0:0:0:0:
121,39,70739,6,0,P|176:73|294:94,1,160,2|2,0:2|3:2,0:0:0:0:
401,37,71234,2,0,P|383:77|369:136,1,80,8|0,0:2|0:2,0:0:0:0:
419,248,71564,1,2,3:2:0:0:
283,190,71728,1,0,3:2:0:0:
489,207,71893,1,10,0:2:0:0:
248,264,72058,1,0,0:2:0:0:
491,233,72223,2,0,P|453:229|386:214,1,80,10|0,0:2|3:2,0:0:0:0:
294,368,72553,6,0,P|301:263|312:179,1,160,14|0,0:2|0:2,0:0:0:0:
267,62,73047,1,0,3:2:0:0:
194,107,73212,2,0,P|151:100|99:85,1,80,8|0,0:2|0:2,0:0:0:0:
11,194,73542,1,0,3:2:0:0:
137,262,73706,1,0,3:2:0:0:
44,113,73871,1,10,0:2:0:0:
98,329,74036,1,0,0:2:0:0:
208,184,74201,5,10,0:2:0:0:
14,285,74366,1,8,0:2:0:0:
332,374,75025,5,8,0:2:0:0:
281,205,75190,1,10,0:2:0:0:
444,265,75355,1,8,0:2:0:0:
198,304,76014,5,8,0:2:0:0:
198,304,76097,1,8,0:2:0:0:
198,304,76179,2,0,P|159:299|112:288,1,71.9999978027344,8|0,0:2|3:2,0:0:0:0:
8,226,76509,2,0,P|47:221|94:210,1,71.9999978027344,0|0,3:2|0:0,0:0:0:0:
194,79,76838,6,0,P|184:185|181:241,1,143.999995605469,4|0,3:1|0:2,0:0:0:0:
290,121,77333,1,0,3:2:0:0:
363,178,77498,2,0,P|401:187|445:196,1,71.9999978027344,8|0,0:2|0:2,0:0:0:0:
512,360,77827,6,0,B|483:349|483:349|460:359|460:359|413:343|362:341,1,143.999995605469,2|2,0:2|0:2,0:0:0:0:
218,336,78322,1,8,0:2:0:0:
273,270,78487,2,0,P|284:238|287:182,1,71.9999978027344,0|0,3:2|0:2,0:0:0:0:
159,97,78816,6,0,P|140:139|123:264,1,143.999995605469,8|0,0:2|0:2,0:0:0:0:
122,234,79311,1,0,3:2:0:0:
288,200,79476,6,0,P|344:191|451:161,1,143.999995605469,2|0,3:2|0:2,0:0:0:0:
434,15,79970,1,0,3:2:0:0:
342,42,80135,2,0,P|330:81|323:145,1,71.9999978027344,8|0,0:2|3:2,0:0:0:0:
199,236,80465,6,0,B|185:204|185:204|202:174|202:174|191:142|207:79,1,143.999995605469,12|0,0:1|0:2,0:0:0:0:
113,160,80959,1,8,0:2:0:0:
70,93,81124,2,0,P|34:85|-5:81,1,71.9999978027344,0|8,3:2|0:2,0:0:0:0:
27,286,81454,5,8,0:2:0:0:
133,243,81619,1,0,0:2:0:0:
195,301,81783,2,0,P|231:309|270:313,1,71.9999978027344,0|0,3:2|0:2,0:0:0:0:
380,384,82113,6,0,P|390:349|397:314,1,71.9999978027344,4|0,3:2|0:0,0:0:0:0:
499,257,82443,2,0,P|485:223|470:191,1,71.9999978027344,0|0,0:2|3:2,0:0:0:0:
313,202,82772,2,0,P|348:208|382:218,1,71.9999978027344,8|0,0:2|3:2,0:0:0:0:
478,73,83102,6,0,B|437:83|406:111|406:111|384:89|338:83,1,143.999995605469,4|0,3:1|0:2,0:0:0:0:
259,2,83597,1,8,0:2:0:0:
183,103,83761,1,0,3:2:0:0:
291,157,83926,1,8,3:3:0:0:
247,25,84091,1,8,3:2:0:0:
107,120,84256,1,0,0:2:0:0:
304,132,84421,2,0,P|350:127|404:117,1,71.9999978027344,4|4,3:3|3:3,0:0:0:0:
230,274,84750,1,12,0:1:0:0:
256,192,84833,12,0,89119,0:2:0:0:
