osu file format v14

[General]
AudioFilename: audio.mp3
AudioLeadIn: 0
PreviewTime: 37195
Countdown: 0
SampleSet: Soft
StackLeniency: 0.7
Mode: 0
LetterboxInBreaks: 0
WidescreenStoryboard: 1

[Editor]
DistanceSpacing: 0.9
BeatDivisor: 4
GridSize: 16
TimelineZoom: 2.2

[Metadata]
Title:DEKOBOKO (TV Size)
TitleUnicode:凸凹 (TV Size)
Artist:Yoshioka Kiyoe
ArtistUnicode:吉岡聖恵
Creator:Zekk
Version:Hard
Source:カッコウの許嫁
Tags:kakkou no iinazuke A Couple of Cuckoos cuckoo's fiancee unevenness ikimonogakari ikimono gakari haruko nagaya ryokuoushoku shakai japanese pop jpop j-pop anime opening op
BeatmapID:3618574
BeatmapSetID:1767814

[Difficulty]
HPDrainRate:4
CircleSize:3.8
OverallDifficulty:6
ApproachRate:8
SliderMultiplier:1.4
SliderTickRate:1

[Events]
//Background and Video events
Video,0,"Yoshioka Kiyoe - DEKOBOKO.mp4"
0,0,"aakki malding.jpg",0,0
//Break Periods
//Storyboard Layer 0 (Background)
//Storyboard Layer 1 (Fail)
//Storyboard Layer 2 (Pass)
//Storyboard Layer 3 (Foreground)
//Storyboard Layer 4 (Overlay)
//Storyboard Sound Samples

[TimingPoints]
5630,329.67032967033,4,2,31,65,1,0
5630,-111.111111111111,4,2,31,65,0,0
13542,-111.111111111111,4,2,31,60,0,0
16179,-111.111111111111,4,2,31,60,0,0
26728,-111.111111111111,4,2,31,55,0,0
32003,-111.111111111111,4,2,31,65,0,0
34640,-111.111111111111,4,2,31,65,0,0
37278,-100,4,2,31,80,0,1
37608,-100,4,2,32,80,0,1
37772,-100,4,2,31,80,0,1
38926,-100,4,2,32,80,0,1
39090,-100,4,2,31,80,0,1
42058,-100,4,2,32,80,0,1
42222,-100,4,2,31,80,0,1
45520,-100,4,2,32,80,0,1
46179,-100,4,2,31,80,0,1
46509,-100,4,2,31,80,0,0
47827,-100,4,2,31,80,0,1
57058,-100,4,2,34,80,0,1
57882,-100,4,2,32,80,0,1
58377,-100,4,2,31,80,0,1
66289,-100,4,2,34,80,0,1
68102,-100,4,2,31,80,0,1
74201,-100,4,2,31,70,0,0
76014,-111.111111111111,4,2,32,70,0,0
76178,-111.111111111111,4,2,31,70,0,0
76838,-111.111111111111,4,2,31,65,0,0
81289,-111.111111111111,4,2,32,65,0,0
81453,-111.111111111111,4,2,31,65,0,0
89119,-111.111111111111,4,2,31,5,0,0

[Colours]
Combo1 : 250,180,240
Combo2 : 120,200,230
Combo3 : 255,230,130
Combo4 : 160,230,150

[HitObjects]
412,44,5630,6,0,P|364:53|326:59,1,62.9999980773926,12|0,0:1|0:0,0:0:0:0:
269,23,5959,2,0,P|221:32|186:39,1,62.9999980773926,8|0,0:0|0:0,0:0:0:0:
145,97,6289,1,8,0:0:0:0:
145,97,6454,1,8,0:0:0:0:
51,192,8267,6,0,P|59:225|66:268,1,62.9999980773926,12|0,0:1|0:0,0:0:0:0:
137,295,8597,2,0,P|145:328|152:371,1,62.9999980773926,8|0,0:0|0:0,0:0:0:0:
240,379,8926,1,8,0:0:0:0:
240,379,9091,1,8,0:0:0:0:
500,201,10904,6,0,P|466:196|422:187,1,62.9999980773926,12|0,0:1|0:0,0:0:0:0:
368,136,11234,2,0,P|334:131|290:122,1,62.9999980773926,8|0,0:0|0:0,0:0:0:0:
225,164,11564,1,8,0:0:0:0:
225,164,11728,1,8,0:0:0:0:
256,192,13542,12,2,14860,0:0:0:0:
327,100,15190,5,2,0:0:0:0:
256,192,15520,1,2,0:2:0:0:
256,192,15684,1,0,3:2:0:0:
324,243,15849,2,0,P|362:233|400:220,1,62.9999980773926,8|0,0:2|0:2,0:0:0:0:
445,146,16179,6,0,P|454:102|413:34,1,125.999996154785,6|10,3:2|0:2,0:0:0:0:
346,82,16673,1,0,3:2:0:0:
282,31,16838,2,0,P|252:36|212:42,1,62.9999980773926,2|0,3:2|3:2,0:0:0:0:
156,93,17168,2,0,P|127:98|89:106,1,62.9999980773926,10|0,0:2|0:2,0:0:0:0:
16,172,17498,2,0,P|26:217|42:297,1,125.999996154785,0|8,3:2|0:2,0:0:0:0:
90,363,17992,1,0,3:2:0:0:
160,315,18157,2,0,P|201:326|240:336,1,62.9999980773926,2|2,3:2|3:2,0:0:0:0:
285,279,18487,1,10,0:2:0:0:
209,164,18816,6,0,P|155:171|94:134,1,125.999996154785,2|8,3:2|0:2,0:0:0:0:
79,54,19311,1,0,3:2:0:0:
161,22,19476,2,0,P|192:31|233:44,1,62.9999980773926,2|0,3:2|3:2,0:0:0:0:
312,77,19805,2,0,P|365:66|446:48,1,125.999996154785,10|0,0:2|0:2,0:0:0:0:
509,91,20300,1,0,3:2:0:0:
458,161,20465,2,0,P|452:196|446:245,1,62.9999980773926,8|0,0:2|0:2,0:0:0:0:
491,296,20794,1,2,3:2:0:0:
491,296,20959,1,2,3:2:0:0:
413,331,21124,2,0,P|379:323|330:311,1,62.9999980773926,10|8,0:2|3:0,0:0:0:0:
304,301,21371,5,4,3:0:0:0:
304,301,21454,2,0,B|253:332|253:332|174:317,1,125.999996154785,6|10,3:1|0:2,0:0:0:0:
108,342,21948,1,0,0:2:0:0:
66,271,22113,2,0,P|77:231|89:188,1,62.9999980773926,2|2,3:2|3:2,0:0:0:0:
44,129,22443,2,0,P|55:89|67:46,1,62.9999980773926,10|0,0:2|0:2,0:0:0:0:
140,9,22772,2,0,B|183:27|183:27|267:8,1,125.999996154785,2|10,3:2|0:2,0:0:0:0:
333,52,23267,2,0,P|363:43|410:35,1,62.9999980773926,2|2,3:2|3:2,0:0:0:0:
464,88,23597,2,0,P|473:120|478:152,1,62.9999980773926,2|8,3:2|0:2,0:0:0:0:
504,239,23926,1,0,0:2:0:0:
422,208,24091,6,0,P|357:200|284:183,1,125.999996154785,2|10,3:2|0:2,0:0:0:0:
234,135,24586,1,0,3:2:0:0:
186,208,24750,2,0,P|171:245|219:329,1,125.999996154785,2|8,3:2|0:2,0:0:0:0:
269,368,25245,1,2,0:2:0:0:
347,322,25410,2,0,P|382:330|425:346,1,62.9999980773926,4|0,3:2|3:2,0:0:0:0:
428,258,25739,2,0,P|400:249|354:241,1,62.9999980773926,8|0,0:2|0:2,0:0:0:0:
321,175,26069,1,2,3:0:0:0:
321,175,26234,1,10,0:2:0:0:
391,128,26399,2,0,P|400:97|414:55,1,62.9999980773926,10|10,0:2|0:2,0:0:0:0:
321,15,26728,6,0,P|297:38|200:38,1,125.999996154785,4|2,3:1|3:2,0:0:0:0:
98,7,27388,1,8,0:2:0:0:
37,119,27717,2,0,P|51:180|65:249,1,125.999996154785,6|2,3:2|0:2,0:0:0:0:
6,297,28212,1,8,0:2:0:0:
6,297,28377,1,2,3:2:0:0:
120,364,28706,2,0,P|150:355|203:340,1,62.9999980773926,8|0,0:2|0:0,0:0:0:0:
232,285,29036,1,2,0:0:0:0:
356,324,29366,6,0,P|389:347|480:346,1,125.999996154785,0|2,3:2|3:2,0:0:0:0:
511,230,30025,1,10,0:2:0:0:
406,140,30355,2,0,P|364:154|274:177,1,125.999996154785,6|2,3:2|0:2,0:0:0:0:
221,225,30849,1,8,0:2:0:0:
221,225,31014,2,0,P|209:187|197:143,1,62.9999980773926,2|2,3:2|0:2,0:0:0:0:
131,126,31344,2,0,P|92:139|54:152,1,62.9999980773926,8|2,0:2|0:2,0:0:0:0:
11,201,31673,1,0,3:2:0:0:
11,201,31838,1,0,3:2:0:0:
40,283,32003,5,12,0:1:0:0:
175,364,32333,2,0,P|212:370|241:377,1,62.9999980773926,2|0,3:2|0:2,0:0:0:0:
309,327,32662,2,0,P|339:334|370:338,1,62.9999980773926,2|0,3:2|3:2,0:0:0:0:
442,285,32992,1,2,3:2:0:0:
442,285,33157,1,0,3:2:0:0:
398,203,33322,6,0,P|406:169|423:121,1,62.9999980773926,10|8,0:2|0:2,0:0:0:0:
492,98,33651,2,0,P|501:67|508:37,1,62.9999980773926,8|10,0:2|0:2,0:0:0:0:
433,1,33981,1,8,0:2:0:0:
433,1,34146,1,8,0:2:0:0:
359,50,34311,2,0,P|328:44|296:38,1,62.9999980773926,10|8,0:2|0:2,0:0:0:0:
202,83,34640,6,0,P|211:127|230:231,1,125.999996154785,6|0,3:1|3:2,0:0:0:0:
129,300,35300,2,0,P|89:291|58:285,1,62.9999980773926,8|0,0:2|3:2,0:0:0:0:
81,206,35630,2,0,P|111:212|142:219,1,62.9999980773926,8|0,3:0|3:2,0:0:0:0:
205,266,35959,1,8,0:2:0:0:
383,148,36783,5,0,3:2:0:0:
383,149,36866,1,0,3:2:0:0:
383,149,36948,2,0,P|420:160|456:168,1,62.9999980773926,8|0,0:2|0:2,0:0:0:0:
491,250,37278,6,0,P|499:300|437:378,1,140,12|8,0:1|3:2,0:0:0:0:
377,318,37772,1,8,0:2:0:0:
303,361,37937,2,0,P|275:353|228:343,1,70,0|0,3:2|3:2,0:0:0:0:
200,264,38267,2,0,P|211:226|227:177,1,70,8|0,0:2|0:2,0:0:0:0:
139,121,38597,2,0,B|90:123|53:145|53:145|39:132|-5:115,1,140,8|8,0:2|3:2,0:0:0:0:
18,28,39091,2,0,L|87:43,1,70,8|0,0:2|3:2,0:0:0:0:
173,15,39421,1,0,3:2:0:0:
173,15,39586,2,0,P|219:24|242:30,1,70,8|0,0:2|0:2,0:0:0:0:
328,106,39915,6,0,P|360:69|456:75,1,140,12|0,0:2|3:2,0:0:0:0:
512,125,40410,1,8,0:2:0:0:
456,189,40575,2,0,P|449:228|442:283,1,70,0|0,3:2|0:2,0:0:0:0:
374,319,40904,2,0,P|335:312|289:303,1,70,8|0,0:2|0:2,0:0:0:0:
209,254,41234,2,0,P|141:257|96:332,1,140,8|0,0:2|3:2,0:0:0:0:
169,371,41728,2,0,P|223:351|317:337,1,140,8|8,0:2|3:2,0:0:0:0:
354,261,42223,2,0,P|348:231|330:183,1,70,8|0,0:2|3:2,0:0:0:0:
271,122,42553,6,0,P|311:153|398:147,1,140,12|0,0:2|3:2,0:0:0:0:
468,91,43047,1,8,0:2:0:0:
399,39,43212,2,0,P|366:33|316:24,1,70,0|0,3:2|0:2,0:0:0:0:
249,50,43542,2,0,P|216:44|166:35,1,70,8|0,0:2|0:2,0:0:0:0:
79,10,43871,2,0,B|41:47|41:47|76:154,1,140,8|0,0:2|3:2,0:0:0:0:
16,201,44366,1,8,0:2:0:0:
94,243,44531,2,0,P|134:234|174:224,1,70,0|0,3:2|0:2,0:0:0:0:
235,275,44860,2,0,P|225:318|217:366,1,70,8|0,0:2|0:2,0:0:0:0:
315,384,45190,1,12,3:2:0:0:
396,300,45520,6,0,L|448:288,3,35,8|8|8|8,3:2|0:2|0:2|0:2,0:0:0:0:
462,265,45849,2,0,L|514:253,3,35,8|8|8|8,3:2|0:2|0:2|0:2,0:0:0:0:
512,216,46179,2,0,P|503:176|482:72,1,140,6|8,3:0|0:2,0:0:0:0:
403,32,46673,6,0,P|358:45|315:64,1,70,8|0,0:2|0:0,0:0:0:0:
260,101,47003,2,0,P|240:166|277:223,1,140,14|0,0:1|3:2,0:0:0:0:
334,290,47498,2,0,P|326:325|319:376,1,70,8|0,0:2|0:2,0:0:0:0:
237,384,47827,6,0,P|189:370|112:356,1,105,4|0,3:1|0:0,0:0:0:0:
97,347,48157,2,0,P|102:312|110:278,1,70,10|0,0:2|3:2,0:0:0:0:
181,219,48487,1,2,0:2:0:0:
181,219,48651,1,0,3:2:0:0:
107,174,48816,2,0,P|76:182|39:189,1,70,10|0,0:2|0:2,0:0:0:0:
4,98,49146,2,0,P|20:40|108:29,1,140,2|8,3:2|0:2,0:0:0:0:
170,73,49640,2,0,P|212:65|315:36,1,140,2|0,3:2|3:2,0:0:0:0:
373,92,50135,2,0,P|365:126|363:179,1,70,8|0,0:2|0:2,0:0:0:0:
272,203,50465,6,0,B|235:203|198:231|198:231|176:210|129:205,1,140,2|10,3:2|0:2,0:0:0:0:
78,261,50959,1,0,0:2:0:0:
146,315,51124,2,0,P|152:350|158:398,1,70,2|0,0:2|3:2,0:0:0:0:
236,374,51454,2,0,P|231:339|225:304,1,70,10|0,0:2|0:2,0:0:0:0:
297,246,51783,1,2,3:2:0:0:
297,246,51948,2,0,P|336:258|410:277,1,105,0|0,3:2|0:0,0:0:0:0:
429,289,52278,2,0,P|462:277|502:264,1,70,2|0,0:0|0:0,0:0:0:0:
479,179,52608,1,0,3:0:0:0:
479,179,52772,2,0,P|446:191|406:204,1,70,8|0,0:2|0:2,0:0:0:0:
320,162,53102,6,0,P|299:108|326:26,1,140,6|10,3:2|0:2,0:0:0:0:
250,73,53597,2,0,P|175:49|99:32,1,140,2|2,0:2|3:2,0:0:0:0:
45,86,54091,2,0,P|31:123|16:176,1,70,8|0,0:2|0:2,0:0:0:0:
95,222,54421,1,0,3:2:0:0:
95,222,54586,2,0,P|138:211|190:203,1,70,0|8,3:2|0:2,0:0:0:0:
230,150,54915,2,0,P|270:166|286:263,1,140,0|0,0:2|3:2,0:0:0:0:
228,306,55410,2,0,P|239:345|246:394,1,70,8|0,0:2|0:2,0:0:0:0:
340,384,55739,6,0,P|376:375|417:366,1,70,2|0,3:2|3:2,0:0:0:0:
452,294,56069,2,0,P|445:259|435:225,1,70,8|0,0:2|0:2,0:0:0:0:
465,140,56399,1,2,0:2:0:0:
465,140,56564,1,0,3:2:0:0:
378,166,56728,2,0,P|340:160|298:150,1,70,8|0,0:2|0:2,0:0:0:0:
233,211,57058,6,0,P|194:185|123:188,1,105,2|0,3:2|0:0,0:0:0:0:
103,195,57388,2,0,P|64:190|26:178,1,70,10|0,0:0|0:0,0:0:0:0:
0,95,57717,1,0,1:0:0:0:
84,39,57882,1,8,0:0:0:0:
84,39,57965,1,8,0:0:0:0:
84,39,58047,2,8,L|133:51,3,35,8|8|8|8,0:2|0:2|0:2|0:2,0:0:0:0:
163,46,58377,6,0,B|236:77|236:77|260:82|303:65,1,140,6|8,3:2|0:2,0:0:0:0:
365,14,58871,1,0,0:2:0:0:
406,92,59036,2,0,P|417:132|431:249,1,140,2|8,0:2|0:2,0:0:0:0:
482,312,59531,1,0,0:2:0:0:
388,301,59695,2,0,P|351:310|302:319,1,70,2|0,3:2|3:2,0:0:0:0:
246,371,60025,2,0,P|209:362|160:353,1,70,10|0,0:2|3:2,0:0:0:0:
113,288,60355,2,0,P|113:235|150:181,1,105,2|0,0:2|0:0,0:0:0:0:
174,174,60684,2,0,P|182:136|193:100,1,70,10|2,0:2|0:2,0:0:0:0:
263,36,61014,6,0,B|301:46|332:78|332:78|356:63|395:61,1,140,0|8,3:2|0:2,0:0:0:0:
466,95,61509,1,0,0:0:0:0:
410,156,61673,2,0,P|373:163|324:171,1,70,0|0,0:2|3:2,0:0:0:0:
276,231,62003,2,0,P|241:236|207:243,1,70,8|0,0:2|0:2,0:0:0:0:
114,288,62333,2,0,P|50:271|24:202,1,140,2|10,3:2|0:2,0:0:0:0:
90,147,62827,2,0,P|79:75|62:-19,1,140,0|0,3:2|3:2,0:0:0:0:
149,33,63322,2,0,P|186:24|237:16,1,70,10|0,0:2|0:2,0:0:0:0:
296,66,63651,6,0,P|288:108|286:159,1,70,2|0,3:2|3:2,0:0:0:0:
217,184,63981,1,10,0:2:0:0:
217,184,64146,1,0,0:2:0:0:
285,242,64311,2,0,P|314:237|358:224,1,70,2|0,0:2|3:2,0:0:0:0:
427,273,64640,2,0,P|437:308|443:352,1,70,10|0,0:2|0:2,0:0:0:0:
357,384,64970,2,0,P|301:353|210:352,1,140,2|8,3:2|0:2,0:0:0:0:
151,384,65465,1,0,3:2:0:0:
166,294,65630,2,0,P|159:261|142:205,1,70,2|0,0:2|3:2,0:0:0:0:
68,194,65959,2,0,P|60:159|51:126,1,70,10|0,0:2|0:2,0:0:0:0:
125,56,66289,6,0,P|193:88|270:103,1,140,2|10,3:2|0:2,0:0:0:0:
331,151,66783,1,0,0:2:0:0:
331,151,66948,2,0,P|371:144|427:130,1,70,2|0,0:2|3:2,0:0:0:0:
469,191,67278,2,0,P|458:224|447:283,1,70,10|0,0:2|0:2,0:0:0:0:
355,303,67608,1,0,3:2:0:0:
355,303,67773,2,0,P|315:296|259:282,1,70,0|8,3:2|0:2,0:0:0:0:
206,218,68102,2,0,B|163:218|133:243|133:243|108:222|70:214,1,140,4|0,3:1|3:2,0:0:0:0:
33,144,68597,2,0,P|40:112|57:60,1,70,8|0,0:2|3:2,0:0:0:0:
142,20,68926,6,0,P|189:55|261:54,1,105,4|0,3:1|0:0,0:0:0:0:
270,71,69256,2,0,P|314:62|361:51,1,70,10|0,0:2|0:2,0:0:0:0:
419,100,69586,2,0,P|427:140|442:201,1,70,2|0,0:2|3:2,0:0:0:0:
374,234,69915,2,0,P|330:243|283:254,1,70,8|0,0:2|0:2,0:0:0:0:
203,202,70245,2,0,P|155:198|65:167,1,140,2|8,3:2|0:2,0:0:0:0:
4,235,70739,2,0,P|-12:269|50:347,1,140,2|2,0:2|3:2,0:0:0:0:
123,377,71234,2,0,P|165:364|212:354,1,70,8|0,0:2|0:2,0:0:0:0:
259,289,71564,6,0,P|292:280|326:270,1,70,2|0,3:2|3:2,0:0:0:0:
408,313,71893,1,10,0:2:0:0:
408,313,72058,1,0,0:2:0:0:
434,231,72223,2,0,P|424:191|406:138,1,70,10|0,0:2|3:2,0:0:0:0:
321,112,72553,6,0,B|272:110|241:140|241:140|219:119|179:119,1,140,14|0,0:2|0:2,0:0:0:0:
118,163,73047,1,0,3:2:0:0:
86,83,73212,2,0,P|95:48|112:5,1,70,8|0,0:2|0:2,0:0:0:0:
210,8,73542,2,0,P|242:19|277:25,1,70,0|0,3:2|3:2,0:0:0:0:
351,73,73871,1,10,0:2:0:0:
429,31,74036,1,0,0:2:0:0:
469,117,74201,5,10,0:2:0:0:
469,117,74366,1,8,0:2:0:0:
424,229,75025,5,8,0:2:0:0:
338,259,75190,1,10,0:2:0:0:
299,183,75355,1,8,0:2:0:0:
156,160,76014,5,8,0:2:0:0:
156,160,76097,1,8,0:2:0:0:
156,160,76179,2,0,P|118:171|87:177,1,62.9999980773926,8|0,0:2|3:2,0:0:0:0:
44,245,76509,2,0,P|55:281|62:321,1,62.9999980773926,0|0,3:2|0:0,0:0:0:0:
152,346,76838,6,0,P|179:325|275:319,1,125.999996154785,4|0,3:1|0:2,0:0:0:0:
352,354,77333,1,0,3:2:0:0:
352,354,77498,2,0,P|395:343|424:335,1,62.9999980773926,8|0,0:2|0:2,0:0:0:0:
482,273,77827,2,0,B|496:235|496:235|458:147,1,125.999996154785,2|2,0:2|0:2,0:0:0:0:
379,170,78322,2,0,L|301:152,1,62.9999980773926,8|0,0:2|3:2,0:0:0:0:
240,189,78651,1,0,0:2:0:0:
211,111,78816,2,0,P|220:81|238:35,1,62.9999980773926,8|0,0:2|0:0,0:0:0:0:
141,64,79146,1,2,0:0:0:0:
29,109,79476,6,0,P|27:149|67:240,1,125.999996154785,2|0,3:2|0:2,0:0:0:0:
106,296,79970,1,0,3:2:0:0:
164,235,80135,2,0,P|193:245|224:248,1,62.9999980773926,8|0,0:2|3:2,0:0:0:0:
312,310,80465,6,0,P|350:269|337:183,1,125.999996154785,12|0,0:1|0:2,0:0:0:0:
283,145,80959,1,8,0:2:0:0:
283,145,81124,2,0,P|292:112|307:62,1,62.9999980773926,0|8,3:2|0:2,0:0:0:0:
377,41,81454,2,0,P|408:51|449:66,1,62.9999980773926,8|0,0:2|0:2,0:0:0:0:
497,129,81783,1,0,3:2:0:0:
497,129,81948,1,0,0:2:0:0:
421,199,82113,6,0,P|374:179|292:158,1,125.999996154785,4|0,3:2|0:2,0:0:0:0:
220,178,82608,1,0,3:2:0:0:
264,250,82772,2,0,P|273:287|277:328,1,62.9999980773926,8|0,0:2|3:2,0:0:0:0:
190,380,83102,2,0,P|130:353|67:359,1,125.999996154785,4|0,3:1|0:2,0:0:0:0:
31,282,83597,1,8,0:2:0:0:
31,282,83761,2,0,P|40:247|56:201,1,62.9999980773926,0|8,3:2|3:3,0:0:0:0:
143,174,84091,6,0,P|181:184|223:195,1,62.9999980773926,8|0,3:2|0:2,0:0:0:0:
280,148,84421,1,4,3:3:0:0:
226,78,84586,1,4,3:3:0:0:
295,22,84750,1,12,0:1:0:0:
256,192,84833,12,0,89119,0:2:0:0:
