osu file format v14

[General]
AudioFilename: audio.ogg
AudioLeadIn: 0
PreviewTime: 37507
Countdown: 0
SampleSet: Soft
StackLeniency: 0.7
Mode: 3
LetterboxInBreaks: 0
SpecialStyle: 0
WidescreenStoryboard: 0

[Editor]
DistanceSpacing: 0.9
BeatDivisor: 4
GridSize: 16
TimelineZoom: 2.599999

[Metadata]
Title:DEKOBOKO (TV Size)
TitleUnicode:凸凹 (TV Size)
Artist:Yoshioka Kiyoe
ArtistUnicode:吉岡聖恵
Creator:Syadow-
Version:Unevenness
Source:カッコウの許嫁
Tags:kakkou no iinazuke a couple of cuckoos cuckoo's fiancee jpop j-pop japanese pop opening op anime Ikimonogakari いきものがかり haruko nagaya ryokuoushoku shakai 長屋晴子 緑黄色社会 ESCL-5665 mirsaaa virtue- unevenness
BeatmapID:3549488
BeatmapSetID:1736699

[Difficulty]
HPDrainRate:8.5
CircleSize:4
OverallDifficulty:8.5
ApproachRate:5
SliderMultiplier:1.4
SliderTickRate:1

[Events]
//Background and Video events
0,0,"kobokan.jpg",0,0
Video,-7,"Yoshioka Kiyoe - DEKOBOKO.mp4"
//Break Periods
//Storyboard Layer 0 (Background)
//Storyboard Layer 1 (Fail)
//Storyboard Layer 2 (Pass)
//Storyboard Layer 3 (Foreground)
//Storyboard Layer 4 (Overlay)
//Storyboard Sound Samples

[TimingPoints]
584,329.67032967033,4,2,1,50,1,0
37507,-100,4,2,1,50,0,1
46737,-100,4,2,1,50,0,0
48056,-100,4,2,1,50,0,1
57287,-100,4,2,1,50,0,0
58605,-100,4,2,1,50,0,1
69155,-100,4,2,1,50,0,0

[HitObjects]
64,192,748,128,0,913:0:0:0:0:
192,192,913,128,0,1243:0:0:0:0:
448,192,1243,128,0,1573:0:0:0:0:
320,192,1573,128,0,1902:0:0:0:0:
64,192,1902,128,0,2232:0:0:0:0:
448,192,2232,128,0,2562:0:0:0:0:
320,192,2562,128,0,2891:0:0:0:0:
192,192,2891,128,0,3221:0:0:0:0:
448,192,3221,128,0,3551:0:0:0:0:
320,192,3551,128,0,3880:0:0:0:0:
64,192,3880,128,0,4045:0:0:0:0:
192,192,4045,128,0,4210:0:0:0:0:
320,192,4210,128,0,4375:0:0:0:0:
448,192,4375,128,0,4540:0:0:0:0:
64,192,4540,1,0,0:0:0:0:
64,192,5858,1,8,0:0:0:0:
320,192,5858,128,2,6023:0:0:0:0:
448,192,5858,1,0,0:0:0:0:
192,192,6023,128,0,6188:0:0:0:0:
64,192,6188,1,8,0:0:0:0:
320,192,6188,1,2,0:0:0:0:
448,192,6188,128,0,6353:0:0:0:0:
320,192,6353,128,0,6518:0:0:0:0:
64,192,6518,1,8,0:0:0:0:
192,192,6518,128,2,6682:0:0:0:0:
448,192,6518,1,0,0:0:0:0:
64,192,6682,1,8,0:0:0:0:
320,192,6682,128,2,6847:0:0:0:0:
448,192,6682,1,0,0:0:0:0:
192,192,6847,128,0,7012:0:0:0:0:
64,192,7012,128,0,7177:0:0:0:0:
448,192,7177,128,0,7342:0:0:0:0:
320,192,7342,128,0,7507:0:0:0:0:
64,192,7507,128,0,7671:0:0:0:0:
448,192,7671,128,0,7836:0:0:0:0:
192,192,7836,128,0,8001:0:0:0:0:
64,192,8001,128,0,8166:0:0:0:0:
320,192,8166,128,0,8331:0:0:0:0:
192,192,8331,128,0,8496:0:0:0:0:
64,192,8496,1,8,0:0:0:0:
320,192,8496,1,2,0:0:0:0:
448,192,8496,128,0,8660:0:0:0:0:
320,192,8660,128,0,8825:0:0:0:0:
64,192,8825,128,8,8990:0:0:0:0:
192,192,8825,1,2,0:0:0:0:
448,192,8825,1,0,0:0:0:0:
192,192,8990,128,0,9155:0:0:0:0:
64,192,9155,1,8,0:0:0:0:
320,192,9155,128,2,9320:0:0:0:0:
448,192,9155,1,0,0:0:0:0:
64,192,9320,1,8,0:0:0:0:
192,192,9320,128,2,9485:0:0:0:0:
448,192,9320,1,0,0:0:0:0:
320,192,9485,128,0,9649:0:0:0:0:
448,192,9649,128,0,9814:0:0:0:0:
64,192,9814,128,0,9979:0:0:0:0:
320,192,9979,128,0,10144:0:0:0:0:
448,192,10144,128,0,10309:0:0:0:0:
64,192,10309,128,0,10474:0:0:0:0:
192,192,10474,128,0,10638:0:0:0:0:
448,192,10638,128,0,10803:0:0:0:0:
320,192,10803,128,0,10968:0:0:0:0:
192,192,10968,128,0,11133:0:0:0:0:
64,192,11133,1,8,0:0:0:0:
320,192,11133,128,2,11298:0:0:0:0:
448,192,11133,1,0,0:0:0:0:
64,192,11298,128,0,11463:0:0:0:0:
192,192,11463,128,8,11627:0:0:0:0:
320,192,11463,1,2,0:0:0:0:
448,192,11463,1,0,0:0:0:0:
448,192,11627,128,0,11792:0:0:0:0:
64,192,11792,128,8,11957:0:0:0:0:
192,192,11792,1,2,0:0:0:0:
320,192,11792,1,0,0:0:0:0:
192,192,11957,1,8,0:0:0:0:
320,192,11957,128,2,12122:0:0:0:0:
448,192,11957,1,0,0:0:0:0:
192,192,12122,128,0,12287:0:0:0:0:
448,192,12287,128,0,12452:0:0:0:0:
320,192,12452,128,0,12616:0:0:0:0:
64,192,12616,128,0,12781:0:0:0:0:
448,192,12781,128,0,12946:0:0:0:0:
192,192,12946,128,0,13111:0:0:0:0:
64,192,13111,128,0,13276:0:0:0:0:
320,192,13276,128,0,13441:0:0:0:0:
192,192,13441,128,0,13605:0:0:0:0:
448,192,13605,1,0,0:0:0:0:
64,192,13688,1,0,0:0:0:0:
192,192,13729,1,0,0:0:0:0:
320,192,13770,128,0,13935:0:0:0:0:
448,192,13770,128,0,15089:0:0:0:0:
64,192,13935,128,0,14100:0:0:0:0:
192,192,14100,128,0,14265:0:0:0:0:
320,192,14265,128,0,14430:0:0:0:0:
192,192,14430,128,0,14594:0:0:0:0:
64,192,14594,128,0,14759:0:0:0:0:
320,192,14759,128,0,14924:0:0:0:0:
192,192,14924,128,0,15089:0:0:0:0:
64,192,15089,1,0,0:0:0:50:Splash.wav
320,192,15089,1,0,0:0:0:0:
64,192,15419,1,0,0:0:0:50:Splash.wav
320,192,15419,1,0,0:0:0:0:
192,192,15584,1,0,0:0:0:0:
64,192,15748,1,0,0:0:0:50:Splash.wav
320,192,15748,1,0,0:0:0:0:
448,192,15913,1,2,0:0:0:0:
320,192,15954,1,0,0:0:0:0:
192,192,15996,1,0,0:0:0:0:
64,192,16037,1,0,0:0:0:0:
320,192,16078,1,8,0:0:0:0:
448,192,16078,1,0,0:0:0:0:
64,192,16408,1,2,0:0:0:0:
320,192,16408,128,4,16737:0:0:0:0:
448,192,16408,1,0,0:0:0:0:
192,192,16573,1,0,0:0:0:0:
64,192,16737,1,8,0:0:0:0:
192,192,16737,128,0,17067:0:0:0:0:
448,192,16737,1,0,0:0:0:0:
320,192,16902,1,0,0:0:0:0:
320,192,17067,1,2,0:0:0:0:
448,192,17067,128,0,17397:0:0:0:0:
64,192,17232,1,2,0:0:0:0:
192,192,17232,1,0,0:0:0:0:
64,192,17397,128,8,18056:0:0:0:0:
192,192,17397,1,0,0:0:0:0:
320,192,17397,1,0,0:0:0:0:
320,192,17726,1,2,0:0:0:0:
192,192,17891,1,2,0:0:0:0:
448,192,17891,1,0,0:0:0:0:
192,192,18056,1,8,0:0:0:0:
320,192,18056,1,0,0:0:0:0:
448,192,18056,1,0,0:0:0:0:
64,192,18386,128,2,18551:0:0:0:0:
320,192,18386,1,0,0:0:0:0:
192,192,18551,1,2,0:0:0:0:
448,192,18551,128,0,18715:0:0:0:0:
64,192,18715,1,8,0:0:0:0:
192,192,18715,128,0,18880:0:0:0:0:
320,192,18715,1,0,0:0:0:0:
320,192,19045,128,2,19375:0:0:0:0:
448,192,19045,1,0,0:0:0:0:
192,192,19210,1,0,0:0:0:0:
64,192,19375,1,8,0:0:0:0:
192,192,19375,128,0,19704:0:0:0:0:
448,192,19375,1,0,0:0:0:0:
320,192,19540,1,0,0:0:0:0:
64,192,19704,1,2,0:0:0:0:
448,192,19704,128,0,19869:0:0:0:0:
64,192,19869,1,2,0:0:0:0:
192,192,19869,1,0,0:0:0:0:
320,192,19952,1,0,0:0:0:0:
192,192,19993,1,0,0:0:0:0:
64,192,20034,128,8,20693:0:0:0:0:
448,192,20034,1,0,0:0:0:50:Splash.wav
192,192,20364,1,0,0:0:0:0:
320,192,20529,1,2,0:0:0:0:
448,192,20529,1,0,0:0:0:0:
192,192,20693,1,8,0:0:0:0:
320,192,20693,1,0,0:0:0:0:
448,192,20693,1,0,0:0:0:0:
320,192,21023,1,2,0:0:0:0:
448,192,21023,128,0,21188:0:0:0:0:
64,192,21188,1,8,0:0:0:0:
192,192,21188,1,0,0:0:0:0:
320,192,21188,128,0,21353:0:0:0:0:
64,192,21353,1,8,0:0:0:0:
192,192,21353,128,0,21518:0:0:0:0:
448,192,21353,1,0,0:0:0:0:
320,192,21518,1,8,0:0:0:0:
448,192,21518,1,0,0:0:0:0:
192,192,21600,1,8,0:0:0:0:
64,192,21682,128,0,22012:0:0:0:0:
320,192,21682,1,4,0:0:0:0:
448,192,21682,1,2,0:0:0:0:
192,192,21847,1,0,0:0:0:0:
320,192,22012,1,0,0:0:0:0:
448,192,22012,1,0,0:0:0:0:
192,192,22012,1,8,0:0:0:0:
320,192,22177,1,0,0:0:0:0:
192,192,22342,1,2,0:0:0:0:
448,192,22342,128,0,22671:0:0:0:0:
64,192,22507,1,2,0:0:0:0:
320,192,22507,1,0,0:0:0:0:
64,192,22671,1,8,0:0:0:0:
192,192,22671,1,0,0:0:0:0:
320,192,22671,1,0,0:0:0:0:
64,192,23001,128,0,23331:0:0:0:0:
320,192,23166,1,2,0:0:0:0:
448,192,23166,1,0,0:0:0:0:
192,192,23331,1,8,0:0:0:0:
320,192,23331,1,0,0:0:0:0:
448,192,23331,128,0,23496:0:0:0:0:
192,192,23496,128,0,23660:0:0:0:0:
64,192,23660,1,2,0:0:0:0:
448,192,23660,1,0,0:0:0:0:
192,192,23825,1,2,0:0:0:0:
320,192,23825,128,0,23990:0:0:0:0:
64,192,23990,1,8,0:0:0:0:
192,192,23990,1,0,0:0:0:0:
448,192,23990,1,0,0:0:0:0:
320,192,24155,1,0,0:0:0:0:
64,192,24237,1,0,0:0:0:0:
192,192,24279,1,0,0:0:0:0:
320,192,24320,1,2,0:0:0:0:
448,192,24320,128,0,24814:0:0:0:0:
192,192,24485,1,0,0:0:0:0:
64,192,24649,1,8,0:0:0:0:
192,192,24649,1,0,0:0:0:0:
320,192,24649,1,0,0:0:0:0:
320,192,24814,1,0,0:0:0:0:
64,192,24979,128,0,25309:0:0:0:0:
320,192,25144,1,2,0:0:0:0:
448,192,25144,1,0,0:0:0:0:
192,192,25309,1,8,0:0:0:0:
320,192,25309,1,0,0:0:0:0:
448,192,25309,1,0,0:0:0:0:
64,192,25638,1,2,0:0:0:0:
448,192,25638,1,0,0:0:0:0:
192,192,25803,1,2,0:0:0:0:
320,192,25803,1,0,0:0:0:0:
64,192,25968,1,8,0:0:0:0:
320,192,25968,1,4,0:0:0:0:
448,192,25968,1,0,0:0:0:0:
64,192,26133,1,0,0:0:0:0:
192,192,26298,1,2,0:0:0:0:
320,192,26298,1,0,0:0:0:0:
64,192,26463,1,8,0:0:0:0:
320,192,26463,1,0,0:0:0:0:
448,192,26463,1,0,0:0:0:0:
64,192,26627,1,8,0:0:0:0:
320,192,26627,1,0,0:0:0:0:
448,192,26627,1,0,0:0:0:0:
64,192,26792,1,8,0:0:0:0:
320,192,26792,1,0,0:0:0:0:
448,192,26792,1,0,0:0:0:0:
64,192,26957,1,4,0:0:0:0:
192,192,26957,1,2,0:0:0:0:
448,192,26957,1,0,0:0:0:0:
192,192,27122,1,0,0:0:0:0:
320,192,27287,1,2,0:0:0:0:
448,192,27287,1,0,0:0:0:0:
192,192,27452,1,0,0:0:0:0:
64,192,27616,1,8,0:0:0:0:
320,192,27616,1,0,0:0:0:0:
448,192,27616,1,0,0:0:0:0:
192,192,27781,1,0,0:0:0:0:
64,192,27946,1,2,0:0:0:0:
320,192,27946,1,4,0:0:0:0:
448,192,27946,128,0,28276:0:0:0:0:
192,192,28276,1,0,0:0:0:0:
64,192,28441,1,8,0:0:0:0:
320,192,28441,1,0,0:0:0:0:
448,192,28441,1,0,0:0:0:0:
64,192,28605,128,2,28935:0:0:0:0:
192,192,28605,1,0,0:0:0:0:
192,192,28935,1,8,0:0:0:0:
320,192,28935,1,0,0:0:0:0:
448,192,28935,1,0,0:0:0:0:
448,192,29100,128,0,29265:0:0:0:0:
64,192,29265,1,0,0:0:0:0:
320,192,29265,128,0,29430:0:0:0:0:
192,192,29430,128,0,29594:0:0:0:0:
64,192,29594,1,2,0:0:0:0:
320,192,29594,1,0,0:0:0:0:
64,192,29759,1,8,0:0:0:0:
192,192,29759,1,0,0:0:0:0:
448,192,29759,1,0,0:0:0:0:
320,192,29924,1,2,0:0:0:0:
448,192,29924,1,0,0:0:0:0:
192,192,30089,1,0,0:0:0:0:
64,192,30254,1,8,0:0:0:0:
320,192,30254,1,0,0:0:0:0:
448,192,30254,1,0,0:0:0:0:
192,192,30419,1,0,0:0:0:0:
64,192,30584,128,2,30913:0:0:0:0:
320,192,30584,1,4,0:0:0:0:
448,192,30584,1,0,0:0:0:0:
192,192,30913,1,0,0:0:0:0:
64,192,31078,1,8,0:0:0:0:
320,192,31078,1,0,0:0:0:0:
448,192,31078,1,0,0:0:0:0:
192,192,31243,128,2,31573:0:0:0:0:
320,192,31243,1,4,0:0:0:0:
448,192,31408,1,0,0:0:0:0:
64,192,31573,1,8,0:0:0:0:
320,192,31573,1,0,0:0:0:0:
448,192,31573,1,0,0:0:0:0:
64,192,31737,1,0,0:0:0:50:Tom2.wav
192,192,31737,1,0,0:0:0:0:
320,192,31902,1,0,0:0:0:50:Tom3.wav
448,192,31902,1,0,0:0:0:0:
64,192,32067,1,2,0:0:0:0:
192,192,32108,1,0,0:0:0:0:
320,192,32149,1,0,0:0:0:0:
448,192,32191,1,0,0:0:0:0:
64,192,32232,128,4,32562:0:0:0:0:
192,192,32232,1,8,0:0:0:0:
192,192,32562,128,0,32891:0:0:0:50:Tom3.wav
320,192,32562,1,0,0:0:0:0:
448,192,32726,1,0,0:0:0:0:
320,192,32809,1,0,0:0:0:0:
448,192,32891,128,0,33221:0:0:0:50:Tom3.wav
64,192,32891,1,0,0:0:0:0:
320,192,33056,1,0,0:0:0:0:
192,192,33221,1,0,0:0:0:50:Tom3.wav
320,192,33221,128,0,33551:0:0:0:0:
192,192,33386,1,0,0:0:0:0:
64,192,33386,1,0,0:0:0:0:
64,192,33551,1,8,0:0:0:0:
192,192,33551,128,0,33880:0:0:0:50:Tom3.wav
448,192,33551,1,0,0:0:0:0:
320,192,33715,1,8,0:0:0:0:
448,192,33715,1,0,0:0:0:0:
64,192,33880,1,8,0:0:0:0:
320,192,33880,1,0,0:0:0:50:Tom3.wav
448,192,33880,1,0,0:0:0:0:
192,192,34045,1,8,0:0:0:0:
320,192,34045,128,0,34375:0:0:0:0:
64,192,34045,1,0,0:0:0:0:
64,192,34210,1,8,0:0:0:0:
192,192,34210,1,0,0:0:0:50:Tom3.wav
448,192,34210,1,0,0:0:0:0:
192,192,34375,1,8,0:0:0:0:
448,192,34375,1,0,0:0:0:0:
64,192,34375,1,0,0:0:0:0:
64,192,34540,128,8,34869:0:0:0:0:
448,192,34540,1,0,0:0:0:50:Tom3.wav
320,192,34540,1,0,0:0:0:0:
192,192,34704,1,8,0:0:0:0:
320,192,34704,1,0,0:0:0:0:
448,192,34704,1,0,0:0:0:0:
192,192,34869,1,4,0:0:0:0:
320,192,34869,1,0,0:0:0:50:Tom3.wav
448,192,34869,128,0,35529:0:0:0:0:
64,192,35199,1,0,0:0:0:50:Splash.wav
192,192,35199,1,0,0:0:0:50:Tom3.wav
320,192,35199,1,0,0:0:0:0:
64,192,35529,1,8,0:0:0:0:
192,192,35529,128,0,36188:0:0:0:50:Splash.wav
320,192,35529,1,0,0:0:0:0:
320,192,35693,1,0,0:0:0:50:Tom2.wav
448,192,35693,1,0,0:0:0:0:
64,192,35858,1,0,0:0:0:50:Tom3.wav
320,192,35858,1,0,0:0:0:0:
64,192,36023,1,0,0:0:0:50:Tom3.wav
448,192,36023,1,0,0:0:0:0:
64,192,36188,1,8,0:0:0:0:
320,192,36188,1,0,0:0:0:0:
448,192,36188,1,0,0:0:0:0:
192,192,36847,1,0,0:0:0:0:
64,192,37012,1,2,0:0:0:0:
320,192,37012,1,0,0:0:0:0:
64,192,37177,1,8,0:0:0:0:
192,192,37177,1,0,0:0:0:0:
448,192,37177,1,0,0:0:0:0:
64,192,37507,128,4,38001:0:0:0:0:
320,192,37507,1,2,0:0:0:0:
448,192,37507,1,0,0:0:0:0:
192,192,37836,1,2,0:0:0:0:
320,192,37836,1,0,0:0:0:0:
192,192,38001,1,8,0:0:0:0:
320,192,38001,1,0,0:0:0:0:
448,192,38001,1,0,0:0:0:0:
64,192,38166,1,2,0:0:0:0:
448,192,38166,128,0,38660:0:0:0:0:
64,192,38496,1,8,0:0:0:0:
192,192,38496,1,0,0:0:0:0:
320,192,38496,1,0,0:0:0:0:
64,192,38825,1,8,0:0:0:0:
192,192,38825,128,0,39155:0:0:0:0:
448,192,38825,1,0,0:0:0:0:
64,192,39155,1,2,0:0:0:0:
320,192,39155,128,0,39485:0:0:0:0:
64,192,39320,1,8,0:0:0:0:
448,192,39320,1,0,0:0:0:0:
192,192,39320,1,0,0:0:0:0:
192,192,39485,1,2,0:0:0:0:
448,192,39485,128,0,39814:0:0:0:0:
320,192,39649,1,0,0:0:0:0:
64,192,39814,1,8,0:0:0:0:
192,192,39814,1,0,0:0:0:0:
320,192,39814,1,0,0:0:0:0:
64,192,39979,128,0,41133:0:0:0:0:
192,192,40144,1,8,0:0:0:0:
320,192,40144,1,0,0:0:0:0:
448,192,40144,1,0,0:0:0:0:
192,192,40474,1,2,0:0:0:0:
320,192,40474,1,0,0:0:0:0:
192,192,40638,1,8,0:0:0:0:
320,192,40638,1,0,0:0:0:0:
448,192,40638,1,0,0:0:0:0:
192,192,40803,1,2,0:0:0:0:
448,192,40803,1,0,0:0:0:0:
192,192,41133,1,8,0:0:0:0:
320,192,41133,1,0,0:0:0:0:
448,192,41133,1,0,0:0:0:0:
64,192,41463,1,8,0:0:0:0:
320,192,41463,128,0,41792:0:0:0:0:
448,192,41463,1,0,0:0:0:0:
192,192,41792,128,2,42122:0:0:0:0:
448,192,41792,1,0,0:0:0:0:
64,192,41957,1,8,0:0:0:0:
448,192,41957,1,0,0:0:0:0:
320,192,41957,1,0,0:0:0:0:
64,192,42122,128,2,42452:0:0:0:0:
320,192,42122,1,0,0:0:0:0:
192,192,42452,1,8,0:0:0:0:
320,192,42452,1,0,0:0:0:0:
448,192,42452,128,0,42781:0:0:0:0:
64,192,42781,1,8,0:0:0:0:
192,192,42781,128,0,43111:0:0:0:0:
320,192,42781,1,0,0:0:0:0:
64,192,43111,1,2,0:0:0:0:
320,192,43111,128,0,43441:0:0:0:0:
64,192,43276,1,8,0:0:0:0:
448,192,43276,1,0,0:0:0:0:
192,192,43276,1,0,0:0:0:0:
192,192,43441,1,2,0:0:0:0:
448,192,43441,128,0,43770:0:0:0:0:
320,192,43605,1,0,0:0:0:0:
64,192,43770,1,8,0:0:0:0:
192,192,43770,128,0,44100:0:0:0:0:
320,192,43770,1,0,0:0:0:0:
64,192,44100,128,8,44430:0:0:0:0:
320,192,44100,1,0,0:0:0:0:
448,192,44100,1,0,0:0:0:0:
320,192,44430,1,2,0:0:0:0:
448,192,44430,1,0,0:0:0:0:
64,192,44594,1,8,0:0:0:0:
192,192,44594,1,0,0:0:0:0:
448,192,44594,1,0,0:0:0:0:
192,192,44759,128,2,45089:0:0:0:0:
320,192,44759,1,0,0:0:0:0:
448,192,44924,1,0,0:0:0:0:
64,192,45089,1,8,0:0:0:0:
320,192,45089,128,0,45419:0:0:0:0:
448,192,45089,1,0,0:0:0:0:
64,192,45419,128,8,45748:0:0:0:0:
192,192,45419,1,0,0:0:0:0:
448,192,45419,1,0,0:0:0:0:
320,192,45748,1,8,0:0:0:0:
448,192,45748,1,2,0:0:0:0:
64,192,45831,1,0,0:0:0:0:
192,192,45831,1,8,0:0:0:0:
320,192,45913,1,8,0:0:0:0:
448,192,45913,1,0,0:0:0:0:
192,192,45996,1,8,0:0:0:0:
64,192,46078,1,8,0:0:0:0:
448,192,46078,1,2,0:0:0:0:
192,192,46160,1,0,0:0:0:0:
320,192,46160,1,8,0:0:0:0:
64,192,46243,1,0,0:0:0:0:
448,192,46243,1,8,0:0:0:0:
192,192,46325,1,0,0:0:0:0:
320,192,46325,1,8,0:0:0:0:
64,192,46408,1,8,0:0:0:0:
448,192,46408,128,0,46737:0:0:0:50:Splash.wav
64,192,46737,1,8,0:0:0:0:
192,192,46737,1,0,0:0:0:50:Tom2.wav
320,192,46737,1,0,0:0:0:0:
64,192,46902,1,8,0:0:0:0:
192,192,46902,1,0,0:0:0:50:Tom3.wav
448,192,46902,1,0,0:0:0:0:
320,192,47067,1,0,0:0:0:0:
64,192,47232,128,8,47562:0:0:0:0:
192,192,47232,1,4,0:0:0:0:
448,192,47232,1,0,0:0:0:0:
192,192,47562,1,2,0:0:0:0:
448,192,47562,1,0,0:0:0:0:
64,192,47726,1,8,0:0:0:0:
320,192,47726,1,0,0:0:0:0:
448,192,47726,1,0,0:0:0:0:
192,192,47891,1,0,0:0:0:0:
64,192,48056,1,2,0:0:0:0:
320,192,48056,128,4,48386:0:0:0:0:
448,192,48056,1,0,0:0:0:0:
64,192,48221,1,2,0:0:0:0:
192,192,48221,1,0,0:0:0:0:
64,192,48386,1,8,0:0:0:0:
192,192,48386,128,0,48715:0:0:0:0:
448,192,48386,1,0,0:0:0:0:
320,192,48551,1,0,0:0:0:0:
448,192,48551,1,0,0:0:0:0:
64,192,48715,128,0,49045:0:0:0:0:
320,192,48880,1,2,0:0:0:0:
448,192,48880,1,0,0:0:0:0:
192,192,49045,1,8,0:0:0:0:
320,192,49045,1,0,0:0:0:0:
448,192,49045,128,0,49375:0:0:0:0:
64,192,49210,1,0,0:0:0:0:
192,192,49375,128,2,49704:0:0:0:0:
320,192,49375,1,0,0:0:0:0:
64,192,49540,1,2,0:0:0:0:
448,192,49540,1,0,0:0:0:0:
64,192,49704,1,8,0:0:0:0:
320,192,49704,1,0,0:0:0:0:
448,192,49704,1,0,0:0:0:0:
192,192,49869,1,2,0:0:0:0:
320,192,49869,128,0,50199:0:0:0:0:
448,192,50034,1,0,0:0:0:0:
64,192,50199,1,2,0:0:0:0:
192,192,50199,1,0,0:0:0:0:
64,192,50364,1,8,0:0:0:0:
320,192,50364,1,0,0:0:0:0:
448,192,50364,1,0,0:0:0:0:
320,192,50529,1,0,0:0:0:0:
64,192,50693,1,2,0:0:0:0:
192,192,50693,128,0,51023:0:0:0:0:
320,192,50858,1,2,0:0:0:0:
448,192,50858,1,0,0:0:0:0:
64,192,51023,128,8,51353:0:0:0:0:
320,192,51023,1,0,0:0:0:0:
448,192,51023,1,0,0:0:0:0:
192,192,51188,1,0,0:0:0:0:
320,192,51353,128,0,51682:0:0:0:0:
64,192,51518,1,2,0:0:0:0:
448,192,51518,1,0,0:0:0:0:
64,192,51682,1,8,0:0:0:0:
192,192,51682,1,0,0:0:0:0:
448,192,51682,128,0,52012:0:0:0:0:
320,192,51847,1,0,0:0:0:0:
64,192,52012,1,2,0:0:0:0:
192,192,52012,128,0,52342:0:0:0:0:
320,192,52177,1,2,0:0:0:0:
448,192,52177,1,0,0:0:0:0:
64,192,52342,1,8,0:0:0:0:
320,192,52342,1,0,0:0:0:0:
448,192,52342,1,0,0:0:0:0:
64,192,52507,128,0,52836:0:0:0:0:
320,192,52671,1,0,0:0:0:0:
192,192,52836,1,2,0:0:0:0:
448,192,52836,1,0,0:0:0:0:
64,192,53001,1,8,0:0:0:0:
320,192,53001,1,0,0:0:0:0:
448,192,53001,1,0,0:0:0:0:
320,192,53166,128,0,53331:0:0:0:0:
64,192,53331,1,2,0:0:0:0:
192,192,53331,128,4,53660:0:0:0:0:
448,192,53331,1,0,0:0:0:0:
64,192,53496,1,2,0:0:0:0:
320,192,53496,1,0,0:0:0:0:
64,192,53660,128,8,53825:0:0:0:0:
320,192,53660,1,0,0:0:0:0:
448,192,53660,1,0,0:0:0:0:
448,192,53825,128,0,54155:0:0:0:0:
320,192,53990,1,0,0:0:0:0:
64,192,54155,1,2,0:0:0:0:
192,192,54155,128,0,55309:0:0:0:0:
64,192,54320,1,8,0:0:0:0:
320,192,54320,1,0,0:0:0:0:
448,192,54320,1,0,0:0:0:0:
448,192,54485,1,0,0:0:0:0:
64,192,54649,1,2,0:0:0:0:
320,192,54649,1,0,0:0:0:0:
64,192,54814,1,2,0:0:0:0:
448,192,54814,1,0,0:0:0:0:
64,192,54979,1,8,0:0:0:0:
320,192,54979,1,0,0:0:0:0:
448,192,54979,1,0,0:0:0:0:
320,192,55144,1,0,0:0:0:0:
64,192,55309,1,0,0:0:0:0:
320,192,55474,1,2,0:0:0:0:
448,192,55474,1,0,0:0:0:0:
64,192,55638,1,8,0:0:0:0:
192,192,55638,1,0,0:0:0:0:
448,192,55638,1,0,0:0:0:0:
320,192,55803,1,0,0:0:0:0:
64,192,55968,128,2,56463:0:0:0:0:
192,192,55968,1,0,0:0:0:0:
320,192,56133,1,2,0:0:0:0:
448,192,56133,1,0,0:0:0:0:
192,192,56298,1,8,0:0:0:0:
320,192,56298,1,0,0:0:0:0:
448,192,56298,1,0,0:0:0:0:
192,192,56463,1,0,0:0:0:0:
320,192,56627,128,0,56957:0:0:0:0:
64,192,56792,1,2,0:0:0:0:
448,192,56792,1,0,0:0:0:0:
64,192,56957,1,8,0:0:0:0:
192,192,56957,1,0,0:0:0:0:
448,192,56957,1,0,0:0:0:0:
192,192,57122,128,0,57287:0:0:0:0:
320,192,57287,1,2,0:0:0:0:
448,192,57287,128,0,57616:0:0:0:0:
64,192,57452,1,2,0:0:0:0:
192,192,57452,1,0,0:0:0:0:
64,192,57616,128,8,57946:0:0:0:0:
192,192,57616,1,0,0:0:0:0:
320,192,57616,1,0,0:0:0:0:
448,192,57781,1,0,0:0:0:0:
192,192,57946,1,2,0:0:0:0:
320,192,57946,1,0,0:0:0:0:
448,192,57946,1,0,0:0:0:0:
64,192,58111,1,8,0:0:0:0:
192,192,58111,1,0,0:0:0:0:
320,192,58193,1,8,0:0:0:0:
448,192,58193,1,0,0:0:0:0:
64,192,58276,1,2,0:0:0:0:
192,192,58276,1,0,0:0:0:0:
320,192,58358,1,8,0:0:0:0:
448,192,58358,1,0,0:0:0:0:
64,192,58441,1,8,0:0:0:0:
192,192,58441,1,0,0:0:0:0:
320,192,58523,1,8,0:0:0:0:
64,192,58605,1,2,0:0:0:0:
192,192,58605,1,4,0:0:0:0:
448,192,58605,128,0,59100:0:0:0:0:
64,192,58770,1,2,0:0:0:0:
320,192,58770,1,0,0:0:0:0:
64,192,58935,1,8,0:0:0:0:
192,192,58935,1,0,0:0:0:0:
320,192,58935,1,0,0:0:0:0:
192,192,59100,1,0,0:0:0:0:
64,192,59265,128,0,59759:0:0:0:0:
320,192,59430,1,2,0:0:0:0:
448,192,59430,1,0,0:0:0:0:
192,192,59594,1,8,0:0:0:0:
320,192,59594,1,0,0:0:0:0:
448,192,59594,1,0,0:0:0:0:
192,192,59759,1,0,0:0:0:0:
320,192,59924,128,2,60254:0:0:0:0:
448,192,59924,1,0,0:0:0:0:
64,192,60089,1,2,0:0:0:0:
192,192,60089,1,0,0:0:0:0:
64,192,60254,1,8,0:0:0:0:
192,192,60254,128,0,60584:0:0:0:0:
448,192,60254,1,0,0:0:0:0:
64,192,60419,1,2,0:0:0:0:
320,192,60419,1,0,0:0:0:0:
448,192,60584,128,0,60913:0:0:0:0:
64,192,60748,1,2,0:0:0:0:
192,192,60748,1,0,0:0:0:0:
64,192,60913,128,8,61078:0:0:0:0:
192,192,60913,1,0,0:0:0:0:
320,192,60913,1,0,0:0:0:0:
320,192,61078,128,0,62232:0:0:0:0:
192,192,61243,1,2,0:0:0:0:
448,192,61243,1,0,0:0:0:0:
64,192,61408,1,2,0:0:0:0:
448,192,61408,1,0,0:0:0:0:
64,192,61573,1,8,0:0:0:0:
192,192,61573,1,0,0:0:0:0:
448,192,61573,1,0,0:0:0:0:
192,192,61737,1,0,0:0:0:0:
448,192,61902,1,0,0:0:0:0:
64,192,62067,1,2,0:0:0:0:
192,192,62067,1,0,0:0:0:0:
64,192,62232,1,8,0:0:0:0:
192,192,62232,1,0,0:0:0:0:
448,192,62232,1,0,0:0:0:0:
320,192,62397,1,0,0:0:0:0:
64,192,62562,128,2,62891:0:0:0:0:
448,192,62562,1,0,0:0:0:0:
192,192,62726,1,2,0:0:0:0:
320,192,62726,1,0,0:0:0:0:
192,192,62891,1,8,0:0:0:0:
320,192,62891,128,0,63221:0:0:0:0:
448,192,62891,1,0,0:0:0:0:
64,192,63056,1,2,0:0:0:0:
448,192,63056,1,0,0:0:0:0:
192,192,63221,128,0,63551:0:0:0:0:
64,192,63386,1,2,0:0:0:0:
320,192,63386,1,0,0:0:0:0:
64,192,63551,1,8,0:0:0:0:
320,192,63551,1,0,0:0:0:0:
448,192,63551,128,0,63880:0:0:0:0:
192,192,63715,1,0,0:0:0:0:
64,192,63880,128,2,64210:0:0:0:0:
320,192,63880,1,0,0:0:0:0:
192,192,64045,1,2,0:0:0:0:
448,192,64045,1,0,0:0:0:0:
192,192,64210,128,8,64540:0:0:0:0:
320,192,64210,1,0,0:0:0:0:
448,192,64210,1,0,0:0:0:0:
64,192,64375,1,0,0:0:0:0:
320,192,64540,128,0,64869:0:0:0:0:
64,192,64704,1,2,0:0:0:0:
448,192,64704,1,0,0:0:0:0:
64,192,64869,1,8,0:0:0:0:
192,192,64869,1,0,0:0:0:0:
448,192,64869,128,0,65199:0:0:0:0:
320,192,65034,1,0,0:0:0:0:
64,192,65199,1,2,0:0:0:0:
192,192,65199,128,0,65529:0:0:0:0:
320,192,65364,1,2,0:0:0:0:
448,192,65364,1,0,0:0:0:0:
64,192,65529,1,8,0:0:0:0:
320,192,65529,1,0,0:0:0:0:
448,192,65529,1,0,0:0:0:0:
64,192,65693,1,2,0:0:0:0:
192,192,65693,1,0,0:0:0:0:
320,192,65858,1,0,0:0:0:0:
448,192,65858,128,0,66188:0:0:0:0:
64,192,66023,1,2,0:0:0:0:
192,192,66023,1,0,0:0:0:0:
64,192,66188,128,8,66518:0:0:0:0:
192,192,66188,1,0,0:0:0:0:
320,192,66188,1,0,0:0:0:0:
192,192,66518,1,2,0:0:0:0:
320,192,66518,128,4,66847:0:0:0:0:
448,192,66518,1,0,0:0:0:0:
64,192,66682,1,2,0:0:0:0:
448,192,66682,1,0,0:0:0:0:
64,192,66847,1,8,0:0:0:0:
192,192,66847,128,0,67177:0:0:0:0:
448,192,66847,1,0,0:0:0:0:
64,192,67012,1,0,0:0:0:0:
320,192,67177,128,0,67507:0:0:0:0:
64,192,67342,1,2,0:0:0:0:
192,192,67342,1,0,0:0:0:0:
64,192,67507,1,8,0:0:0:0:
192,192,67507,1,0,0:0:0:0:
448,192,67507,128,0,67836:0:0:0:0:
320,192,67671,1,0,0:0:0:0:
64,192,67836,128,2,68166:0:0:0:0:
192,192,67836,1,0,0:0:0:0:
320,192,68001,1,2,0:0:0:0:
448,192,68001,1,0,0:0:0:0:
192,192,68166,1,8,0:0:0:0:
320,192,68166,1,0,0:0:0:0:
448,192,68166,1,0,0:0:0:0:
64,192,68331,1,2,0:0:0:0:
192,192,68331,128,4,68660:0:0:0:0:
448,192,68331,1,0,0:0:0:0:
64,192,68660,1,2,0:0:0:0:
320,192,68660,1,0,0:0:0:0:
64,192,68825,1,8,0:0:0:0:
192,192,68825,1,0,0:0:0:0:
448,192,68825,1,0,0:0:0:0:
320,192,68908,1,0,0:0:0:0:
64,192,68990,1,2,0:0:0:0:
448,192,68990,1,0,0:0:0:0:
192,192,69073,1,0,0:0:0:0:
64,192,69155,1,2,0:0:0:0:
320,192,69155,128,4,69485:0:0:0:0:
448,192,69155,1,0,0:0:0:0:
64,192,69485,1,8,0:0:0:0:
192,192,69485,128,0,69814:0:0:0:0:
448,192,69485,1,0,0:0:0:0:
320,192,69649,1,0,0:0:0:0:
448,192,69814,128,0,70144:0:0:0:0:
64,192,69979,1,2,0:0:0:0:
192,192,69979,1,0,0:0:0:0:
64,192,70144,128,8,70474:0:0:0:0:
192,192,70144,1,0,0:0:0:0:
320,192,70144,1,0,0:0:0:0:
448,192,70309,1,0,0:0:0:0:
192,192,70474,1,2,0:0:0:0:
320,192,70474,128,0,70803:0:0:0:0:
64,192,70638,1,2,0:0:0:0:
448,192,70638,1,0,0:0:0:0:
64,192,70803,1,8,0:0:0:0:
192,192,70803,1,0,0:0:0:0:
448,192,70803,1,0,0:0:0:0:
192,192,70968,128,0,71627:0:0:0:0:
320,192,70968,1,0,0:0:0:0:
64,192,71133,1,0,0:0:0:0:
320,192,71298,1,2,0:0:0:0:
448,192,71298,1,0,0:0:0:0:
64,192,71463,1,8,0:0:0:0:
320,192,71463,1,0,0:0:0:0:
448,192,71463,1,0,0:0:0:0:
64,192,71627,1,0,0:0:0:0:
192,192,71792,1,2,0:0:0:0:
320,192,71792,128,0,72122:0:0:0:0:
64,192,71957,1,2,0:0:0:0:
448,192,71957,1,0,0:0:0:0:
64,192,72122,1,8,0:0:0:0:
192,192,72122,1,0,0:0:0:0:
448,192,72122,128,0,72452:0:0:0:0:
320,192,72287,1,0,0:0:0:0:
64,192,72452,128,2,72781:0:0:0:0:
192,192,72452,1,0,0:0:0:0:
320,192,72616,1,2,0:0:0:0:
448,192,72616,1,0,0:0:0:0:
192,192,72781,128,8,73441:0:0:0:0:
320,192,72781,1,4,0:0:0:0:
448,192,72781,1,0,0:0:0:0:
64,192,72946,1,0,0:0:0:0:
320,192,73111,1,0,0:0:0:0:
64,192,73276,1,2,0:0:0:0:
448,192,73276,1,0,0:0:0:0:
64,192,73441,1,8,0:0:0:0:
320,192,73441,1,0,0:0:0:0:
448,192,73441,1,0,0:0:0:0:
192,192,73605,1,0,0:0:0:0:
320,192,73770,1,2,0:0:0:0:
448,192,73770,1,0,0:0:0:0:
192,192,73935,1,2,0:0:0:0:
320,192,73935,1,0,0:0:0:0:
64,192,74100,1,8,0:0:0:0:
192,192,74100,1,0,0:0:0:0:
448,192,74100,1,0,0:0:0:0:
320,192,74265,1,0,0:0:0:0:
64,192,74430,1,8,0:0:0:0:
192,192,74430,1,0,0:0:0:50:Tom2.wav
448,192,74430,1,0,0:0:0:0:
64,192,74594,1,8,0:0:0:0:
320,192,74594,1,0,0:0:0:50:Tom3.wav
448,192,74594,1,0,0:0:0:0:
192,192,74759,1,0,0:0:0:0:
192,192,75089,1,0,0:0:0:0:
448,192,75089,1,0,0:0:0:0:
64,192,75254,1,8,0:0:0:0:
320,192,75254,1,0,0:0:0:50:Tom2.wav
448,192,75254,1,0,0:0:0:0:
64,192,75419,1,8,0:0:0:0:
192,192,75419,1,0,0:0:0:50:Tom3.wav
320,192,75419,1,0,0:0:0:0:
64,192,75584,1,8,0:0:0:0:
192,192,75584,1,0,0:0:0:50:Tom3.wav
448,192,75584,1,0,0:0:0:0:
320,192,75748,1,0,0:0:0:0:
192,192,76078,1,0,0:0:0:0:
320,192,76243,1,8,0:0:0:0:
192,192,76325,1,8,0:0:0:0:
64,192,76408,1,8,0:0:0:0:
320,192,76408,1,0,0:0:0:0:
448,192,76408,1,0,0:0:0:0:
64,192,76573,1,2,0:0:0:0:
192,192,76614,1,0,0:0:0:0:
320,192,76655,1,0,0:0:0:0:
448,192,76696,1,0,0:0:0:0:
64,192,76737,1,8,0:0:0:0:
192,192,76737,1,0,0:0:0:0:
64,192,77067,1,2,0:0:0:0:
320,192,77067,128,4,77232:0:0:0:0:
448,192,77067,1,0,0:0:0:0:
192,192,77232,128,0,77397:0:0:0:0:
448,192,77397,128,0,77562:0:0:0:0:
64,192,77562,1,2,0:0:0:0:
320,192,77562,128,0,77726:0:0:0:0:
64,192,77726,128,8,77891:0:0:0:0:
192,192,77726,1,0,0:0:0:0:
448,192,77726,1,0,0:0:0:0:
320,192,77891,1,0,0:0:0:0:
64,192,78056,1,0,0:0:0:0:
192,192,78056,128,0,78221:0:0:0:0:
320,192,78221,1,2,0:0:0:0:
448,192,78221,1,0,0:0:0:0:
64,192,78386,1,0,0:0:0:0:
320,192,78386,128,0,78551:0:0:0:0:
64,192,78551,1,8,0:0:0:0:
192,192,78551,128,0,78715:0:0:0:0:
448,192,78551,1,0,0:0:0:0:
320,192,78715,1,2,0:0:0:0:
448,192,78715,128,0,79704:0:0:0:0:
64,192,79045,1,8,0:0:0:0:
192,192,79045,1,0,0:0:0:0:
320,192,79045,1,0,0:0:0:0:
64,192,79375,1,0,0:0:0:0:
320,192,79375,1,0,0:0:0:0:
192,192,79540,1,2,0:0:0:0:
320,192,79540,1,0,0:0:0:0:
64,192,79704,128,2,80199:0:0:0:0:
192,192,79704,1,0,0:0:0:0:
192,192,80034,1,0,0:0:0:0:
448,192,80034,1,0,0:0:0:0:
192,192,80199,128,2,80364:0:0:0:0:
320,192,80199,1,0,0:0:0:0:
64,192,80364,1,8,0:0:0:0:
320,192,80364,128,0,80693:0:0:0:0:
448,192,80364,1,0,0:0:0:0:
64,192,80529,1,2,0:0:0:0:
192,192,80529,1,0,0:0:0:0:
64,192,80693,1,8,0:0:0:0:
192,192,80693,128,4,82012:0:0:0:0:
448,192,80693,1,0,0:0:0:0:
64,192,81023,1,0,0:0:0:0:
320,192,81188,1,0,0:0:0:0:
64,192,81270,1,0,0:0:0:0:
320,192,81353,1,0,0:0:0:50:Tom2.wav
448,192,81353,1,0,0:0:0:0:
64,192,81518,1,0,0:0:0:0:
448,192,81600,1,0,0:0:0:0:
64,192,81682,1,8,0:0:0:0:
320,192,81682,1,0,0:0:0:0:
448,192,81847,1,0,0:0:0:0:
320,192,81930,1,0,0:0:0:0:
64,192,82012,1,0,0:0:0:50:Tom3.wav
448,192,82012,1,0,0:0:0:0:
320,192,82177,1,0,0:0:0:0:
64,192,82342,1,8,0:0:0:0:
192,192,82342,1,4,0:0:0:0:
448,192,82342,128,0,82507:0:0:0:0:
64,192,82671,128,0,82836:0:0:0:0:
320,192,82671,1,0,0:0:0:0:
192,192,82836,1,2,0:0:0:0:
320,192,82836,1,0,0:0:0:0:
64,192,83001,1,8,0:0:0:0:
192,192,83001,128,0,83166:0:0:0:0:
448,192,83001,1,0,0:0:0:0:
320,192,83166,1,2,0:0:0:0:
448,192,83166,1,0,0:0:0:0:
64,192,83331,1,4,0:0:0:0:
192,192,83331,1,8,0:0:0:0:
320,192,83331,128,0,83496:0:0:0:0:
64,192,83660,128,0,84320:0:0:0:0:
192,192,83660,1,0,0:0:0:0:
320,192,83825,1,8,0:0:0:0:
448,192,83825,1,0,0:0:0:0:
192,192,83990,1,2,0:0:0:0:
448,192,83990,1,0,0:0:0:0:
192,192,84320,128,8,84979:0:0:0:0:
320,192,84320,1,0,0:0:0:0:
448,192,84320,1,0,0:0:0:0:
320,192,84485,1,0,0:0:0:50:Tom2.wav
448,192,84485,1,0,0:0:0:0:
64,192,84649,1,0,0:0:0:50:Tom3.wav
320,192,84649,1,0,0:0:0:0:
64,192,84814,1,0,0:0:0:50:Tom3.wav
448,192,84814,1,0,0:0:0:0:
64,192,84979,1,8,0:0:0:0:
320,192,84979,1,4,0:0:0:0:
448,192,84979,128,0,89594:0:0:0:0:
64,192,85776,1,0,0:0:0:0:
192,192,85858,1,0,0:0:0:0:
320,192,85941,1,0,0:0:0:0:
64,192,86160,1,0,0:0:0:0:
320,192,86298,1,0,0:0:0:0:
192,192,86380,1,0,0:0:0:0:
64,192,86463,1,0,0:0:0:0:
320,192,86648,1,0,0:0:0:0:
64,192,87019,1,0,0:0:0:0:
192,192,87246,1,0,0:0:0:0:
320,192,87410,1,0,0:0:0:0:
64,192,87589,1,0,0:0:0:0:
320,192,87836,1,0,0:0:0:0:
64,192,88056,1,0,0:0:0:0:
192,192,88331,1,0,0:0:0:0:
320,192,88750,1,0,0:0:0:0:
