osu file format v14

[General]
AudioFilename: audio.mp3
AudioLeadIn: 0
PreviewTime: 72384
Countdown: 1
SampleSet: Soft
StackLeniency: 0.7
Mode: 0
LetterboxInBreaks: 0
WidescreenStoryboard: 0

[Editor]
DistanceSpacing: 1.3
BeatDivisor: 4
GridSize: 8
TimelineZoom: 1

[Metadata]
Title:Sotsu Omeshiki . Full ver
TitleUnicode:そつおめしき・ふる
Artist:Yoshinori Kawamoto feat. unmo
ArtistUnicode:川元義徳 feat. unmo
Creator:Mamiko
Version:Expert
Source:太鼓の達人
Tags:taiko no tatsujin sotsu omeshiki
BeatmapID:1667903
BeatmapSetID:794077

[Difficulty]
HPDrainRate:5.5
CircleSize:4.3
OverallDifficulty:8.5
ApproachRate:9.3
SliderMultiplier:1.69999991750717
SliderTickRate:1

[Events]
//Background and Video events
0,0,"bg.jpg",0,0
//Break Periods
//Storyboard Layer 0 (Background)
//Storyboard Layer 1 (Fail)
//Storyboard Layer 2 (Pass)
//Storyboard Layer 3 (Foreground)
//Storyboard Sound Samples

[TimingPoints]
384,300,4,2,1,70,1,0
384,-133.333333333333,4,2,1,70,0,0
5184,-100,4,2,1,70,0,0
9984,-133.333333333333,4,2,1,70,0,0
14784,-100,4,2,1,70,0,0
19584,-133.333333333333,4,2,1,70,0,0
38484,-100,4,2,1,70,0,0
38784,-100,4,2,1,70,0,0
67584,-133.333333333333,4,2,1,70,0,0
72384,-100,4,2,1,70,0,1
81834,-100,4,2,1,50,0,1
86784,-100,4,2,1,70,0,1
91584,-133.333333333333,4,2,1,70,0,1
96384,-100,4,2,1,70,0,1
102384,-100,4,2,1,70,0,0
140784,-133.333333333333,4,2,1,70,0,0
150384,-100,4,2,1,70,0,0
159984,-100,4,2,1,70,0,1
164784,-100,4,2,1,70,0,1
169584,-100,4,3,1,50,0,1
174384,-100,4,2,1,70,0,1
188784,-100,4,2,1,70,0,0

[Colours]
Combo1 : 255,128,128
Combo2 : 255,128,192
Combo3 : 255,179,255
Combo4 : 98,176,255
Combo5 : 0,142,210

[HitObjects]
242,304,384,5,2,0:0:0:0:
242,304,684,2,0,P|272:305|318:315,1,63.7499993383884
390,344,984,1,2,0:0:0:0:
465,289,1134,1,0,0:0:0:0:
430,199,1284,1,0,0:0:0:0:
342,101,1434,2,0,L|331:247,1,127.499998676777,2|0,0:0|0:0,0:0:0:0:
270,304,2784,5,2,0:0:0:0:
270,304,3084,2,0,P|240:305|194:315,1,63.7499993383884
122,344,3384,1,2,0:0:0:0:
47,289,3534,1,0,0:0:0:0:
82,199,3684,1,0,0:0:0:0:
170,101,3834,2,0,L|181:247,1,127.499998676777,2|0,0:0|0:0,0:0:0:0:
405,347,4434,6,0,L|457:334,1,31.8749996691942
464,332,4584,1,0,0:0:0:0:
341,274,4734,1,0,0:0:0:0:
362,268,4809,1,0,0:0:0:0:
384,262,4884,1,0,0:0:0:0:
255,353,5184,6,0,L|247:257,1,84.9999958753585
248,269,5409,1,0,0:0:0:0:
248,269,5484,1,0,0:0:0:0:
72,320,5634,1,0,0:0:0:0:
176,192,5784,1,0,0:0:0:0:
176,192,5859,1,0,0:0:0:0:
176,192,5934,1,0,0:0:0:0:
164,293,6084,1,0,0:0:0:0:
85,233,6234,1,0,0:0:0:0:
243,53,6384,6,0,B|260:94|260:94|246:143,1,84.9999958753585
164,293,6684,1,0,0:0:0:0:
50,140,6834,1,0,0:0:0:0:
75,142,6909,1,0,0:0:0:0:
100,145,6984,1,0,0:0:0:0:
286,249,7134,2,0,L|238:267,1,42.4999979376793
164,293,7284,1,0,0:0:0:0:
177,194,7434,1,0,0:0:0:0:
319,325,7584,6,0,L|403:337,1,84.9999958753585
403,337,7809,1,0,0:0:0:0:
403,337,7884,1,0,0:0:0:0:
372,225,8034,1,0,0:0:0:0:
236,355,8184,1,0,0:0:0:0:
236,355,8259,1,0,0:0:0:0:
236,355,8334,1,0,0:0:0:0:
80,312,8484,2,0,B|65:274|65:274|78:228,1,84.9999958753585
128,96,8784,5,0,0:0:0:0:
216,160,8934,1,0,0:0:0:0:
212,189,9009,1,0,0:0:0:0:
208,218,9084,1,0,0:0:0:0:
368,176,9234,1,0,0:0:0:0:
372,147,9309,1,0,0:0:0:0:
376,118,9384,1,0,0:0:0:0:
312,272,9534,1,0,0:0:0:0:
316,302,9609,1,0,0:0:0:0:
320,331,9684,1,0,0:0:0:0:
448,248,9834,1,0,0:0:0:0:
146,180,9984,5,0,0:0:0:0:
146,180,10284,2,0,P|126:207|117:244,1,63.7499993383884
136,332,10584,1,0,0:0:0:0:
224,320,10734,1,0,0:0:0:0:
312,304,10884,1,0,0:0:0:0:
392,232,11034,2,0,L|251:213,1,127.499998676777
53,89,11634,5,0,0:0:0:0:
70,180,11784,1,0,0:0:0:0:
70,180,12084,2,0,P|111:174|154:157,1,63.7499993383884
366,180,12384,5,0,0:0:0:0:
366,180,12684,2,0,P|386:207|395:244,1,63.7499993383884
376,332,12984,1,0,0:0:0:0:
288,320,13134,1,0,0:0:0:0:
200,304,13284,1,0,0:0:0:0:
120,232,13434,2,0,L|261:213,1,127.499998676777
459,89,14034,5,0,0:0:0:0:
459,89,14109,1,0,0:0:0:0:
459,89,14184,1,0,0:0:0:0:
442,180,14334,1,0,0:0:0:0:
442,180,14409,1,0,0:0:0:0:
442,180,14484,1,0,0:0:0:0:
181,84,14784,6,0,L|284:68,1,84.9999958753585
265,71,15009,1,0,0:0:0:0:
265,71,15084,1,0,0:0:0:0:
312,257,15234,1,0,0:0:0:0:
153,203,15384,1,0,0:0:0:0:
153,203,15459,1,0,0:0:0:0:
153,203,15534,1,0,0:0:0:0:
332,158,15684,1,0,0:0:0:0:
392,308,15834,1,0,0:0:0:0:
212,359,15984,6,0,L|230:265,1,84.9999958753585
244,178,16284,1,0,0:0:0:0:
410,215,16434,1,0,0:0:0:0:
433,221,16509,1,0,0:0:0:0:
458,227,16584,1,0,0:0:0:0:
308,71,16734,2,0,L|317:117,1,42.4999979376793
332,189,16884,1,0,0:0:0:0:
398,53,17034,1,0,0:0:0:0:
222,90,17184,6,0,L|106:112,1,84.9999958753585
138,105,17409,1,0,0:0:0:0:
138,105,17484,1,0,0:0:0:0:
104,268,17634,1,0,0:0:0:0:
104,268,17709,1,0,0:0:0:0:
104,268,17784,1,0,0:0:0:0:
41,169,17934,1,0,0:0:0:0:
206,207,18084,1,0,0:0:0:0:
399,79,18234,2,0,L|352:67,1,42.4999979376793
273,60,18384,5,0,0:0:0:0:
276,89,18459,1,0,0:0:0:0:
280,119,18534,1,0,0:0:0:0:
284,148,18609,1,0,0:0:0:0:
287,178,18684,1,0,0:0:0:0:
410,176,18834,1,0,0:0:0:0:
413,205,18909,1,0,0:0:0:0:
417,235,18984,1,0,0:0:0:0:
421,264,19059,1,0,0:0:0:0:
424,294,19134,1,0,0:0:0:0:
86,357,19584,5,0,0:0:0:0:
86,357,19734,1,0,0:0:0:0:
57,271,19884,1,0,0:0:0:0:
77,274,19959,1,0,0:0:0:0:
98,277,20034,1,0,0:0:0:0:
119,281,20109,1,0,0:0:0:0:
140,284,20184,1,0,0:0:0:0:
270,189,20334,1,0,0:0:0:0:
83,184,20634,6,0,P|137:186|197:131,1,127.499998676777
140,284,21084,1,0,0:0:0:0:
140,284,21384,1,0,0:0:0:0:
316,361,21684,2,0,L|386:344,1,63.7499993383884
485,327,21984,5,0,0:0:0:0:
485,327,22134,1,0,0:0:0:0:
448,231,22284,1,0,0:0:0:0:
427,235,22359,1,0,0:0:0:0:
406,240,22434,1,0,0:0:0:0:
385,245,22509,1,0,0:0:0:0:
365,250,22584,1,0,0:0:0:0:
220,192,22734,1,0,0:0:0:0:
220,192,23034,6,0,P|248:248|240:323,1,127.499998676777
147,151,23484,1,0,0:0:0:0:
164,127,23559,1,0,0:0:0:0:
189,111,23634,1,0,0:0:0:0:
218,105,23709,1,0,0:0:0:0:
247,111,23784,1,0,0:0:0:0:
247,111,24084,2,0,P|269:136|310:147,1,63.7499993383884
434,150,24384,6,0,L|413:232,1,63.7499993383884
340,353,24684,1,0,0:0:0:0:
343,332,24759,1,0,0:0:0:0:
341,310,24834,1,0,0:0:0:0:
335,290,24909,1,0,0:0:0:0:
324,272,24984,1,0,0:0:0:0:
153,341,25134,1,0,0:0:0:0:
292,190,25434,6,0,P|240:225|236:287,1,127.499998676777
157,176,25884,1,0,0:0:0:0:
157,176,26184,1,0,0:0:0:0:
363,124,26484,2,0,P|337:109|296:98,1,63.7499993383884
46,116,26784,6,0,L|67:197,1,63.7499993383884
31,304,27084,1,0,0:0:0:0:
57,293,27159,1,0,0:0:0:0:
86,292,27234,1,0,0:0:0:0:
113,300,27309,1,0,0:0:0:0:
137,316,27384,1,0,0:0:0:0:
257,184,27534,1,0,0:0:0:0:
257,184,27834,6,0,P|280:240|256:320,1,127.499998676777
186,137,28284,1,0,0:0:0:0:
203,112,28359,1,0,0:0:0:0:
229,97,28434,1,0,0:0:0:0:
258,94,28509,1,0,0:0:0:0:
286,101,28584,1,0,0:0:0:0:
176,227,28734,1,0,0:0:0:0:
58,183,28884,1,0,0:0:0:0:
286,101,29034,1,0,0:0:0:0:
130,31,29184,6,0,L|132:94,1,63.7499993383884
196,251,29484,1,0,0:0:0:0:
217,250,29559,1,0,0:0:0:0:
238,249,29634,1,0,0:0:0:0:
259,248,29709,1,0,0:0:0:0:
280,247,29784,1,0,0:0:0:0:
444,156,29934,1,0,0:0:0:0:
356,299,30234,6,0,P|375:246|340:175,1,127.499998676777
140,284,30684,1,0,0:0:0:0:
140,284,30984,1,0,0:0:0:0:
23,228,31284,2,0,P|49:216|94:219,1,63.7499993383884
222,335,31584,5,0,0:0:0:0:
222,335,31734,1,0,0:0:0:0:
177,102,31884,1,0,0:0:0:0:
173,124,31959,1,0,0:0:0:0:
169,146,32034,1,0,0:0:0:0:
166,168,32109,1,0,0:0:0:0:
162,190,32184,1,0,0:0:0:0:
357,299,32334,1,0,0:0:0:0:
261,163,32634,6,0,P|312:200|397:187,1,127.499998676777
286,72,33084,1,0,0:0:0:0:
255,62,33159,1,0,0:0:0:0:
224,67,33234,1,0,0:0:0:0:
198,86,33309,1,0,0:0:0:0:
183,113,33384,1,0,0:0:0:0:
183,113,33684,2,0,L|107:89,1,63.7499993383884
40,293,33984,6,0,P|64:275|102:259,1,63.7499993383884
296,333,34284,1,0,0:0:0:0:
264,329,34359,1,0,0:0:0:0:
233,320,34434,1,0,0:0:0:0:
205,306,34509,1,0,0:0:0:0:
180,287,34584,1,0,0:0:0:0:
253,158,34734,1,0,0:0:0:0:
28,204,35034,6,0,P|79:178|163:193,1,127.499998676777
121,353,35484,1,0,0:0:0:0:
121,353,35784,1,0,0:0:0:0:
277,260,36084,2,0,L|289:328,1,63.7499993383884
155,129,36384,6,0,L|164:65,1,63.7499993383884
341,180,36684,1,0,0:0:0:0:
370,190,36759,1,0,0:0:0:0:
402,190,36834,1,0,0:0:0:0:
431,178,36909,1,0,0:0:0:0:
454,156,36984,1,0,0:0:0:0:
255,121,37134,1,0,0:0:0:0:
255,121,37434,6,0,L|251:215,1,63.7499993383884
343,83,37734,1,0,0:0:0:0:
284,280,37884,2,0,P|254:285|203:262,1,63.7499993383884
70,207,38184,1,0,0:0:0:0:
100,198,38259,1,0,0:0:0:0:
131,203,38334,1,0,0:0:0:0:
244,306,38484,6,0,P|274:314|345:288,1,84.9999958753585
410,196,38784,6,0,B|428:237|428:237|411:300,1,84.9999958753585
160,378,39084,2,0,B|142:337|142:337|159:274,1,84.9999958753585
179,181,39384,1,0,0:0:0:0:
265,262,39534,1,0,0:0:0:0:
265,262,39609,1,0,0:0:0:0:
265,262,39684,1,0,0:0:0:0:
63,321,39834,1,0,0:0:0:0:
66,79,39984,5,0,0:0:0:0:
92,91,40059,1,0,0:0:0:0:
120,101,40134,1,0,0:0:0:0:
150,107,40209,1,0,0:0:0:0:
179,109,40284,1,0,0:0:0:0:
390,152,40434,2,0,P|348:159|309:176,1,84.9999958753585
176,280,40734,1,0,0:0:0:0:
222,196,40884,1,0,0:0:0:0:
222,196,41034,1,0,0:0:0:0:
397,257,41184,6,0,L|412:350,1,84.9999958753585
310,130,41484,2,0,L|325:37,1,84.9999958753585
480,225,41784,1,0,0:0:0:0:
290,266,41934,1,0,0:0:0:0:
290,266,42009,1,0,0:0:0:0:
290,266,42084,1,0,0:0:0:0:
400,105,42234,1,0,0:0:0:0:
214,188,42384,5,0,0:0:0:0:
184,188,42459,1,0,0:0:0:0:
154,183,42534,1,0,0:0:0:0:
127,173,42609,1,0,0:0:0:0:
101,158,42684,1,0,0:0:0:0:
240,72,42834,2,0,P|272:56|320:48,1,84.9999958753585
477,214,43134,1,0,0:0:0:0:
317,328,43284,1,0,0:0:0:0:
304,136,43434,1,0,0:0:0:0:
407,291,43584,6,0,L|511:315,1,84.9999958753585
270,229,43884,2,0,L|166:253,1,84.9999958753585
317,328,44184,1,0,0:0:0:0:
404,149,44334,1,0,0:0:0:0:
404,149,44409,1,0,0:0:0:0:
404,149,44484,1,0,0:0:0:0:
270,229,44634,1,0,0:0:0:0:
120,56,44784,5,0,0:0:0:0:
141,74,44859,1,0,0:0:0:0:
159,98,44934,1,0,0:0:0:0:
170,126,45009,1,0,0:0:0:0:
173,155,45084,1,0,0:0:0:0:
24,288,45234,2,0,P|48:256|96:232,1,84.9999958753585
304,304,45534,1,0,0:0:0:0:
192,272,45684,1,0,0:0:0:0:
192,272,45834,1,0,0:0:0:0:
448,80,45984,6,0,L|432:168,1,84.9999958753585
304,304,46284,2,0,L|288:216,1,84.9999958753585
264,112,46584,1,0,0:0:0:0:
384,248,46734,1,0,0:0:0:0:
384,248,46809,1,0,0:0:0:0:
384,248,46884,1,0,0:0:0:0:
192,320,47034,1,0,0:0:0:0:
48,264,47184,6,0,L|112:248,1,42.4999979376793
192,192,47334,2,0,L|128:176,1,42.4999979376793
56,80,47484,2,0,L|72:176,1,84.9999958753585
279,265,47784,1,0,0:0:0:0:
281,243,47859,1,0,0:0:0:0:
284,222,47934,1,0,0:0:0:0:
286,201,48009,1,0,0:0:0:0:
288,184,48084,5,0,0:0:0:0:
315,147,48159,1,0,0:0:0:0:
359,133,48234,1,0,0:0:0:0:
403,146,48309,1,0,0:0:0:0:
432,176,48384,2,0,P|472:176|512:144,1,84.9999958753585
280,72,48684,2,0,P|246:47|204:46,1,84.9999958753585
192,264,48984,1,0,0:0:0:0:
368,224,49134,1,0,0:0:0:0:
368,224,49209,1,0,0:0:0:0:
368,224,49284,1,0,0:0:0:0:
224,128,49434,1,0,0:0:0:0:
120,360,49584,5,0,0:0:0:0:
149,355,49659,1,0,0:0:0:0:
178,350,49734,1,0,0:0:0:0:
208,346,49809,1,0,0:0:0:0:
237,341,49884,1,0,0:0:0:0:
452,236,50034,2,0,L|348:220,1,84.9999958753585
119,104,50334,1,0,0:0:0:0:
152,272,50484,1,0,0:0:0:0:
280,160,50634,1,0,0:0:0:0:
50,248,50784,6,0,B|34:212|34:212|45:163,1,84.9999958753585
205,22,51084,2,0,B|221:59|221:59|207:107,1,84.9999958753585
136,189,51384,1,0,0:0:0:0:
303,333,51534,1,0,0:0:0:0:
303,333,51609,1,0,0:0:0:0:
303,333,51684,1,0,0:0:0:0:
409,257,51834,1,0,0:0:0:0:
208,243,51984,5,0,0:0:0:0:
210,272,52059,1,0,0:0:0:0:
212,302,52134,1,0,0:0:0:0:
214,331,52209,1,0,0:0:0:0:
217,361,52284,1,0,0:0:0:0:
421,237,52434,2,0,L|410:133,1,84.9999958753585
289,69,52734,1,0,0:0:0:0:
305,193,52884,1,0,0:0:0:0:
305,193,53034,1,0,0:0:0:0:
153,302,53184,6,0,L|52:311,1,84.9999958753585
29,94,53484,2,0,L|117:108,1,84.9999958753585
308,129,53784,1,0,0:0:0:0:
159,209,53934,1,0,0:0:0:0:
159,209,54009,1,0,0:0:0:0:
159,209,54084,1,0,0:0:0:0:
165,24,54234,1,0,0:0:0:0:
345,217,54384,5,0,0:0:0:0:
374,219,54459,1,0,0:0:0:0:
403,214,54534,1,0,0:0:0:0:
429,200,54609,1,0,0:0:0:0:
450,179,54684,1,0,0:0:0:0:
288,98,54834,2,0,P|244:101|203:119,1,84.9999958753585
84,258,55134,1,0,0:0:0:0:
252,362,55284,1,0,0:0:0:0:
258,197,55434,1,0,0:0:0:0:
66,64,55584,6,0,P|60:101|54:162,1,84.9999958753585
162,347,55884,2,0,P|166:304|173:262,1,84.9999958753585
258,197,56184,1,0,0:0:0:0:
366,257,56334,1,0,0:0:0:0:
366,257,56409,1,0,0:0:0:0:
366,257,56484,1,0,0:0:0:0:
452,94,56634,1,0,0:0:0:0:
334,32,56784,6,0,L|340:93,1,42.4999979376793
400,168,56934,1,0,0:0:0:0:
371,160,57009,1,0,0:0:0:0:
344,168,57084,1,0,0:0:0:0:
255,297,57234,1,0,0:0:0:0:
120,56,57384,5,0,0:0:0:0:
83,74,57459,1,0,0:0:0:0:
68,113,57534,1,0,0:0:0:0:
83,152,57609,1,0,0:0:0:0:
121,170,57684,2,0,L|176:176,1,42.4999979376793
248,112,57834,2,0,L|297:104,1,42.4999979376793
408,83,57984,5,0,0:0:0:0:
358,335,58284,6,0,L|254:311,1,84.9999958753585
163,363,58584,2,0,L|59:339,1,84.9999958753585
80,343,58884,1,0,0:0:0:0:
190,268,59034,1,0,0:0:0:0:
27,215,59184,6,0,L|192:164,1,169.999991750717
247,42,59634,2,0,L|154:71,1,84.9999958753585
281,225,59934,2,0,L|362:199,1,84.9999958753585
441,109,60234,5,0,0:0:0:0:
441,109,60309,1,0,0:0:0:0:
441,109,60384,2,0,L|336:92,1,84.9999958753585
165,67,60684,1,0,0:0:0:0:
165,67,60984,1,0,0:0:0:0:
302,189,61134,2,0,L|197:172,1,84.9999958753585
193,276,61434,6,0,L|25:244,1,169.999991750717
128,161,61884,1,0,0:0:0:0:
265,339,62034,2,0,L|363:321,1,84.9999958753585
445,306,62334,1,0,0:0:0:0:
291,210,62484,2,0,L|389:192,1,84.9999958753585
468,175,62784,1,0,0:0:0:0:
468,175,62934,1,0,0:0:0:0:
323,36,63084,6,0,L|304:136,1,84.9999958753585
291,210,63384,1,0,0:0:0:0:
220,65,63534,2,0,L|201:165,1,84.9999958753585
181,242,63834,1,0,0:0:0:0:
53,160,63984,6,0,L|93:331,1,169.999991750717
201,324,64434,2,0,L|174:217,1,84.9999958753585
278,206,64734,2,0,L|298:288,1,84.9999958753585
432,347,65034,5,0,0:0:0:0:
441,305,65109,1,0,0:0:0:0:
450,264,65184,1,0,0:0:0:0:
399,141,65334,2,0,L|415:78,1,42.4999979376793
390,72,65484,2,0,L|369:161,1,84.9999958753585
344,257,65784,1,0,0:0:0:0:
239,192,65934,1,0,0:0:0:0:
232,158,66009,1,0,0:0:0:0:
226,125,66084,1,0,0:0:0:0:
103,60,66234,6,0,L|71:234,1,169.999991750717
197,271,66684,2,0,L|221:357,1,84.9999958753585
219,352,66984,1,0,0:0:0:0:
331,258,67134,2,0,L|353:176,1,84.9999958753585
383,63,67434,1,0,0:0:0:0:
383,63,67509,1,0,0:0:0:0:
383,63,67584,1,0,0:0:0:0:
70,189,68034,5,0,0:0:0:0:
144,244,68184,2,0,P|162:184|139:126,1,127.499998676777
450,296,68784,5,0,0:0:0:0:
450,296,69084,1,0,0:0:0:0:
381,230,69384,2,0,P|357:287|376:347,1,127.499998676777
376,347,69834,1,0,0:0:0:0:
158,320,69984,5,0,0:0:0:0:
158,320,70434,1,0,0:0:0:0:
252,294,70584,2,0,P|275:236|256:176,1,127.499998676777
255,78,71034,5,0,0:0:0:0:
255,78,71334,1,0,0:0:0:0:
485,243,71784,5,0,0:0:0:0:
459,228,71859,1,0,0:0:0:0:
429,224,71934,1,0,0:0:0:0:
400,229,72009,1,0,0:0:0:0:
375,245,72084,1,0,0:0:0:0:
353,264,72159,1,0,0:0:0:0:
325,274,72234,1,0,0:0:0:0:
295,275,72309,1,0,0:0:0:0:
267,265,72384,6,0,L|167:277,1,84.9999958753585,2|0,0:0|0:0,0:0:0:0:
183,275,72609,1,0,0:0:0:0:
183,275,72684,1,8,0:0:0:0:
80,344,72834,1,0,0:0:0:0:
24,176,72984,5,2,0:0:0:0:
50,190,73059,1,0,0:0:0:0:
78,198,73134,1,0,0:0:0:0:
107,200,73209,1,0,0:0:0:0:
136,195,73284,2,0,P|176:176|208:144,1,84.9999958753585,8|0,0:0|0:0,0:0:0:0:
328,72,73584,5,2,0:0:0:0:
304,58,73659,1,0,0:0:0:0:
276,47,73734,1,0,0:0:0:0:
247,43,73809,1,0,0:0:0:0:
217,44,73884,1,8,0:0:0:0:
112,104,74034,1,0,0:0:0:0:
32,320,74184,5,2,0:0:0:0:
54,304,74259,1,0,0:0:0:0:
82,291,74334,1,0,0:0:0:0:
110,285,74409,1,0,0:0:0:0:
140,284,74484,2,0,P|176:304|208:344,1,84.9999958753585,8|0,0:0|0:0,0:0:0:0:
318,296,74784,6,0,P|355:314|396:308,1,84.9999958753585,2|0,0:0|0:0,0:0:0:0:
398,308,75009,1,0,0:0:0:0:
398,308,75084,1,8,0:0:0:0:
480,200,75234,1,0,0:0:0:0:
345,86,75384,2,0,L|366:180,1,84.9999958753585,2|0,0:0|0:0,0:0:0:0:
364,169,75609,1,0,0:0:0:0:
364,169,75684,1,8,0:0:0:0:
240,272,75834,1,8,0:0:0:0:
165,120,75984,6,0,L|199:34,1,84.9999958753585,2|0,0:0|0:0,0:0:0:0:
196,40,76209,1,0,0:0:0:0:
196,40,76284,1,8,0:0:0:0:
254,183,76434,1,0,0:0:0:0:
158,259,76584,2,0,L|74:275,1,84.9999958753585,2|0,0:0|0:0,0:0:0:0:
314,329,76884,2,0,L|397:312,1,84.9999958753585,8|0,0:0|0:0,0:0:0:0:
422,127,77184,6,0,P|413:110|409:78,1,42.4999979376793,2|0,0:0|0:0,0:0:0:0:
410,67,77484,6,0,L|397:153,1,84.9999958753585,8|0,0:0|0:0,0:0:0:0:
379,239,77784,1,2,0:0:0:0:
328,30,77934,2,0,L|315:116,1,84.9999958753585,8|0,0:0|0:0,0:0:0:0:
297,202,78234,1,2,0:0:0:0:
233,12,78384,6,0,L|199:207,1,169.999991750717,4|8,0:0|0:0,0:0:0:0:
185,268,78834,1,0,0:0:0:0:
185,268,78909,1,0,0:0:0:0:
185,268,78984,1,0,0:0:0:0:
101,68,79134,1,0,0:0:0:0:
121,156,79284,1,8,0:0:0:0:
45,213,79434,1,0,0:0:0:0:
168,352,79584,6,0,P|205:350|251:327,1,84.9999958753585,2|0,0:0|0:0,0:0:0:0:
360,232,79884,1,8,0:0:0:0:
296,168,80034,1,0,0:0:0:0:
296,168,80109,1,0,0:0:0:0:
296,168,80184,2,0,P|276:205|273:247,1,84.9999958753585,2|0,0:0|0:0,0:0:0:0:
344,328,80484,1,8,0:0:0:0:
432,288,80634,5,0,0:0:0:0:
432,288,80709,1,0,0:0:0:0:
432,288,80784,1,2,0:0:0:0:
184,192,80934,1,0,0:0:0:0:
120,272,81084,2,0,L|136:368,1,84.9999958753585,8|0,0:0|0:0,0:0:0:0:
134,355,81309,1,0,0:0:0:0:
134,355,81384,1,0,0:0:0:0:
208,280,81534,1,0,0:0:0:0:
40,320,81684,1,8,0:0:0:0:
57,125,81834,5,0,0:0:0:0:
62,100,81909,1,0,0:0:0:0:
76,78,81984,1,0,0:0:0:0:
95,62,82059,1,0,0:0:0:0:
118,52,82134,1,0,0:0:0:0:
144,50,82209,1,0,0:0:0:0:
168,57,82284,2,0,L|210:87,1,42.4999979376793,0|0,1:0|0:0,0:0:0:0:
256,136,82434,5,0,0:0:0:0:
277,153,82509,1,0,0:0:0:0:
304,161,82584,1,2,0:2:0:0:
331,156,82659,1,0,0:0:0:0:
354,144,82734,2,0,L|392:120,1,42.4999979376793,0|0,1:3|0:0,0:0:0:0:
464,40,82884,5,0,0:0:0:0:
464,40,82959,1,0,0:0:0:0:
464,40,83034,2,0,L|472:104,1,42.4999979376793,0|0,1:0|0:0,0:0:0:0:
448,200,83184,5,2,0:2:0:0:
442,229,83259,1,0,0:0:0:0:
438,258,83334,1,0,0:0:0:0:
435,288,83409,1,0,0:0:0:0:
432,317,83484,2,0,P|408:312|368:312,1,42.4999979376793,0|0,1:0|0:0,0:0:0:0:
296,336,83634,5,0,0:0:0:0:
273,316,83709,1,0,0:0:0:0:
246,305,83784,1,2,0:2:0:0:
216,303,83859,1,0,0:0:0:0:
184,312,83934,2,0,P|162:324|116:337,1,42.4999979376793,0|0,1:0|0:0,0:0:0:0:
42,299,84084,1,0,0:0:0:0:
41,279,84159,1,0,0:0:0:0:
48,264,84234,2,0,P|72:272|96:272,1,42.4999979376793,0|0,1:0|0:0,0:0:0:0:
240,200,84384,5,2,0:2:0:0:
225,201,84459,1,0,0:0:0:0:
213,202,84534,2,0,P|187:204|165:210,1,42.4999979376793,0|0,1:0|0:0,0:0:0:0:
54,150,84684,2,0,P|75:147|96:144,1,42.4999979376793,0|0,1:0|0:0,0:0:0:0:
168,56,84834,5,0,0:0:0:0:
195,87,84909,1,0,0:0:0:0:
233,106,84984,1,2,0:2:0:0:
275,109,85059,1,0,0:0:0:0:
315,96,85134,2,0,P|335:85|364:74,1,42.4999979376793,0|0,1:0|0:0,0:0:0:0:
459,145,85284,2,0,P|439:141|417:132,1,42.4999979376793,0|0,1:0|0:0,0:0:0:0:
352,201,85434,5,0,0:0:0:0:
357,230,85509,1,0,0:0:0:0:
362,259,85584,1,2,0:2:0:0:
368,288,85659,1,0,0:0:0:0:
373,317,85734,2,0,L|324:338,1,42.4999979376793,0|0,1:0|0:0,0:0:0:0:
224,360,85884,2,0,L|170:350,1,42.4999979376793,0|0,1:0|0:0,0:0:0:0:
96,272,86034,1,0,0:0:0:0:
96,272,86109,1,0,0:0:0:0:
96,272,86184,5,2,0:2:0:0:
55,263,86259,1,0,0:0:0:0:
32,229,86334,1,0,1:0:0:0:
39,188,86409,1,0,0:0:0:0:
71,162,86484,1,2,1:2:0:0:
113,164,86559,1,0,0:0:0:0:
150,185,86634,1,2,0:2:0:0:
187,206,86709,1,0,0:0:0:0:
228,212,86784,1,0,0:0:0:0:
437,329,87084,5,0,0:0:0:0:
442,300,87159,1,0,0:0:0:0:
446,270,87234,1,0,0:0:0:0:
450,241,87309,1,0,0:0:0:0:
455,212,87384,1,0,0:0:0:0:
291,63,87534,5,0,0:0:0:0:
296,92,87609,1,0,0:0:0:0:
300,121,87684,1,0,0:0:0:0:
304,151,87759,1,0,0:0:0:0:
309,180,87834,1,0,0:0:0:0:
120,330,87984,5,0,0:0:0:0:
88,337,88059,1,0,0:0:0:0:
310,356,88209,1,0,0:0:0:0:
342,349,88284,1,0,0:0:0:0:
164,239,88434,5,0,0:0:0:0:
132,246,88509,1,0,0:0:0:0:
266,280,88659,1,0,0:0:0:0:
298,273,88734,1,0,0:0:0:0:
122,154,88884,5,0,0:0:0:0:
112,146,89184,6,0,L|120:62,1,84.9999958753585
263,23,89484,2,0,L|270:107,1,84.9999958753585
325,279,89784,2,0,P|365:238|489:263,1,169.999991750717
414,330,90234,1,0,0:0:0:0:
232,352,90384,5,0,0:0:0:0:
139,321,90534,1,0,0:0:0:0:
139,224,90684,1,0,0:0:0:0:
232,193,90834,1,0,0:0:0:0:
435,185,90984,5,0,0:0:0:0:
390,186,91059,1,0,0:0:0:0:
352,167,91134,1,0,0:0:0:0:
329,132,91209,1,0,0:0:0:0:
305,98,91284,1,0,0:0:0:0:
267,80,91359,1,0,0:0:0:0:
225,80,91434,2,0,P|200:88|170:92,1,42.4999979376793
72,80,91584,5,0,0:0:0:0:
72,80,91884,2,0,L|64:152,1,63.7499993383884
48,248,92184,1,0,0:0:0:0:
144,304,92334,1,0,0:0:0:0:
232,240,92484,1,0,0:0:0:0:
168,64,92634,2,0,L|147:209,1,127.499998676777,2|0,0:0|0:0,0:0:0:0:
301,355,93234,5,0,0:0:0:0:
301,355,93384,2,0,P|349:331|429:347,1,127.499998676777
440,80,93984,5,0,0:0:0:0:
440,80,94284,2,0,L|448:152,1,63.7499993383884
461,245,94584,1,0,0:0:0:0:
368,304,94734,1,0,0:0:0:0:
280,240,94884,1,0,0:0:0:0:
344,64,95034,2,0,L|365:209,1,127.499998676777,2|0,0:0|0:0,0:0:0:0:
304,352,95634,6,0,L|248:344,1,31.8749996691942
192,336,95784,1,0,0:0:0:0:
288,256,95934,1,0,0:0:0:0:
266,253,96009,1,0,0:0:0:0:
243,250,96084,1,0,0:0:0:0:
120,80,96384,6,0,L|111:191,1,84.9999958753585
113,164,96609,1,0,0:0:0:0:
113,164,96684,1,0,0:0:0:0:
208,56,96834,1,0,0:0:0:0:
24,136,96984,1,0,0:0:0:0:
24,136,97059,1,0,0:0:0:0:
24,136,97134,1,0,0:0:0:0:
160,248,97284,1,0,0:0:0:0:
113,164,97434,1,0,0:0:0:0:
48,336,97584,6,0,L|144:328,1,84.9999958753585
248,368,97884,1,0,0:0:0:0:
360,224,98034,1,0,0:0:0:0:
357,253,98109,1,0,0:0:0:0:
355,283,98184,1,0,0:0:0:0:
216,176,98334,2,0,L|213:120,1,42.4999979376793
205,55,98484,1,0,0:0:0:0:
320,112,98634,1,0,0:0:0:0:
136,240,98784,6,0,L|24:224,1,84.9999958753585
51,228,99009,1,0,0:0:0:0:
51,228,99084,1,0,0:0:0:0:
112,136,99234,1,0,0:0:0:0:
112,136,99309,1,0,0:0:0:0:
112,136,99384,1,0,0:0:0:0:
200,320,99534,1,0,0:0:0:0:
384,304,99684,2,0,B|400:264|400:264|392:216,1,84.9999958753585
203,79,99984,6,0,L|194:32,4,28.3333319584528
214,122,100284,1,0,0:0:0:0:
197,301,100434,6,0,L|206:348,4,28.3333319584528
186,258,100734,1,0,0:0:0:0:
318,195,100884,6,0,L|365:186,4,28.3333319584528
275,206,101184,1,0,0:0:0:0:
96,189,101334,6,0,L|49:198,4,28.3333319584528
139,178,101634,1,0,0:0:0:0:
340,279,101784,5,0,0:0:0:0:
457,131,102384,6,0,L|443:37,1,84.9999958753585
340,279,102684,1,0,0:0:0:0:
419,237,102834,1,0,0:0:0:0:
396,205,102909,1,0,0:0:0:0:
362,187,102984,1,0,0:0:0:0:
325,186,103059,1,0,0:0:0:0:
290,201,103134,1,0,0:0:0:0:
207,298,103284,1,0,0:0:0:0:
123,129,103434,1,0,0:0:0:0:
123,129,103734,5,0,0:0:0:0:
79,333,103884,2,0,L|67:242,1,84.9999958753585
94,222,104109,1,0,0:0:0:0:
128,205,104184,1,0,0:0:0:0:
166,202,104259,1,0,0:0:0:0:
202,213,104334,1,0,0:0:0:0:
302,65,104484,2,0,P|258:72|204:76,1,84.9999958753585
209,305,104784,6,0,L|311:291,1,84.9999958753585
476,188,105084,1,0,0:0:0:0:
421,263,105234,1,0,0:0:0:0:
392,236,105309,1,0,0:0:0:0:
379,201,105384,1,0,0:0:0:0:
381,164,105459,1,0,0:0:0:0:
400,131,105534,1,0,0:0:0:0:
476,188,105684,1,0,0:0:0:0:
305,122,105834,1,0,0:0:0:0:
305,122,106134,5,0,0:0:0:0:
156,222,106284,2,0,P|197:226|235:207,1,84.9999958753585
230,169,106509,1,0,0:0:0:0:
224,131,106584,1,0,0:0:0:0:
219,93,106659,1,0,0:0:0:0:
214,55,106734,1,0,0:0:0:0:
410,46,106884,2,0,L|396:155,1,84.9999958753585
379,343,107184,6,0,L|331:326,1,42.4999979376793
254,293,107334,2,0,L|191:304,1,42.4999979376793
118,341,107484,1,0,0:0:0:0:
15,205,107634,1,0,0:0:0:0:
50,191,107709,1,0,0:0:0:0:
87,195,107784,1,0,0:0:0:0:
119,216,107859,1,0,0:0:0:0:
137,249,107934,1,0,0:0:0:0:
288,200,108084,1,0,0:0:0:0:
249,37,108234,1,0,0:0:0:0:
249,37,108534,5,0,0:0:0:0:
349,95,108684,2,0,P|317:119|258:122,1,84.9999958753585
239,119,108909,1,0,0:0:0:0:
200,102,108984,1,0,0:0:0:0:
158,96,109059,1,0,0:0:0:0:
116,101,109134,1,0,0:0:0:0:
45,288,109284,2,0,L|141:269,1,84.9999958753585
298,355,109584,6,0,L|307:295,1,42.4999979376793
397,281,109734,2,0,L|388:221,1,42.4999979376793
322,169,109884,1,0,0:0:0:0:
471,74,110034,1,0,0:0:0:0:
481,161,110184,1,0,0:0:0:0:
443,158,110259,1,0,0:0:0:0:
412,136,110334,1,0,0:0:0:0:
354,27,110484,1,0,0:0:0:0:
202,58,110634,5,0,0:0:0:0:
229,84,110709,1,0,0:0:0:0:
243,119,110784,1,0,0:0:0:0:
242,157,110859,1,0,0:0:0:0:
225,191,110934,1,0,0:0:0:0:
129,321,111084,2,0,L|29:337,1,84.9999958753585
102,216,111384,2,0,P|127:220|158:235,1,42.4999979376793
254,294,111534,1,0,0:0:0:0:
326,118,111684,2,0,L|339:71,2,42.4999979376793
356,229,111984,6,0,L|373:324,1,84.9999958753585
439,158,112284,1,0,0:0:0:0:
279,220,112434,1,0,0:0:0:0:
256,250,112509,1,0,0:0:0:0:
222,268,112584,1,0,0:0:0:0:
184,270,112659,1,0,0:0:0:0:
149,256,112734,1,0,0:0:0:0:
59,56,112884,1,0,0:0:0:0:
195,178,113034,1,0,0:0:0:0:
195,178,113334,5,0,0:0:0:0:
38,244,113484,2,0,P|28:209|43:149,1,84.9999958753585
73,161,113709,1,0,0:0:0:0:
109,147,113784,1,0,0:0:0:0:
136,121,113859,1,0,0:0:0:0:
150,85,113934,1,0,0:0:0:0:
319,84,114084,2,0,P|275:73|235:47,1,84.9999958753585
267,241,114384,6,0,L|285:323,1,84.9999958753585
370,266,114684,1,0,0:0:0:0:
278,153,114834,1,0,0:0:0:0:
240,152,114909,1,0,0:0:0:0:
207,168,114984,1,0,0:0:0:0:
182,196,115059,1,0,0:0:0:0:
172,234,115134,1,0,0:0:0:0:
370,266,115284,1,0,0:0:0:0:
400,132,115434,1,0,0:0:0:0:
400,132,115734,5,0,0:0:0:0:
207,168,115884,2,0,P|166:159|126:125,1,84.9999958753585
104,110,116109,1,0,0:0:0:0:
99,148,116184,1,0,0:0:0:0:
93,185,116259,1,0,0:0:0:0:
86,223,116334,1,0,0:0:0:0:
301,129,116484,2,0,L|290:32,1,84.9999958753585
263,255,116784,6,0,L|266:300,1,42.4999979376793
369,261,116934,2,0,L|363:217,1,42.4999979376793
207,168,117084,1,0,0:0:0:0:
40,309,117234,1,0,0:0:0:0:
75,323,117309,1,0,0:0:0:0:
112,319,117384,1,0,0:0:0:0:
144,298,117459,1,0,0:0:0:0:
162,265,117534,1,0,0:0:0:0:
94,89,117684,1,0,0:0:0:0:
80,226,117834,1,0,0:0:0:0:
80,226,118134,5,0,0:0:0:0:
239,350,118284,2,0,P|278:331|338:336,1,84.9999958753585
357,348,118509,1,0,0:0:0:0:
363,310,118584,1,0,0:0:0:0:
370,272,118659,1,0,0:0:0:0:
376,234,118734,1,0,0:0:0:0:
464,108,118884,2,0,L|376:117,1,84.9999958753585
192,179,119184,6,0,L|185:130,1,42.4999979376793
278,57,119334,2,0,L|285:100,1,42.4999979376793
288,208,119484,1,0,0:0:0:0:
104,160,119634,1,0,0:0:0:0:
172,41,119784,1,0,0:0:0:0:
172,41,119859,1,0,0:0:0:0:
172,41,119934,1,0,0:0:0:0:
288,208,120084,1,0,0:0:0:0:
94,320,120234,5,0,0:0:0:0:
113,287,120309,1,0,0:0:0:0:
144,266,120384,1,0,0:0:0:0:
183,262,120459,1,0,0:0:0:0:
218,276,120534,1,0,0:0:0:0:
311,356,120684,1,0,0:0:0:0:
288,208,120834,1,0,0:0:0:0:
80,192,120984,2,0,L|32:203,2,42.4999979376793
184,183,121284,2,0,L|172:98,1,84.9999958753585
320,112,121584,5,0,0:0:0:0:
341,140,121659,1,0,0:0:0:0:
374,161,121734,1,0,0:0:0:0:
412,166,121809,1,0,0:0:0:0:
449,157,121884,1,0,0:0:0:0:
400,64,122034,1,0,0:0:0:0:
236,269,122184,2,0,L|137:283,1,84.9999958753585
151,281,122409,1,0,0:0:0:0:
151,281,122484,1,0,0:0:0:0:
184,183,122634,1,0,0:0:0:0:
294,345,122784,5,0,0:0:0:0:
448,267,122934,1,0,0:0:0:0:
448,267,123009,1,0,0:0:0:0:
448,267,123084,1,0,0:0:0:0:
319,135,123234,2,0,L|304:255,1,84.9999958753585
96,160,123534,1,0,0:0:0:0:
96,160,123609,1,0,0:0:0:0:
96,160,123684,2,0,L|80:52,1,84.9999958753585
200,120,123984,5,0,0:0:0:0:
360,304,124134,1,0,0:0:0:0:
401,312,124209,1,0,0:0:0:0:
441,301,124284,1,0,0:0:0:0:
471,272,124359,1,0,0:0:0:0:
485,232,124434,1,0,0:0:0:0:
416,104,124584,1,0,0:0:0:0:
308,219,124734,1,0,0:0:0:0:
308,219,124809,1,0,0:0:0:0:
308,219,124884,2,0,P|266:205|202:203,1,84.9999958753585
64,272,125184,5,0,0:0:0:0:
144,64,125334,1,0,0:0:0:0:
148,97,125409,1,0,0:0:0:0:
153,131,125484,1,0,0:0:0:0:
232,360,125634,2,0,L|251:258,1,84.9999958753585
432,88,125934,2,0,L|382:96,1,42.4999979376793
352,82,126084,2,0,L|367:165,1,84.9999958753585
474,318,126384,5,0,0:0:0:0:
455,285,126459,1,0,0:0:0:0:
423,264,126534,1,0,0:0:0:0:
385,259,126609,1,0,0:0:0:0:
350,272,126684,1,0,0:0:0:0:
249,361,126834,1,0,0:0:0:0:
120,311,126984,2,0,L|104:201,1,84.9999958753585
108,227,127209,1,0,0:0:0:0:
108,227,127284,1,0,0:0:0:0:
269,160,127434,1,0,0:0:0:0:
214,263,127584,5,0,0:0:0:0:
51,143,127734,1,0,0:0:0:0:
51,143,127809,1,0,0:0:0:0:
51,143,127884,1,0,0:0:0:0:
190,62,128034,2,0,L|175:182,1,84.9999958753585
309,325,128334,1,0,0:0:0:0:
309,325,128409,1,0,0:0:0:0:
309,325,128484,2,0,L|293:217,1,84.9999958753585
371,131,128784,5,0,0:0:0:0:
80,256,128934,1,0,0:0:0:0:
101,292,129009,1,0,0:0:0:0:
135,316,129084,1,0,0:0:0:0:
177,324,129159,1,0,0:0:0:0:
218,313,129234,1,0,0:0:0:0:
408,250,129384,1,0,0:0:0:0:
205,65,129534,1,0,0:0:0:0:
201,89,129609,1,0,0:0:0:0:
198,112,129684,1,0,0:0:0:0:
443,173,129834,2,0,L|384:163,1,42.4999979376793
292,175,129984,5,0,0:0:0:0:
317,349,130134,1,0,0:0:0:0:
317,349,130209,1,0,0:0:0:0:
317,349,130284,2,0,L|328:257,1,84.9999958753585
355,86,130584,1,0,0:0:0:0:
69,198,130884,1,0,0:0:0:0:
378,173,131184,5,0,0:0:0:0:
414,183,131259,1,0,0:0:0:0:
451,177,131334,1,0,0:0:0:0:
482,155,131409,1,0,0:0:0:0:
500,121,131484,1,0,0:0:0:0:
355,86,131634,1,0,0:0:0:0:
407,266,131784,2,0,P|418:308|420:361,1,84.9999958753585
421,349,132009,1,0,0:0:0:0:
421,349,132084,1,0,0:0:0:0:
190,288,132234,1,0,0:0:0:0:
284,201,132384,5,0,0:0:0:0:
258,365,132534,1,0,0:0:0:0:
258,365,132609,1,0,0:0:0:0:
258,365,132684,1,0,0:0:0:0:
73,326,132834,2,0,L|58:227,1,84.9999958753585
194,50,133134,1,0,0:0:0:0:
194,50,133209,1,0,0:0:0:0:
194,50,133284,2,0,L|181:134,1,84.9999958753585
156,247,133584,5,0,0:0:0:0:
342,340,133734,1,0,0:0:0:0:
379,346,133809,1,0,0:0:0:0:
417,336,133884,1,0,0:0:0:0:
446,312,133959,1,0,0:0:0:0:
463,277,134034,1,0,0:0:0:0:
440,117,134184,1,0,0:0:0:0:
368,252,134334,1,0,0:0:0:0:
368,252,134409,1,0,0:0:0:0:
368,252,134484,2,0,P|336:224|288:216,1,84.9999958753585
96,328,134784,5,0,0:0:0:0:
40,208,134934,1,0,0:0:0:0:
44,174,135009,1,0,0:0:0:0:
48,141,135084,1,0,0:0:0:0:
200,240,135234,2,0,L|210:324,1,84.9999958753585
408,224,135534,2,0,L|412:177,1,42.4999979376793
416,152,135684,2,0,L|318:140,1,84.9999958753585
112,64,135984,5,0,0:0:0:0:
119,104,136059,1,0,0:0:0:0:
148,135,136134,1,0,0:0:0:0:
188,145,136209,1,0,0:0:0:0:
228,131,136284,1,0,0:0:0:0:
328,56,136434,1,0,0:0:0:0:
224,256,136584,2,0,L|120:279,1,84.9999958753585
141,274,136809,1,0,0:0:0:0:
141,274,136884,1,0,0:0:0:0:
80,192,137034,1,0,0:0:0:0:
296,320,137184,5,0,0:0:0:0:
472,208,137334,1,0,0:0:0:0:
472,208,137409,1,0,0:0:0:0:
472,208,137484,1,0,0:0:0:0:
368,96,137634,2,0,B|356:137|356:137|369:177,1,84.9999958753585
464,312,137934,1,0,0:0:0:0:
464,312,138009,1,0,0:0:0:0:
464,312,138084,2,0,P|422:311|368:280,1,84.9999958753585
196,158,138384,5,0,0:0:0:0:
254,34,138534,1,0,0:0:0:0:
288,50,138609,1,0,0:0:0:0:
310,81,138684,1,0,0:0:0:0:
314,118,138759,1,0,0:0:0:0:
299,153,138834,1,0,0:0:0:0:
168,320,138984,1,0,0:0:0:0:
35,219,139134,1,0,0:0:0:0:
59,215,139209,1,0,0:0:0:0:
82,212,139284,1,0,0:0:0:0:
196,158,139434,2,0,L|188:219,1,42.4999979376793
276,301,139584,6,0,L|284:362,2,42.4999979376793
408,180,139884,2,0,L|393:89,1,84.9999958753585
82,212,140184,1,0,0:0:0:0:
84,253,140259,1,0,0:0:0:0:
109,286,140334,1,0,0:0:0:0:
149,299,140409,1,0,0:0:0:0:
189,287,140484,1,0,0:0:0:0:
336,231,140634,1,0,0:0:0:0:
254,110,140784,5,0,0:0:0:0:
256,208,141984,5,0,0:0:0:0:
256,328,143184,5,0,0:0:0:0:
165,186,143934,5,0,0:0:0:0:
88,140,144084,2,0,P|79:164|83:210,1,63.7499993383884
58,329,144384,6,0,P|98:304|184:318,1,127.499998676777
265,318,144834,2,0,P|305:343|391:329,1,127.499998676777
457,277,145284,1,0,0:0:0:0:
322,32,145584,6,0,P|271:189|421:58,1,509.999994707107
248,309,147534,6,0,P|309:284|377:319,1,127.499998676777
448,334,147984,6,0,L|459:254,1,63.7499993383884
385,209,148284,2,0,L|396:129,1,63.7499993383884
279,227,148584,2,0,L|290:147,1,63.7499993383884
186,160,148884,2,0,L|197:80,1,63.7499993383884
195,97,149109,1,0,0:0:0:0:
195,97,149184,5,0,0:0:0:0:
98,117,149334,1,0,0:0:0:0:
173,242,149484,1,0,0:0:0:0:
144,236,149559,1,0,0:0:0:0:
116,237,149634,1,0,0:0:0:0:
89,246,149709,1,0,0:0:0:0:
64,261,149784,1,0,0:0:0:0:
228,340,149934,1,0,0:0:0:0:
276,180,150084,2,0,L|282:249,1,42.4999979376793
345,346,150234,2,0,L|348:303,1,42.4999979376793
448,273,150384,5,0,0:0:0:0:
448,273,150684,2,0,L|433:175,1,84.9999958753585
420,79,150984,2,0,B|385:100|385:100|327:92,1,84.9999958753585
254,127,151284,1,0,0:0:0:0:
199,50,151434,1,0,0:0:0:0:
45,206,151584,5,0,0:0:0:0:
139,351,151884,1,0,0:0:0:0:
163,333,151959,1,0,0:0:0:0:
191,325,152034,1,0,0:0:0:0:
221,326,152109,1,0,0:0:0:0:
249,336,152184,1,0,0:0:0:0:
328,267,152334,1,0,0:0:0:0:
119,254,152484,1,0,0:0:0:0:
143,236,152559,1,0,0:0:0:0:
171,228,152634,1,0,0:0:0:0:
201,229,152709,1,0,0:0:0:0:
229,239,152784,5,0,0:0:0:0:
409,219,153084,1,0,0:0:0:0:
390,196,153159,1,0,0:0:0:0:
381,167,153234,1,0,0:0:0:0:
384,138,153309,1,0,0:0:0:0:
397,111,153384,1,0,0:0:0:0:
468,161,153534,1,0,0:0:0:0:
300,175,153684,1,0,0:0:0:0:
290,146,153759,1,0,0:0:0:0:
292,116,153834,1,0,0:0:0:0:
305,90,153909,1,0,0:0:0:0:
327,69,153984,5,0,0:0:0:0:
374,286,154284,1,0,0:0:0:0:
344,281,154359,1,0,0:0:0:0:
315,277,154434,1,0,0:0:0:0:
285,273,154509,1,0,0:0:0:0:
256,268,154584,1,0,0:0:0:0:
205,168,154734,1,0,0:0:0:0:
298,361,154884,1,0,0:0:0:0:
268,356,154959,1,0,0:0:0:0:
239,352,155034,1,0,0:0:0:0:
209,348,155109,1,0,0:0:0:0:
180,343,155184,5,0,0:0:0:0:
86,167,155484,1,0,0:0:0:0:
106,188,155559,1,0,0:0:0:0:
117,215,155634,1,0,0:0:0:0:
117,244,155709,1,0,0:0:0:0:
106,272,155784,1,0,0:0:0:0:
22,233,155934,1,0,0:0:0:0:
167,114,156084,1,0,0:0:0:0:
190,131,156159,1,0,0:0:0:0:
205,156,156234,1,0,0:0:0:0:
209,185,156309,1,0,0:0:0:0:
203,214,156384,5,0,0:0:0:0:
340,289,156684,1,0,0:0:0:0:
369,287,156759,1,0,0:0:0:0:
399,285,156834,1,0,0:0:0:0:
429,283,156909,1,0,0:0:0:0:
458,281,156984,1,0,0:0:0:0:
497,118,157134,1,0,0:0:0:0:
296,187,157284,1,0,0:0:0:0:
325,185,157359,1,0,0:0:0:0:
355,183,157434,1,0,0:0:0:0:
385,181,157509,1,0,0:0:0:0:
414,179,157584,5,0,0:0:0:0:
349,97,157734,1,0,0:0:0:0:
234,263,157884,2,0,B|217:306|217:306|237:362,1,84.9999958753585
296,187,158184,5,0,0:0:0:0:
111,256,158334,2,0,B|72:240|72:240|12:259,1,84.9999958753585
136,351,158634,1,0,0:0:0:0:
189,175,158784,5,0,0:0:0:0:
189,145,158859,1,0,0:0:0:0:
189,115,158934,1,0,0:0:0:0:
189,85,159009,1,0,0:0:0:0:
189,56,159084,1,0,0:0:0:0:
99,121,159234,1,0,0:0:0:0:
258,310,159534,5,0,0:0:0:0:
258,310,159984,5,0,0:0:0:0:
362,347,160134,1,2,0:0:0:0:
368,318,160209,1,0,0:0:0:0:
377,289,160284,1,0,0:0:0:0:
388,261,160359,1,0,0:0:0:0:
401,235,160434,1,0,0:0:0:0:
338,157,160584,5,2,0:0:0:0:
246,231,160734,1,0,0:0:0:0:
216,234,160809,1,0,0:0:0:0:
186,238,160884,1,0,0:0:0:0:
157,241,160959,1,0,0:0:0:0:
127,245,161034,1,0,0:0:0:0:
32,121,161184,6,0,P|67:136|132:153,1,84.9999958753585,0|2,0:0|0:0,0:0:0:0:
142,144,161409,1,0,0:0:0:0:
160,126,161484,1,0,0:0:0:0:
182,114,161559,1,0,0:0:0:0:
207,108,161634,1,0,0:0:0:0:
346,41,161784,6,0,L|320:130,1,84.9999958753585,2|0,0:0|0:0,0:0:0:0:
317,150,162009,1,0,0:0:0:0:
319,175,162084,1,0,0:0:0:0:
329,198,162159,1,0,0:0:0:0:
346,217,162234,1,0,0:0:0:0:
483,171,162384,5,2,0:0:0:0:
414,326,162534,1,0,0:0:0:0:
384,321,162609,1,0,0:0:0:0:
355,317,162684,2,0,P|313:321|272:352,1,84.9999958753585,2|0,0:0|0:0,0:0:0:0:
99,359,162984,5,2,0:0:0:0:
186,298,163134,1,0,0:0:0:0:
192,274,163209,1,0,0:0:0:0:
195,248,163284,2,0,P|161:220|113:217,1,84.9999958753585,2|0,0:0|0:0,0:0:0:0:
41,127,163584,5,2,0:0:0:0:
72,119,163659,1,0,0:0:0:0:
96,104,163734,1,0,0:0:0:0:
219,46,163884,2,0,P|209:87|222:126,1,84.9999958753585,2|0,0:0|0:0,0:0:0:0:
443,152,164184,5,2,0:0:0:0:
417,130,164259,1,0,0:0:0:0:
385,119,164334,1,0,0:0:0:0:
351,121,164409,1,0,0:0:0:0:
323,131,164484,1,2,0:0:0:0:
153,276,164634,1,2,0:0:0:0:
254,332,164784,5,4,0:1:0:0:
383,206,165084,5,8,0:0:0:0:
255,243,165234,1,0,3:3:0:0:
255,243,165309,1,0,3:0:0:0:
255,243,165384,1,0,3:3:0:0:
126,112,165534,5,8,0:0:0:0:
254,149,165684,1,0,3:3:0:0:
254,149,165759,1,0,3:0:0:0:
254,149,165834,1,0,3:0:0:0:
441,83,165984,5,8,0:3:0:0:
424,80,166034,1,0,3:0:0:0:
409,76,166084,1,0,3:0:0:0:
392,75,166134,1,0,3:0:0:0:
362,70,166209,1,0,3:0:0:0:
333,65,166284,1,0,3:3:0:0:
69,252,166434,5,4,0:3:0:0:
86,249,166484,1,0,3:0:0:0:
101,245,166534,1,0,3:0:0:0:
118,244,166584,1,0,3:0:0:0:
148,239,166659,1,0,3:0:0:0:
177,234,166734,1,0,3:0:0:0:
254,357,166884,5,6,3:2:0:0:
363,162,167184,6,0,P|409:162|442:195,1,84.9999958753585,2|0,0:0|0:0,0:0:0:0:
437,186,167409,1,0,0:0:0:0:
437,186,167484,1,8,0:0:0:0:
454,353,167634,1,0,0:0:0:0:
347,310,167784,1,2,0:0:0:0:
348,279,167859,1,0,0:0:0:0:
361,253,167934,1,0,0:0:0:0:
470,103,168084,2,0,L|525:89,2,42.4999979376793,8|0|8,0:0|0:0|0:0,0:0:0:0:
263,142,168384,6,0,B|248:102|248:102|266:52,1,84.9999958753585,2|0,0:0|0:0,0:0:0:0:
363,162,168684,1,8,0:0:0:0:
195,223,168834,1,0,0:0:0:0:
96,72,168984,2,0,L|104:16,2,42.4999979376793,8|0|0,3:2|3:0|3:0,3:0:0:0:
91,101,169209,1,0,3:0:0:0:
86,130,169284,1,0,3:0:0:0:
81,160,169359,1,0,3:0:0:0:
76,189,169434,1,0,3:0:0:0:
188,347,169584,5,2,0:2:0:0:
430,322,169734,2,0,L|388:315,1,42.4999979376793,0|0,1:3|0:0,0:0:0:0:
325,247,169884,1,0,0:0:0:0:
300,243,169959,1,0,0:0:0:0:
275,240,170034,1,0,0:0:0:0:
250,236,170109,1,0,0:0:0:0:
225,232,170184,1,2,1:2:0:0:
74,302,170334,5,0,0:0:0:0:
86,274,170409,1,0,0:0:0:0:
91,245,170484,1,0,0:0:0:0:
88,216,170559,1,0,0:0:0:0:
76,189,170634,1,0,1:3:0:0:
136,104,170784,1,2,0:2:0:0:
336,208,170934,6,0,L|384:216,1,42.4999979376793,0|0,1:3|0:0,0:0:0:0:
456,224,171084,1,0,0:0:0:0:
459,194,171159,1,0,0:0:0:0:
462,164,171234,1,0,0:0:0:0:
466,135,171309,1,0,0:0:0:0:
469,105,171384,1,2,1:2:0:0:
328,70,171534,5,0,0:0:0:0:
298,72,171609,1,0,0:0:0:0:
271,85,171684,1,0,0:0:0:0:
252,107,171759,1,0,0:0:0:0:
241,134,171834,1,0,1:3:0:0:
272,264,171984,1,2,0:2:0:0:
48,336,172134,6,0,L|57:273,1,42.4999979376793,2|0,1:2|0:0,0:0:0:0:
21,215,172284,1,0,0:0:0:0:
50,214,172359,1,0,0:0:0:0:
80,211,172434,1,0,0:0:0:0:
109,205,172509,1,0,0:0:0:0:
137,196,172584,1,2,1:2:0:0:
288,56,172734,6,0,L|299:111,1,42.4999979376793,2|0,1:2|0:0,0:0:0:0:
263,175,172884,1,0,0:0:0:0:
292,176,172959,1,0,0:0:0:0:
322,179,173034,1,0,0:0:0:0:
351,185,173109,1,0,0:0:0:0:
379,194,173184,1,2,1:2:0:0:
440,328,173334,5,2,1:2:0:0:
408,338,173409,1,0,0:0:0:0:
373,336,173484,1,2,1:2:0:0:
184,278,173634,6,0,L|192:242,3,28.3333319584528,0|0|0|2,0:0|0:0|0:0|0:2,0:0:0:0:
158,307,173859,5,0,0:0:0:0:
120,326,173934,1,0,0:0:0:0:
78,326,174009,1,0,0:0:0:0:
40,307,174084,1,2,1:2:0:0:
15,274,174159,1,0,0:0:0:0:
9,232,174234,1,0,1:0:0:0:
21,192,174309,1,0,0:0:0:0:
51,162,174384,1,0,0:0:0:0:
496,240,174684,5,0,0:0:0:0:
474,241,174759,1,0,0:0:0:0:
453,243,174834,1,0,0:0:0:0:
432,245,174909,1,0,0:0:0:0:
411,247,174984,1,0,0:0:0:0:
272,80,175134,5,0,0:0:0:0:
293,78,175209,1,0,0:0:0:0:
314,76,175284,1,0,0:0:0:0:
335,74,175359,1,0,0:0:0:0:
356,72,175434,1,0,0:0:0:0:
341,282,175584,5,0,0:0:0:0:
339,269,175634,1,0,0:0:0:0:
338,257,175684,1,0,0:0:0:0:
337,245,175734,1,0,0:0:0:0:
284,173,175884,1,0,0:0:0:0:
437,115,176034,5,0,0:0:0:0:
439,128,176084,1,0,0:0:0:0:
440,140,176134,1,0,0:0:0:0:
441,152,176184,1,0,0:0:0:0:
496,223,176334,1,0,0:0:0:0:
257,340,176484,5,0,0:0:0:0:
257,340,176784,6,0,L|248:248,1,84.9999958753585
432,272,177084,2,0,P|400:296|336:304,1,84.9999958753585
159,324,177384,2,0,P|104:269|130:186,1,169.999991750717
344,200,177834,1,0,0:0:0:0:
136,88,177984,5,0,0:0:0:0:
336,40,178134,1,0,0:0:0:0:
248,128,178284,1,0,0:0:0:0:
224,16,178434,1,0,0:0:0:0:
424,208,178584,5,0,0:0:0:0:
420,237,178659,1,0,0:0:0:0:
417,267,178734,1,0,0:0:0:0:
413,296,178809,1,0,0:0:0:0:
410,326,178884,2,0,P|384:336|352:344,1,42.4999979376793
248,336,179034,2,0,P|224:328|200:328,1,42.4999979376793
80,352,179184,5,0,0:0:0:0:
72,353,179484,6,0,L|33:342,3,28.3333319584528,8|0|0|0,3:3|3:0|3:0|3:0,3:0:0:0:
232,226,179784,5,10,0:0:0:0:
335,183,179934,1,2,0:0:0:0:
224,16,180084,5,8,0:0:0:0:
244,116,180234,1,8,0:0:0:0:
416,81,180384,5,4,0:0:0:0:
336,57,180534,1,8,0:0:0:0:
336,57,180609,1,8,0:0:0:0:
336,57,180684,1,8,0:0:0:0:
141,137,180834,6,0,B|127:180|127:180|141:229,1,84.9999958753585,8|0,0:0|0:0,0:0:0:0:
326,342,181134,1,4,0:0:0:0:
232,226,181284,1,8,0:0:0:0:
232,226,181359,1,8,0:0:0:0:
232,226,181434,1,8,0:0:0:0:
43,312,181584,6,0,L|149:301,1,84.9999958753585,2|0,0:3|0:0,0:0:0:0:
127,303,181809,1,0,0:0:0:0:
127,303,181884,1,8,0:0:0:0:
219,350,182034,1,0,0:0:0:0:
219,350,182109,1,0,0:0:0:0:
219,350,182184,1,0,0:0:0:0:
74,221,182334,1,0,0:0:0:0:
270,142,182484,1,0,0:0:0:0:
164,34,182634,6,0,B|144:65|144:65|152:134,1,84.9999958753585
386,121,182934,2,0,B|406:152|406:152|398:221,1,84.9999958753585
87,332,183234,1,0,0:0:0:0:
110,301,183309,1,0,0:0:0:0:
143,282,183384,1,0,0:0:0:0:
180,277,183459,1,0,0:0:0:0:
217,287,183534,1,0,0:0:0:0:
345,352,183684,2,0,P|388:359|438:331,1,84.9999958753585
305,177,183984,5,0,0:0:0:0:
305,177,184059,1,0,0:0:0:0:
305,177,184134,1,0,0:0:0:0:
156,197,184284,2,0,L|51:215,1,84.9999958753585
137,92,184584,1,0,0:0:0:0:
236,288,184734,2,0,L|131:306,1,84.9999958753585
137,92,185034,1,0,0:0:0:0:
305,177,185184,6,0,P|339:216|454:209,1,169.999991750717
413,60,185634,2,0,L|389:153,1,84.9999958753585
331,353,185934,1,0,0:0:0:0:
236,288,186084,2,0,P|195:271|148:281,1,84.9999958753585
155,277,186309,1,0,0:0:0:0:
155,277,186384,1,0,0:0:0:0:
44,192,186534,5,0,0:0:0:0:
44,192,186609,1,0,0:0:0:0:
44,192,186684,2,0,L|32:98,1,84.9999958753585
305,47,186984,1,0,0:0:0:0:
293,150,187134,1,0,0:0:0:0:
293,150,187209,1,0,0:0:0:0:
293,150,187284,1,0,0:0:0:0:
115,45,187434,6,0,P|170:59|168:160,1,169.999991750717
242,353,187884,2,0,P|227:275|298:240,1,169.999991750717
440,175,188334,2,0,P|368:140|383:62,1,169.999991750717
382,62,188709,1,0,0:0:0:0:
382,62,188784,1,0,0:0:0:0:
281,27,188934,1,0,0:0:0:0:
184,67,189084,6,0,P|151:93|109:100,1,84.9999958753585
35,74,189384,1,0,0:0:0:0:
336,178,189534,6,0,P|368:204|410:211,1,84.9999958753585
485,185,189834,1,0,0:0:0:0:
203,298,189984,6,0,P|127:336|38:330,1,169.999991750717
44,332,190434,1,0,0:0:0:0:
256,192,190884,5,0,0:0:0:0:
