osu file format v14

[General]
AudioFilename: audio.mp3
AudioLeadIn: 0
PreviewTime: 53539
Countdown: 0
SampleSet: Soft
StackLeniency: 0.7
Mode: 0
LetterboxInBreaks: 0
WidescreenStoryboard: 1

[Editor]
DistanceSpacing: 1.1
BeatDivisor: 4
GridSize: 32
TimelineZoom: 2.2

[Metadata]
Title:Anata no Aishita Sekai (TV Size)
TitleUnicode:あなたの愛した世界 (TV Size)
Artist:Yoshino Nanjo
ArtistUnicode:南條愛乃
Creator:officialAkage
Version:Yereoz's Insane
Source:グリザイアの果実
Tags:yereoz enuhq ninjaking311 grisaia no kajitsu fruit of grisaia -LE FRUIT DE LA GRISAIA- anime jpop j-pop j pop japanese female vocalist ending ed 2
BeatmapID:3447853
BeatmapSetID:1687018

[Difficulty]
HPDrainRate:4.5
CircleSize:3.8
OverallDifficulty:8.2
ApproachRate:8.8
SliderMultiplier:1.67
SliderTickRate:1

[Events]
//Background and Video events
0,0,"BG.jpg",0,0
Video,-750,"vid.mp4"
//Break Periods
//Storyboard Layer 0 (Background)
//Storyboard Layer 1 (Fail)
//Storyboard Layer 2 (Pass)
//Storyboard Layer 3 (Foreground)
//Storyboard Layer 4 (Overlay)
//Storyboard Sound Samples

[TimingPoints]
626,348.837209302326,4,2,17,45,1,0
626,-149.253731343284,4,2,17,45,0,0
974,371.517027863777,4,2,17,45,1,0
974,-149.253731343284,4,2,17,45,0,0
1346,362.537764350453,4,2,17,45,1,0
1346,-114.942528735632,4,2,17,45,0,0
1889,390.879478827362,4,2,17,45,1,0
2084,343.839541547278,4,2,17,45,1,0
2084,-114.942528735632,4,2,17,45,0,0
2599,410.95890410959,4,2,17,45,1,0
2805,397.350993377484,4,2,17,45,1,0
2805,-114.942528735632,4,2,17,45,0,0
3401,372.670807453417,4,2,17,45,1,0
3401,-149.253731343284,4,2,17,45,0,0
3587,348.837209302326,4,2,17,45,1,0
3587,-149.253731343284,4,2,17,45,0,0
3935,-114.942528735632,4,2,17,45,0,0
6377,341.296928327645,4,2,17,45,1,0
6377,-114.942528735632,4,2,17,45,0,0
7059,348.837209302326,4,2,17,45,1,0
7059,-93.4579439252336,4,2,17,70,0,0
11942,285.714285714286,4,2,17,70,1,0
12228,245.901639344262,4,2,17,70,1,0
12474,327.868852459017,4,2,17,70,1,0
12638,348.837209302326,4,2,17,70,1,0
12638,-93.4579439252336,4,2,17,70,0,0
17872,377.358490566038,4,2,17,70,1,0
18250,348.837209302326,4,2,17,50,1,0
18250,-129.87012987013,4,2,17,50,0,0
20168,361.445783132531,4,2,17,50,1,0
20168,-129.87012987013,4,2,17,50,0,0
20711,320.855614973262,4,2,17,50,1,0
21031,348.837209302326,4,2,17,50,1,0
21031,-129.87012987013,4,2,17,50,0,0
27135,326.08695652174,4,2,17,50,1,0
27135,-129.87012987013,4,2,17,50,0,0
27623,363.636363636364,4,2,17,50,1,0
27623,-129.87012987013,4,2,17,50,0,0
27987,348.837209302326,4,2,17,50,1,0
27987,-129.87012987013,4,2,17,50,0,0
29382,-114.942528735632,4,2,17,55,0,0
40545,-103.092783505155,4,2,17,60,0,0
46126,-93.4579439252339,4,2,17,65,0,0
48917,-85.4700854700855,4,2,17,70,0,0
51707,-93.4579439252336,4,2,17,70,0,0
53626,-129.87012987013,4,2,17,45,0,0
54498,-85.4700854700855,4,2,17,75,0,0
65661,-78.7401574803149,4,2,17,80,0,0
71940,-93.4579439252336,4,2,17,80,0,0
72463,-114.942528735632,4,2,17,80,0,0
74033,-114.942528735632,4,2,17,60,0,0
76824,-93.4579439252336,4,2,17,70,0,0
78045,-149.253731343284,4,2,17,70,0,0
79614,-103.092783505155,4,2,17,65,0,0
85021,-149.253731343284,4,2,17,65,0,0
86155,-93.4579439252339,4,2,17,65,0,0

[Colours]
Combo1 : 106,106,251
Combo2 : 223,36,111

[HitObjects]
110,142,626,6,0,P|120:171|130:199,2,55.944997353676,2|2|2,0:2|0:2|0:2,0:2:0:0:
22,239,1159,1,2,0:2:0:0:
117,327,1345,5,2,0:2:0:0:
117,327,1527,2,0,P|150:314|207:295,1,72.6450006096611,2|0,0:2|0:2,0:2:0:0:
358,320,1889,1,2,0:2:0:0:
304,383,2084,2,0,P|279:329|317:240,1,145.290001219322,2|0,0:2|0:2,0:2:0:0:
426,160,2599,1,2,0:2:0:0:
328,161,2805,6,0,B|243:156|270:202|182:197,1,145.290001219322,2|0,0:2|0:2,0:2:0:0:
64,254,3401,1,2,0:2:0:0:
64,254,3587,2,0,P|72:227|84:202,1,55.944997353676,2|0,0:2|0:2,0:2:0:0:
128,94,3935,2,0,P|163:102|197:113,1,72.6450006096611,2|0,0:2|0:2,0:2:0:0:
367,39,4284,2,0,P|301:32|267:87,1,108.967500914492,2|0,0:0|0:0,0:0:0:0:
281,99,4633,1,2,0:2:0:0:
312,206,4807,6,0,P|333:278|351:355,1,145.290001219322,2|0,0:2|0:2,0:2:0:0:
349,346,5505,1,2,0:2:0:0:
451,250,5680,2,1,B|395:234|395:234|354:255|354:255|302:224|238:230,1,217.935001828983,2|0,0:2|0:2,0:2:0:0:
155,328,6377,6,0,P|117:288|162:150,1,217.935001828983,2|0,0:2|0:2,0:2:0:0:
395,35,7059,6,0,P|389:85|381:123,1,89.3449972734071,6|0,1:2|0:2,0:2:0:0:
306,266,7407,1,0,1:2:0:0:
242,171,7582,2,0,P|248:121|256:83,1,89.3449972734071,10|0,0:2|1:2,0:2:0:0:
431,224,7931,2,0,P|384:243|347:255,1,89.3449972734071,2|0,0:2|1:2,0:2:0:0:
193,369,8279,6,0,P|127:356|86:259,1,178.689994546814,2|8,0:2|0:2,0:2:0:0:
179,127,8803,2,0,P|223:135|270:146,1,89.3449972734071,2|8,1:2|0:2,0:2:0:0:
431,224,9152,1,0,1:2:0:0:
323,255,9326,2,0,P|279:265|235:273,1,89.3449972734071,2|4,0:2|1:2,0:2:0:0:
406,377,9675,5,8,0:2:0:0:
407,368,9762,1,8,0:2:0:0:
409,359,9849,1,2,1:2:0:0:
431,224,10024,2,0,P|421:180|410:136,1,89.3449972734071,2|0,0:2|1:2,0:2:0:0:
235,272,10372,2,0,P|279:282|323:290,1,89.3449972734071,14|0,0:2|0:2,0:2:0:0:
198,146,10721,1,2,0:2:0:0:
299,63,10896,1,10,0:2:0:0:
168,27,11070,6,0,B|95:46|95:46|74:73|74:73|0:92,1,178.689994546814,2|8,0:2|0:2,0:2:0:0:
138,250,11593,1,2,1:2:0:0:
24,186,11768,1,10,0:2:0:0:
263,212,11942,5,6,1:2:0:0:
98,348,12227,5,6,0:3:0:0:
207,134,12473,5,6,0:3:0:0:
169,259,12638,6,0,P|180:300|191:352,1,89.3449972734071,6|0,1:2|1:2,0:2:0:0:
352,254,12986,1,0,1:2:0:0:
280,190,13161,2,0,P|269:231|258:283,1,89.3449972734071,10|0,0:2|1:2,0:2:0:0:
411,384,13510,1,0,1:2:0:0:
479,302,13684,2,0,P|469:258|458:215,1,89.3449972734071,10|0,0:2|0:2,0:2:0:0:
313,62,14033,5,2,1:2:0:0:
487,64,14207,2,0,P|445:69|391:79,1,89.3449972734071,10|0,0:2|1:2,0:2:0:0:
260,166,14556,1,0,1:2:0:0:
325,250,14731,2,0,P|368:236|413:228,1,89.3449972734071,10|0,0:2|0:2,0:2:0:0:
411,228,14992,1,0,1:2:0:0:
411,228,15079,1,8,0:2:0:0:
370,377,15254,5,8,0:2:0:0:
370,377,15341,1,8,0:2:0:0:
370,377,15428,2,0,B|329:358|329:358|295:375|295:375|246:341|173:346,1,178.689994546814,6|0,1:2|0:2,0:2:0:0:
308,206,15951,1,0,1:2:0:0:
145,133,16126,2,0,P|117:203|128:267,1,134.017495910111,10|0,0:2|0:2,0:2:0:0:
147,290,16475,1,4,0:3:0:0:
320,165,16649,6,0,P|364:144|450:148,1,134.017495910111,6|0,1:2|0:2,0:2:0:0:
475,175,16998,1,2,0:2:0:0:
362,53,17172,2,0,P|318:62|268:81,1,89.3449972734071,2|0,1:2|1:2,0:2:0:0:
126,178,17521,1,8,0:2:0:0:
261,256,17696,1,8,0:2:0:0:
269,260,17783,1,8,0:2:0:0:
276,264,17870,1,10,0:2:0:0:
118,362,18060,5,8,0:2:0:0:
110,366,18154,1,8,0:2:0:0:
103,370,18250,2,0,P|80:325|99:228,1,128.589997449234,2|0,0:2|0:2,0:2:0:0:
9,161,18773,2,0,P|48:140|154:151,1,128.589997449234,2|0,0:2|0:2,0:2:0:0:
214,208,19296,1,2,0:2:0:0:
214,208,19470,1,2,0:2:0:0:
285,80,19645,6,0,P|275:46|264:8,2,64.294998724617,2|2|2,0:2|0:2|0:2,0:2:0:0:
358,156,20168,2,0,P|342:224|329:310,1,128.589997449234,2|0,0:2|0:2,0:2:0:0:
316,383,20711,5,2,0:2:0:0:
472,214,21031,1,2,0:2:0:0:
281,248,21379,1,2,0:2:0:0:
345,316,21554,2,0,P|389:325|437:329,1,64.294998724617,2|0,0:2|0:2,0:2:0:0:
423,195,21903,2,0,P|393:228|365:268,1,64.294998724617,2|0,0:2|0:2,0:2:0:0:
491,323,22251,2,0,P|476:280|456:236,1,64.294998724617,2|0,0:2|0:2,0:2:0:0:
488,118,22600,5,2,0:2:0:0:
488,118,22775,1,2,0:2:0:0:
388,175,22949,2,0,P|313:162|240:143,1,128.589997449234,2|0,0:2|0:2,0:2:0:0:
114,71,23472,1,2,0:2:0:0:
114,71,23647,1,2,0:2:0:0:
229,73,23821,6,0,P|192:104|188:189,1,128.589997449234,2|0,0:2|0:2,0:2:0:0:
211,285,24344,2,0,P|138:282|60:249,1,128.589997449234,2|0,0:2|0:2,0:2:0:0:
0,160,24868,1,2,0:2:0:0:
63,115,25042,1,2,0:2:0:0:
126,70,25217,6,0,P|199:73|276:105,1,128.589997449234,2|0,0:2|0:2,0:2:0:0:
304,203,25740,2,0,P|367:212|426:174,1,128.589997449234,2|0,0:2|0:2,0:2:0:0:
347,90,26263,1,2,0:2:0:0:
347,90,26437,1,2,0:2:0:0:
464,39,26612,6,0,P|454:98|443:170,1,128.589997449234,2|0,0:2|0:2,0:2:0:0:
500,311,27135,2,0,P|439:292|351:282,1,128.589997449234,2|0,0:2|0:2,0:2:0:0:
256,354,27623,2,0,P|266:305|293:236,1,96.4424980869256,2|0,0:2|0:2,0:2:0:0:
190,282,27987,6,0,P|171:211|131:127,1,160.737496811543,2|0,0:2|0:2,0:2:0:0:
105,106,28510,1,2,0:2:0:0:
65,222,28684,2,0,P|89:286|93:307,1,64.294998724617,2|0,0:2|0:2,0:2:0:0:
98,310,28946,1,2,0:1:0:0:
98,310,29033,1,2,0:2:0:0:
209,213,29207,1,2,0:2:0:0:
301,293,29382,6,0,P|343:326|436:273,1,145.290001219322,6|0,1:2|1:2,0:2:0:0:
485,177,29905,2,0,P|448:167|402:158,1,72.6450006096611,2|0,0:2|1:2,0:2:0:0:
240,175,30254,1,2,0:2:0:0:
331,56,30428,5,2,1:2:0:0:
331,56,30603,2,0,P|320:102|311:143,1,72.6450006096611,2|0,0:2|1:2,0:2:0:0:
251,313,30952,1,2,0:2:0:0:
195,203,31126,1,2,1:2:0:0:
195,203,31300,2,0,P|236:201|297:212,1,72.6450006096611,2|0,0:2|1:2,0:2:0:0:
407,334,31649,1,2,1:2:0:0:
405,340,31736,1,0,3:2:0:0:
404,347,31824,2,0,P|347:368|286:352,1,108.967500914492,2|0,1:2|0:2,0:2:0:0:
345,286,32173,6,0,P|352:248|364:196,1,72.6450006096611,2|0,1:2|0:2,0:2:0:0:
437,82,32521,1,2,1:2:0:0:
437,82,32696,2,0,P|400:72|354:63,1,72.6450006096611,2|0,0:2|1:2,0:2:0:0:
295,190,33045,2,0,P|330:182|365:173,1,72.6450006096611,2|0,0:2|1:2,0:2:0:0:
250,29,33393,6,0,P|238:63|229:98,1,72.6450006096611,2|0,0:2|1:2,0:2:0:0:
204,240,33742,1,2,0:2:0:0:
204,240,33917,2,0,P|168:232|133:223,1,72.6450006096611,2|4,1:2|0:3,0:2:0:0:
43,107,34266,2,0,P|78:114|113:123,1,72.6450006096611,2|0,1:2|0:2,0:2:0:0:
302,107,34614,1,2,1:2:0:0:
302,107,34789,1,2,0:2:0:0:
223,8,34963,6,0,P|215:47|189:176,1,145.290001219322,2|2,1:2|1:2,0:2:0:0:
199,305,35487,2,0,P|269:319|344:305,1,145.290001219322,2|0,0:2|0:2,0:2:0:0:
403,354,35923,1,0,3:2:0:0:
403,354,36010,2,0,P|424:307|418:279,1,72.6450006096611,2|0,0:0|0:0,0:0:0:0:
480,156,36359,5,2,1:2:0:0:
480,156,36533,1,8,0:2:0:0:
374,199,36707,1,2,1:2:0:0:
374,199,36882,2,0,P|338:188|291:177,1,72.6450006096611,2|0,0:0|1:0,0:0:0:0:
203,154,37231,1,4,0:3:0:0:
163,253,37405,1,2,1:2:0:0:
242,308,37580,1,2,0:2:0:0:
192,132,37754,6,0,P|139:114|54:165,1,145.290001219322,6|2,1:2|0:2,0:2:0:0:
2,272,38277,1,0,1:2:0:0:
4,278,38364,1,0,1:2:0:0:
7,285,38452,2,0,P|61:273|120:251,1,108.967500914492,10|0,0:2|0:2,0:2:0:0:
104,345,38800,6,0,P|166:351|256:379,1,145.290001219322,2|0,1:2|0:2,0:2:0:0:
348,214,39324,1,6,0:3:0:0:
273,268,39498,1,2,1:2:0:0:
327,343,39673,1,2,1:2:0:0:
455,284,39847,2,0,P|468:227|429:157,1,108.967500914492,10|0,0:2|0:2,0:2:0:0:
423,156,40196,1,8,0:2:0:0:
334,23,40370,5,0,1:2:0:0:
328,27,40457,1,8,0:2:0:0:
322,31,40545,2,0,B|224:16|261:91|149:66,1,161.990003831246,6|0,1:2|0:2,0:2:0:0:
5,95,41068,1,2,1:2:0:0:
94,16,41242,2,0,P|84:59|78:108,1,80.9950019156228,6|4,1:2|0:3,0:2:0:0:
58,274,41591,1,2,0:2:0:0:
227,195,41766,6,0,P|186:182|132:167,1,80.9950019156228,10|0,0:2|0:2,0:2:0:0:
260,328,42114,1,2,1:2:0:0:
321,194,42289,2,0,P|315:153|306:114,1,80.9950019156228,14|0,0:2|1:2,0:2:0:0:
145,297,42638,2,1,B|206:279|206:279|251:302|251:302|308:268|378:275,1,242.985005746868,8|4,0:2|0:3,0:2:0:0:
215,111,43335,5,14,0:2:0:0:
345,52,43510,2,0,P|385:57|436:73,1,80.9950019156228,2|0,1:2|1:2,0:2:0:0:
374,274,43859,2,0,P|334:269|282:252,1,80.9950019156228,10|0,0:2|1:2,0:2:0:0:
127,168,44207,1,2,1:2:0:0:
254,106,44382,2,0,P|239:147|227:201,1,80.9950019156228,10|0,0:2|1:2,0:2:0:0:
252,376,44731,5,2,1:2:0:0:
123,323,44905,2,0,P|88:309|40:298,1,80.9950019156228,10|0,0:2|1:2,0:2:0:0:
195,159,45254,1,2,1:2:0:0:
83,93,45428,1,10,0:2:0:0:
196,274,45603,2,0,P|231:260|279:249,1,80.9950019156228,2|8,1:2|0:2,0:2:0:0:
499,212,45952,5,2,0:2:0:0:
411,364,46126,1,10,0:2:0:0:
376,247,46300,2,0,P|368:212|356:156,1,89.3449972734071,2|0,1:2|1:2,0:2:0:0:
505,40,46649,2,0,P|497:74|485:131,1,89.3449972734071,10|0,0:2|1:2,0:2:0:0:
453,296,46998,1,2,1:2:0:0:
325,216,47173,2,0,P|285:221|231:239,1,89.3449972734071,10|0,0:2|1:2,0:2:0:0:
409,102,47521,5,2,1:2:0:0:
281,22,47696,2,0,P|241:27|187:45,1,89.3449972734071,10|0,0:2|1:2,0:2:0:0:
17,134,48045,1,2,1:2:0:0:
150,195,48219,2,0,P|140:155|123:111,1,89.3449972734071,14|0,0:2|1:2,0:2:0:0:
78,297,48568,1,8,0:2:0:0:
231,221,48742,5,10,0:2:0:0:
231,221,48830,1,8,0:2:0:0:
231,221,48917,2,0,B|317:216|278:280|372:273,1,146.542500559015,2|0,1:2|0:2,0:2:0:0:
393,273,49266,1,0,3:2:0:0:
405,266,49353,1,0,3:2:0:0:
414,254,49440,2,0,P|406:197|395:105,1,146.542500559015,2|0,1:2|3:2,0:2:0:0:
399,56,49789,2,0,P|378:52|343:60,1,48.8475001863384,2|0,3:2|3:2,0:2:0:0:
238,133,49963,6,0,P|188:119|131:108,1,97.6950003726768,2|0,1:2|3:2,0:2:0:0:
85,59,50225,1,0,3:2:0:0:
85,59,50312,2,0,P|69:90|66:110,1,48.8475001863384,2|0,3:2|3:2,0:2:0:0:
16,259,50487,6,0,P|63:249|110:235,1,97.6950003726768,2|0,1:2|3:2,0:2:0:0:
122,317,50748,1,0,3:2:0:0:
122,317,50835,2,0,P|150:325|179:338,1,48.8475001863384,10|0,0:2|3:2,0:2:0:0:
275,384,51010,2,0,P|267:355|264:324,1,48.8475001863384,2|0,1:2|3:2,0:2:0:0:
285,212,51184,2,0,P|264:232|238:250,1,48.8475001863384,10|0,0:2|3:2,0:2:0:0:
223,263,51359,1,0,1:2:0:0:
179,258,51446,1,8,0:2:0:0:
147,230,51533,1,10,0:2:0:0:
138,188,51620,1,8,0:2:0:0:
154,148,51707,6,0,P|202:130|261:134,1,89.3449972734071,6|8,1:2|0:2,0:2:0:0:
415,241,52056,1,10,0:2:0:0:
285,42,52231,1,2,1:2:0:0:
285,42,52580,2,1,B|240:34|240:34|207:47|207:47|162:27|109:29,1,178.689994546814,6|4,1:2|0:3,0:2:0:0:
22,279,53103,5,10,0:2:0:0:
153,147,53277,1,10,0:2:0:0:
130,88,53626,6,0,L|154:150,2,64.294998724617,2|2|2,0:2|0:2|0:2,0:2:0:0:
69,33,54149,1,2,0:2:0:0:
69,33,54324,1,2,0:2:0:0:
228,177,54498,6,0,P|276:164|331:157,1,97.6950003726768,6|0,1:2|1:2,0:2:0:0:
491,167,54847,1,10,0:2:0:0:
362,68,55021,2,0,P|408:140|364:262,1,195.390000745354,2|0,1:2|1:2,0:2:0:0:
289,355,55545,1,10,0:2:0:0:
182,296,55719,6,1,B|133:307|133:307|106:339|106:339|50:338|-2:366,1,195.390000745354,2|0,0:2|0:2,0:2:0:0:
137,188,56242,1,8,1:2:0:0:
25,188,56417,1,2,1:2:0:0:
158,345,56591,1,2,0:2:0:0:
277,173,56766,1,2,1:2:0:0:
137,120,56940,2,0,P|150:174|160:235,1,97.6950003726768,10|0,0:2|0:2,0:2:0:0:
377,186,57289,6,0,P|364:132|354:71,1,97.6950003726768,2|0,1:2|1:2,0:2:0:0:
512,37,57638,1,10,0:2:0:0:
488,148,57812,2,0,P|468:257|441:365,1,195.390000745354,2|0,1:2|1:2,0:2:0:0:
284,216,58335,2,0,P|329:199|376:185,1,97.6950003726768,10|0,0:2|0:2,0:2:0:0:
280,361,58684,5,2,1:2:0:0:
165,316,58859,2,0,P|118:302|72:285,1,97.6950003726768,2|8,1:2|0:2,0:2:0:0:
184,124,59207,2,0,P|196:171|205:220,1,97.6950003726768,2|0,0:2|1:2,0:2:0:0:
5,167,59556,2,0,P|40:133|78:102,1,97.6950003726768,2|8,0:2|0:2,0:2:0:0:
194,26,59905,5,0,1:2:0:0:
209,23,59992,1,8,0:2:0:0:
221,26,60080,2,0,B|298:50|298:50|325:87|325:87|401:113,1,195.390000745354,6|8,1:2|0:2,0:2:0:0:
512,194,60603,2,1,B|467:204|467:204|448:236|448:236|390:244|337:279,1,195.390000745354,2|0,1:2|1:2,0:2:0:0:
148,274,61126,1,10,0:2:0:0:
220,384,61300,1,2,0:2:0:0:
252,243,61475,6,0,P|260:201|274:143,1,97.6950003726768,2|0,1:2|1:2,0:2:0:0:
419,18,61824,1,10,0:2:0:0:
416,27,61911,1,0,1:2:0:0:
414,36,61998,1,2,1:2:0:0:
389,170,62173,1,2,0:2:0:0:
290,65,62347,2,0,P|244:50|187:39,1,97.6950003726768,2|8,1:2|0:2,0:2:0:0:
18,133,62696,5,10,0:3:0:0:
25,137,62783,1,8,0:3:0:0:
34,140,62870,2,0,P|80:152|127:171,1,97.6950003726768,6|0,1:2|1:2,0:2:0:0:
271,247,63219,1,10,0:2:0:0:
135,356,63393,1,6,1:2:0:0:
252,142,63742,1,2,1:2:0:0:
18,270,64091,1,10,0:2:0:0:
25,286,64440,5,6,0:3:0:0:
131,163,64614,1,8,0:3:0:0:
131,163,64702,1,8,0:3:0:0:
131,163,64789,2,0,P|136:180|134:217,1,48.8475001863384,2|0,1:2|1:2,1:2:0:0:
94,315,64964,2,0,P|124:304|162:291,1,48.8475001863384,10|0,0:2|1:2,0:2:0:0:
249,273,65138,2,8,P|226:252|195:226,1,48.8475001863384,10|8,0:2|0:2,0:2:0:0:
42,153,65312,1,6,0:3:0:0:
220,141,65487,1,6,0:3:0:0:
89,10,65661,6,0,P|35:21|-28:63,1,106.044999190941,14|0,0:2|1:2,0:2:0:0:
95,210,66010,1,10,0:2:0:0:
189,125,66184,2,0,B|240:89|240:89|302:145|387:128,1,212.089998381882,2|0,1:2|1:2,0:2:0:0:
262,284,66707,1,10,0:2:0:0:
401,360,66882,5,2,1:2:0:0:
401,360,66969,1,0,1:2:0:0:
401,360,67056,2,0,P|417:301|436:248,1,106.044999190941,10|0,0:2|1:2,0:2:0:0:
481,114,67405,1,10,0:2:0:0:
346,225,67580,1,2,1:2:0:0:
346,225,67667,1,0,1:2:0:0:
346,225,67754,1,8,0:2:0:0:
512,328,67928,1,2,1:2:0:0:
335,384,68103,1,10,0:2:0:0:
453,241,68277,1,2,1:2:0:0:
274,154,68452,6,0,P|218:161|162:180,1,106.044999190941,10|0,0:2|1:2,0:2:0:0:
3,266,68800,1,10,0:2:0:0:
106,314,68975,2,0,P|156:329|209:336,1,106.044999190941,2|8,1:2|0:2,0:2:0:0:
346,225,69324,2,0,P|331:280|311:349,1,106.044999190941,2|8,1:2|0:2,0:2:0:0:
219,196,69673,5,0,1:2:0:0:
219,196,69760,1,0,1:2:0:0:
219,196,69847,1,10,0:2:0:0:
344,121,70021,2,0,P|396:127|447:143,1,106.044999190941,2|8,1:2|0:2,0:2:0:0:
493,0,70370,1,2,0:2:0:0:
388,19,70545,2,0,P|336:25|285:41,1,106.044999190941,14|0,0:2|1:2,0:2:0:0:
284,41,70806,1,0,1:2:0:0:
284,41,70893,1,10,0:2:0:0:
261,255,71068,5,8,0:3:0:0:
283,242,71155,1,8,0:3:0:0:
300,221,71242,1,8,0:3:0:0:
182,84,71417,6,0,P|104:105|-4:159,1,159.067498786411,6|0,1:2|0:2,0:2:0:0:
32,136,71766,2,0,P|26:169|24:197,1,53.0224995954704,0|0,1:2|1:2,1:2:0:0:
2,259,71940,6,0,P|56:292|153:320,1,134.017495910111,10|0,0:2|0:2,0:2:0:0:
164,308,72289,1,4,0:3:0:0:
276,143,72463,6,0,P|343:243|242:379,1,290.580002438644,6|2,1:2|1:2,0:2:0:0:
101,351,73335,1,10,0:2:0:0:
127,251,73510,2,0,P|138:209|147:169,1,72.6450006096611,2|8,0:2|0:2,0:2:0:0:
142,15,73859,5,0,1:2:0:0:
151,12,73946,1,8,0:2:0:0:
163,11,74033,2,0,P|201:22|255:43,1,72.6450006096611,6|0,1:2|0:2,0:2:0:0:
345,120,74382,2,0,P|307:131|253:152,1,72.6450006096611,2|0,1:2|0:2,0:2:0:0:
144,180,74731,2,0,P|106:169|52:148,1,72.6450006096611,2|0,1:2|0:2,0:2:0:0:
19,302,75080,2,0,P|53:289|88:279,1,72.6450006096611,2|0,1:2|0:2,0:2:0:0:
226,378,75428,6,0,P|240:315|261:225,1,145.290001219322,2|0,1:2|1:2,0:2:0:0:
331,69,76126,2,0,P|345:132|366:222,1,145.290001219322,2|0,1:2|1:2,0:2:0:0:
512,146,76824,6,0,P|498:209|473:326,1,178.689994546814,6|0,1:2|1:2,0:2:0:0:
277,198,77347,1,2,1:2:0:0:
277,198,77434,1,8,0:2:0:0:
277,198,77521,2,0,P|291:246|302:286,1,89.3449972734071,2|0,1:2|0:2,0:2:0:0:
301,313,77783,1,8,0:2:0:0:
301,313,77870,1,0,1:2:0:0:
430,176,78045,5,8,0:2:0:0:
434,154,78132,1,8,0:2:0:0:
440,132,78219,2,0,B|302:64|257:218|306:179|246:179|289:216|275:156|225:327|84:224,1,391.614981475732,6|0,1:2|0:2,0:2:0:0:
31,58,79614,6,0,P|74:63|137:83,1,80.9950019156228,6|0,1:2|0:2,0:2:0:0:
257,131,79963,1,8,0:2:0:0:
176,18,80138,2,0,P|192:89|127:164,1,161.990003831246,2|0,1:2|1:2,0:2:0:0:
15,243,80661,2,0,P|52:260|101:273,1,80.9950019156228,10|0,0:2|1:2,0:2:0:0:
90,271,80923,1,0,1:2:0:0:
90,271,81010,1,2,1:2:0:0:
225,198,81184,6,0,P|211:244|198:306,1,80.9950019156228,2|8,1:2|0:2,0:2:0:0:
350,363,81533,2,0,P|340:323|328:284,1,80.9950019156228,2|0,1:2|1:2,0:2:0:0:
328,284,81795,1,0,1:2:0:0:
328,284,81882,1,2,1:2:0:0:
275,129,82056,1,10,0:2:0:0:
400,211,82231,1,2,0:2:0:0:
436,54,82405,6,0,P|389:48|342:65,1,80.9950019156228,6|0,1:2|1:2,0:2:0:0:
275,129,82754,1,10,0:2:0:0:
156,38,82928,2,1,B|111:30|111:30|78:43|78:43|33:23|-20:25,1,161.990003831246,6|0,1:2|1:2,0:2:0:0:
64,253,83452,5,10,0:2:0:0:
235,177,83626,1,10,0:2:0:0:
93,150,83800,1,2,0:2:0:0:
144,85,83975,1,2,0:2:0:0:
154,68,84324,5,6,0:3:0:0:
154,68,84673,1,2,3:2:0:0:
41,217,84847,1,10,0:2:0:0:
0,91,85021,6,0,B|107:45|154:131|144:141|199:218|304:176,1,335.669984122056,6|0,1:2|0:2,0:2:0:0:
319,163,86155,1,8,0:2:0:0:
342,124,86242,1,8,0:2:0:0:
379,100,86329,1,8,0:2:0:0:
423,94,86416,5,10,0:2:0:0:
