osu file format v14

[General]
AudioFilename: audio.mp3
AudioLeadIn: 0
PreviewTime: 53539
Countdown: 0
SampleSet: Soft
StackLeniency: 0.7
Mode: 0
LetterboxInBreaks: 0
WidescreenStoryboard: 1

[Editor]
Bookmarks: 4982
DistanceSpacing: 1.1
BeatDivisor: 4
GridSize: 32
TimelineZoom: 2.000006

[Metadata]
Title:Anata no Aishita Sekai (TV Size)
TitleUnicode:あなたの愛した世界 (TV Size)
Artist:Yoshino Nanjo
ArtistUnicode:南條愛乃
Creator:officialAkage
Version:Ninja's Normal
Source:グリザイアの果実
Tags:yereoz enuhq ninjaking311 grisaia no kajitsu fruit of grisaia -LE FRUIT DE LA GRISAIA- anime jpop j-pop j pop japanese female vocalist ending ed 2
BeatmapID:3447852
BeatmapSetID:1687018

[Difficulty]
HPDrainRate:3
CircleSize:3.2
OverallDifficulty:4
ApproachRate:5
SliderMultiplier:0.999999999999999
SliderTickRate:1

[Events]
//Background and Video events
0,0,"BG.jpg",0,0
Video,-750,"vid.mp4"
//Break Periods
//Storyboard Layer 0 (Background)
//Storyboard Layer 1 (Fail)
//Storyboard Layer 2 (Pass)
//Storyboard Layer 3 (Foreground)
//Storyboard Layer 4 (Overlay)
//Storyboard Sound Samples

[TimingPoints]
626,348.837209302326,4,2,17,45,1,0
974,371.517027863777,4,2,17,45,1,0
1346,362.537764350453,4,2,17,45,1,0
1889,390.879478827362,4,2,17,45,1,0
2084,343.839541547278,4,2,17,45,1,0
2599,410.95890410959,4,2,17,45,1,0
2805,397.350993377484,4,2,17,45,1,0
3401,372.670807453417,4,2,17,45,1,0
3587,348.837209302326,4,2,17,45,1,0
5680,-100,4,2,17,45,0,0
6377,341.296928327645,4,2,17,45,1,0
7059,348.837209302326,4,2,17,70,1,0
7059,-100,4,2,17,70,0,0
11942,285.714285714286,4,2,17,70,1,0
12228,245.901639344262,4,2,17,70,1,0
12474,327.868852459017,4,2,17,70,1,0
12638,348.837209302326,4,2,17,70,1,0
12638,-100,4,2,17,70,0,0
15428,-100,4,2,17,70,0,0
17872,377.358490566038,4,2,17,70,1,0
18250,348.837209302326,4,2,17,50,1,0
18250,-117.647058823529,4,2,17,50,0,0
20168,361.445783132531,4,2,17,50,1,0
20168,-117.647058823529,4,2,17,50,0,0
20711,320.855614973262,4,2,17,50,1,0
21031,348.837209302326,4,2,17,50,1,0
21031,-117.647058823529,4,2,17,50,0,0
23472,-117.647058823529,4,2,17,50,0,0
27135,326.08695652174,4,2,17,50,1,0
27135,-117.647058823529,4,2,17,50,0,0
27623,363.636363636364,4,2,17,50,1,0
27987,348.837209302326,4,2,17,50,1,0
27987,-117.647058823529,4,2,17,50,0,0
29382,-111.111111111111,4,2,17,55,0,0
40545,-105.263157894737,4,2,17,60,0,0
43335,-105.263157894737,4,2,17,60,0,0
46126,-105.263157894737,4,2,17,65,0,0
48917,-105.263157894737,4,2,17,70,0,0
51707,-105.263157894737,4,2,17,70,0,0
53626,-105.263157894737,4,2,17,45,0,0
54498,-100,4,2,17,75,0,0
65661,-95.2380952380952,4,2,17,80,0,0
71417,-95.2380952380952,4,2,17,80,0,0
74033,-105.263157894737,4,2,17,60,0,0
76824,-105.263157894737,4,2,17,70,0,0
79614,-100,4,2,17,65,0,0
85021,-100,4,2,17,65,0,0

[Colours]
Combo1 : 106,106,251
Combo2 : 223,36,111

[HitObjects]
256,192,4284,12,2,6377,0:2:0:0:
0,90,7059,6,0,P|48:77|97:67,1,99.9999999999999,6|0,1:2|1:2,0:2:0:0:
147,60,7582,1,10,0:2:0:0:
230,115,7931,1,2,0:2:0:0:
298,42,8279,2,0,P|347:41|390:66,1,99.9999999999999,2|8,0:2|0:2,0:2:0:0:
416,109,8803,1,2,1:2:0:0:
438,206,9152,2,0,P|474:197|511:189,2,74.9999999999999,2|2|10,1:2|0:0|0:2,0:0:0:0:
412,250,9849,5,2,1:2:0:0:
412,250,10024,1,2,0:2:0:0:
357,333,10372,2,0,P|308:320|259:310,1,99.9999999999999,14|2,0:2|0:2,0:2:0:0:
228,278,10896,1,10,0:2:0:0:
228,278,11070,2,0,P|179:290|130:300,1,99.9999999999999,2|8,0:2|0:2,0:2:0:0:
38,333,11768,1,10,0:2:0:0:
38,333,11942,2,0,B|10:292|10:292|17:241,1,99.9999999999999,6|6,1:2|0:3,0:0:0:0:
95,178,12473,1,6,0:3:0:0:
95,178,12638,6,0,L|83:129,2,50,6|0|0,1:2|1:2|1:2,0:2:0:0:
138,202,13161,2,0,L|126:250,2,50,10|0|0,0:2|1:2|1:2,0:2:0:0:
181,176,13684,1,10,0:2:0:0:
275,222,14033,1,0,1:0:0:0:
275,222,14207,2,0,P|324:222|367:197,1,99.9999999999999,10|2,0:2|1:2,0:0:0:0:
402,160,14731,1,8,0:0:0:0:
341,80,15079,2,0,L|292:92,1,50,10|10,0:0|0:0,0:0:0:0:
247,114,15428,6,0,P|198:102|149:92,1,99.9999999999999,6|2,1:2|0:1,0:2:0:0:
105,81,15951,1,0,1:2:0:0:
105,81,16126,1,10,0:2:0:0:
33,150,16475,1,4,0:3:0:0:
33,150,16649,2,0,P|44:198|54:247,1,99.9999999999999,6|2,1:2|0:2,0:2:0:0:
71,294,17172,2,0,P|120:294|163:269,1,99.9999999999999,2|8,1:2|0:2,0:2:0:0:
216,193,17872,2,0,L|275:209,1,50,10|8,0:2|0:2,0:0:0:0:
294,241,18250,6,0,P|354:226|418:212,1,127.500002431869,2|2,0:2|0:2,0:2:0:0:
482,43,19645,2,0,P|419:29|357:14,1,127.500002431869,2|2,0:2|0:2,0:2:0:0:
261,97,20710,1,2,0:2:0:0:
206,152,21031,2,0,B|152:127|97:173|123:196|73:234|16:210,1,212.500004053116,2|2,0:2|0:2,0:0:0:0:
30,342,22426,2,0,P|91:325|153:312,1,127.500002431869,2|2,0:2|0:2,0:0:0:0:
233,212,23472,6,0,L|281:223,1,42.5000008106231,2|2,0:2|0:2,0:0:0:0:
305,251,23821,2,0,P|353:239|402:229,1,85.0000016212463,2|0,0:2|0:2,0:2:0:0:
429,222,24344,1,2,0:2:0:0:
390,100,24868,2,0,L|348:109,1,42.5000008106231,2|2,0:2|0:2,0:0:0:0:
315,135,25217,2,0,P|266:123|217:113,1,85.0000016212463,2|0,0:2|0:2,0:2:0:0:
190,106,25740,1,2,0:2:0:0:
80,41,26263,6,0,L|88:0,2,42.5000008106231,2|2|2,0:2|0:2|0:2,0:0:0:0:
23,104,26961,1,0,0:2:0:0:
23,104,27135,2,0,P|55:158|51:220,1,127.500002431869,2|2,0:2|0:2,0:2:0:0:
105,290,27987,2,0,P|159:257|221:261,1,127.500002431869,2|2,0:2|0:2,0:2:0:0:
258,282,28684,1,2,0:2:0:0:
328,234,29033,2,0,L|318:192,1,42.5000008106231,2|2,0:1|0:2,0:0:0:0:
280,168,29382,6,0,P|290:124|299:80,1,89.999997253418,6|0,1:2|1:2,0:2:0:0:
337,56,29905,1,2,0:2:0:0:
419,94,30254,2,0,L|462:84,2,44.999998626709,2|2|2,0:2|1:2|0:2,0:0:0:0:
373,171,30952,2,0,L|330:161,2,44.999998626709,2|2|2,0:2|1:2|0:2,0:0:0:0:
469,265,31824,1,2,1:2:0:0:
424,343,32173,6,0,P|379:344|340:323,1,89.999997253418,2|2,1:2|1:2,0:2:0:0:
312,287,32696,1,2,0:2:0:0:
238,339,33045,1,2,0:2:0:0:
175,274,33393,2,0,P|130:272|91:293,1,89.999997253418,2|2,0:2|0:2,0:2:0:0:
50,312,33917,2,0,P|28:272|30:228,1,89.999997253418,2|2,1:2|1:2,0:2:0:0:
67,147,34614,6,0,L|110:157,1,44.999998626709,2|2,1:2|0:2,0:0:0:0:
142,189,34963,2,0,P|185:178|229:169,1,89.999997253418,2|2,1:2|1:2,0:2:0:0:
271,156,35487,1,2,0:2:0:0:
368,62,36010,2,0,L|411:72,1,44.999998626709,0|2,1:2|0:2,0:0:0:0:
454,86,36359,2,0,P|457:130|437:170,1,89.999997253418,2|0,1:2|1:2,0:0:0:0:
406,203,36883,1,2,3:2:0:0:
406,203,37056,2,0,L|362:192,1,44.999998626709,0|8,1:2|0:3,0:0:0:0:
328,162,37405,2,0,L|284:172,1,44.999998626709,2|2,1:2|0:2,0:0:0:0:
240,185,37754,5,6,1:2:0:0:
190,261,38103,1,2,0:2:0:0:
190,261,38277,2,0,P|138:248|86:237,1,89.999997253418,2|0,1:2|0:2,0:0:0:0:
58,230,38800,1,2,1:2:0:0:
32,316,39149,2,0,P|98:329|163:346,1,134.999995880127,2|0,0:2|1:2,0:0:0:0:
206,359,39847,1,10,0:2:0:0:
288,322,40196,2,0,L|277:278,1,44.999998626709,10|2,0:2|1:2,0:0:0:0:
243,245,40545,6,0,P|256:192|267:140,1,94.9999974632263,6|0,1:2|0:2,0:2:0:0:
275,109,41068,1,2,1:2:0:0:
275,109,41242,1,2,1:2:0:0:
338,38,41591,1,2,0:2:0:0:
338,38,41766,2,0,P|378:61|425:59,1,94.9999974632263,10|2,0:2|1:2,0:2:0:0:
469,40,42289,1,14,0:0:0:0:
512,125,42638,2,0,P|491:193|474:262,1,142.499996194839,8|4,0:0|0:3,0:0:0:0:
454,307,43335,5,14,0:2:0:0:
454,307,43510,1,2,1:2:0:0:
367,350,43859,2,0,P|314:336|262:325,1,94.9999974632263,10|2,0:2|1:2,0:2:0:0:
253,284,44382,2,0,P|200:297|148:308,1,94.9999974632263,10|2,0:2|1:2,0:2:0:0:
115,321,44905,1,10,0:2:0:0:
49,260,45254,1,2,1:2:0:0:
49,260,45428,2,0,L|62:201,1,47.4999987316131,10|2,0:2|1:2,0:0:0:0:
97,184,45777,2,0,L|83:125,1,47.4999987316131,8|2,0:2|0:2,0:0:0:0:
77,95,46126,5,10,0:2:0:0:
77,95,46300,1,2,1:2:0:0:
136,21,46649,2,0,P|182:18|223:41,1,94.9999974632263,10|2,0:2|1:2,0:2:0:0:
255,77,47173,2,0,P|301:79|342:56,1,94.9999974632263,10|2,0:2|1:2,0:2:0:0:
377,24,47696,1,10,0:2:0:0:
464,74,48045,1,2,1:2:0:0:
464,74,48219,2,0,L|450:132,1,47.4999987316131,14|0,0:2|1:2,0:2:0:0:
419,154,48568,2,0,L|432:212,1,47.4999987316131,8|10,0:2|0:2,0:0:0:0:
446,250,48917,5,2,1:2:0:0:
446,250,49091,1,0,0:0:0:0:
395,330,49440,2,0,P|342:316|290:305,1,94.9999974632263,2|2,1:2|3:2,0:2:0:0:
282,265,49963,2,0,P|229:278|177:289,1,94.9999974632263,2|2,1:2|3:2,0:2:0:0:
145,305,50487,2,0,P|121:264|123:217,1,94.9999974632263,2|10,1:2|0:2,0:2:0:0:
153,181,51010,1,2,1:2:0:0:
153,181,51184,1,10,0:2:0:0:
235,130,51533,1,10,0:2:0:0:
235,130,51707,6,0,P|229:107|223:83,2,47.4999987316131,6|8|10,1:2|0:2|0:2,0:2:0:0:
274,157,52231,1,2,1:2:0:0:
350,213,52580,2,1,P|343:235|339:259,2,47.4999987316131,6|0|4,1:2|0:0|0:3,0:2:0:0:
389,185,53103,1,10,0:2:0:0:
389,185,53277,1,10,0:2:0:0:
502,338,54149,2,0,L|455:347,1,47.4999987316131,2|2,0:2|0:2,0:0:0:0:
406,357,54498,5,6,1:2:0:0:
325,306,54847,1,10,0:2:0:0:
325,306,55021,2,0,P|322:256|346:213,1,99.9999999999999,2|0,1:2|1:2,0:2:0:0:
389,185,55545,1,10,0:2:0:0:
389,185,55719,2,1,P|391:135|367:92,1,99.9999999999999,2|0,0:2|0:2,0:2:0:0:
290,37,56417,1,2,1:2:0:0:
290,37,56591,2,0,L|241:48,1,50,2|2,0:2|1:2,0:0:0:0:
209,87,56940,2,0,L|160:75,1,50,10|0,0:2|0:2,0:2:0:0:
111,64,57289,5,2,1:2:0:0:
50,144,57638,1,10,0:2:0:0:
50,144,57812,2,0,P|75:187|71:237,1,99.9999999999999,2|0,1:2|1:2,0:2:0:0:
125,320,58510,2,0,L|114:369,2,50,2|2|2,0:2|1:2|1:2,0:0:0:0:
214,273,59207,1,2,0:2:0:0:
291,335,59556,1,2,0:2:0:0:
373,276,59905,1,0,1:2:0:0:
373,276,60080,6,0,P|376:226|352:183,1,99.9999999999999,6|8,1:2|0:2,0:2:0:0:
310,155,60603,2,1,P|306:105|330:62,1,99.9999999999999,2|0,1:2|1:2,0:2:0:0:
368,29,61126,1,10,0:2:0:0:
368,29,61300,2,0,P|422:42|480:54,1,99.9999999999999,2|0,0:2|1:2,0:0:0:0:
512,66,61824,1,10,0:2:0:0:
463,155,62173,1,2,0:2:0:0:
463,155,62347,1,2,1:2:0:0:
512,242,62696,1,10,0:3:0:0:
512,242,62870,6,0,P|463:252|414:264,1,99.9999999999999,6|10,1:2|0:2,0:2:0:0:
366,280,63393,1,6,1:2:0:0:
285,220,63742,1,2,1:2:0:0:
209,285,64091,2,0,P|125:264|42:245,1,150,10|8,0:2|0:3,0:0:0:0:
22,231,64789,1,2,1:2:0:0:
22,231,64963,2,0,L|38:160,1,50,10|10,0:2|0:2,0:2:0:0:
75,154,65312,2,0,L|63:105,1,50,6|6,0:3|0:3,0:0:0:0:
50,56,65661,5,14,0:2:0:0:
143,5,66010,1,10,0:2:0:0:
143,5,66184,2,0,P|192:2|239:30,1,104.999996795654,2|0,1:2|1:2,0:2:0:0:
274,75,66707,1,10,0:2:0:0:
274,75,66882,2,0,P|323:78|370:50,1,104.999996795654,2|0,1:2|1:2,0:0:0:0:
473,87,67580,1,2,1:2:0:0:
473,87,67754,2,0,L|460:137,1,52.4999983978271,8|2,0:2|1:2,0:0:0:0:
422,174,68103,2,0,L|434:226,1,52.4999983978271,10|2,0:2|1:2,0:0:0:0:
447,275,68452,5,10,0:2:0:0:
382,358,68800,1,10,0:2:0:0:
382,358,68975,2,0,P|330:345|279:334,1,104.999996795654,2|2,1:2|1:2,0:2:0:0:
254,288,69498,2,0,L|203:300,1,52.4999983978271,8|0,0:2|1:2,0:0:0:0:
155,313,69847,1,10,0:2:0:0:
155,313,70021,1,2,1:2:0:0:
68,253,70370,2,0,L|80:202,1,52.4999983978271,2|14,0:2|0:2,0:0:0:0:
121,169,70719,2,0,L|108:118,1,52.4999983978271,0|10,1:2|0:2,0:0:0:0:
96,66,71068,1,8,0:3:0:0:
178,0,71417,6,0,B|230:-7|230:-7|273:21,1,104.999996795654,6|0,1:2|1:2,0:2:0:0:
310,58,71940,2,0,P|297:109|286:160,1,104.999996795654,10|4,0:2|0:3,0:2:0:0:
238,180,72463,2,0,P|250:231|261:282,1,104.999996795654,6|0,1:2|0:0,0:2:0:0:
296,383,73161,1,2,1:2:0:0:
296,383,73335,2,0,L|346:370,1,52.4999983978271,10|2,0:2|0:2,0:0:0:0:
371,325,73684,2,0,L|421:337,1,52.4999983978271,8|0,0:2|1:2,0:0:0:0:
467,350,74033,5,6,1:2:0:0:
512,267,74382,1,2,1:2:0:0:
449,195,74731,1,2,1:2:0:0:
483,106,75080,1,2,1:2:0:0:
420,34,75428,2,0,P|374:32|333:55,1,94.9999974632263,2|0,1:2|1:2,0:2:0:0:
282,136,76126,2,0,P|236:138|195:115,1,94.9999974632263,2|0,1:2|1:2,0:2:0:0:
111,161,76824,6,0,P|123:210|133:259,1,94.9999974632263,6|0,1:2|1:2,0:2:0:0:
150,302,77347,1,2,1:2:0:0:
150,302,77521,2,0,L|198:290,1,47.4999987316131,2|8,1:2|0:2,0:2:0:0:
228,255,77870,2,0,L|276:266,1,47.4999987316131,0|8,1:2|0:2,0:0:0:0:
321,274,78219,2,0,P|341:180|369:90,1,189.999994926453,6|0,1:2|0:0,0:2:0:0:
179,25,79614,6,0,P|191:75|202:126,1,99.9999999999999,6|8,1:2|0:2,0:2:0:0:
244,149,80138,2,0,P|231:199|220:250,1,99.9999999999999,2|0,1:2|1:2,0:2:0:0:
205,293,80661,2,0,P|156:298|113:274,1,99.9999999999999,10|2,0:2|1:2,0:2:0:0:
82,235,81184,1,2,1:2:0:0:
109,140,81533,2,0,P|151:115|200:121,1,99.9999999999999,2|2,1:2|1:2,0:2:0:0:
244,149,82056,2,0,P|268:148|291:138,1,50,10|2,0:2|0:2,0:0:0:0:
319,96,82405,6,0,L|367:107,1,50,6|0,1:2|1:2,0:2:0:0:
420,122,82754,1,10,0:2:0:0:
420,122,82928,1,6,1:2:0:0:
504,246,83452,2,0,L|455:257,1,50,10|10,0:2|0:2,0:0:0:0:
410,274,83801,1,2,0:2:0:0:
410,274,83975,1,2,0:2:0:0:
344,349,84324,2,0,P|293:336|242:325,1,99.9999999999999,6|2,0:3|3:2,0:0:0:0:
201,319,84847,1,10,0:2:0:0:
201,319,85021,1,6,1:2:0:0:
256,192,85196,12,10,86417,0:2:0:0:
