osu file format v14

[General]
AudioFilename: audio.mp3
AudioLeadIn: 0
PreviewTime: 53539
Countdown: 0
SampleSet: Soft
StackLeniency: 0.7
Mode: 0
LetterboxInBreaks: 0
WidescreenStoryboard: 0

[Editor]
Bookmarks: 626,7059,12638,18250,29382,37754,40545,43335,48917,53103,54498,65661,74033,76824,79614,85021,86417
DistanceSpacing: 1.1
BeatDivisor: 4
GridSize: 32
TimelineZoom: 3.099999

[Metadata]
Title:Anata no Aishita Sekai (TV Size)
TitleUnicode:あなたの愛した世界 (TV Size)
Artist:Yoshino Nanjo
ArtistUnicode:南條愛乃
Creator:officialAkage
Version:Expert
Source:グリザイアの果実
Tags:yereoz enuhq ninjaking311 grisaia no kajitsu fruit of grisaia -LE FRUIT DE LA GRISAIA- anime jpop j-pop j pop japanese female vocalist ending ed 2
BeatmapID:3447851
BeatmapSetID:1687018

[Difficulty]
HPDrainRate:5
CircleSize:4
OverallDifficulty:8.8
ApproachRate:9
SliderMultiplier:1.77
SliderTickRate:1

[Events]
//Background and Video events
0,0,"BG.jpg",0,0
Video,-750,"vid.mp4"
//Break Periods
//Storyboard Layer 0 (Background)
//Storyboard Layer 1 (Fail)
//Storyboard Layer 2 (Pass)
//Storyboard Layer 3 (Foreground)
//Storyboard Layer 4 (Overlay)
//Storyboard Sound Samples

[TimingPoints]
626,348.837209302326,4,2,17,45,1,0
626,-149.253731343284,4,2,17,45,0,0
974,371.517027863777,4,2,17,45,1,0
1159,-149.253731343284,4,2,17,45,0,0
1346,362.537764350453,4,2,17,45,1,0
1527,-149.253731343284,4,2,17,45,0,0
1889,390.879478827362,4,2,17,45,1,0
2084,343.839541547278,4,2,17,45,1,0
2084,-149.253731343284,4,2,17,45,0,0
2599,410.95890410959,4,2,17,45,1,0
2805,397.350993377484,4,2,17,45,1,0
3401,372.670807453417,4,2,17,45,1,0
3587,348.837209302326,4,2,17,45,1,0
3587,-149.253731343284,4,2,17,45,0,0
5156,-149.253731343284,4,2,17,5,0,0
5214,-149.253731343284,4,2,17,45,0,0
5680,-212.765957446807,4,2,17,45,0,0
6292,-212.765957446807,4,2,17,5,0,0
6377,341.296928327645,4,2,17,45,1,0
6377,-212.765957446807,4,2,17,45,0,0
6972,-212.765957446807,4,2,17,5,0,0
7059,348.837209302326,4,2,17,70,1,0
7059,-103.092783505155,4,2,17,70,0,0
8541,-103.092783505155,4,2,17,5,0,0
8628,-103.092783505155,4,2,17,70,0,0
11332,-103.092783505155,4,2,17,5,0,0
11419,-103.092783505155,4,2,17,70,0,0
11942,285.714285714286,4,2,17,70,1,0
12228,245.901639344262,4,2,17,70,1,0
12474,327.868852459017,4,2,17,70,1,0
12638,348.837209302326,4,2,17,70,1,0
12638,-103.092783505155,4,2,17,70,0,0
14992,-103.092783505155,4,2,17,5,0,0
15080,-103.092783505155,4,2,17,70,0,0
15428,-114.942528735633,4,2,17,70,0,0
16388,-114.942528735633,4,2,17,5,0,0
16475,-114.942528735633,4,2,17,70,0,0
16911,-114.942528735633,4,2,17,5,0,0
16998,-114.942528735633,4,2,17,70,0,0
17872,377.358490566038,4,2,17,70,1,0
18250,348.837209302326,4,2,17,50,1,0
18250,-129.87012987013,4,2,17,50,0,0
20168,361.445783132531,4,2,17,50,1,0
20711,320.855614973262,4,2,17,50,1,0
20711,-129.87012987013,4,2,17,50,0,0
20951,-129.87012987013,4,2,17,5,0,0
21030,-129.87012987013,4,2,17,50,0,0
21031,348.837209302326,4,2,17,50,1,0
21031,-129.87012987013,4,2,17,50,0,0
21293,-129.87012987013,4,2,17,5,0,0
21380,-129.87012987013,4,2,17,50,0,0
25479,-129.87012987013,4,2,17,5,0,0
25566,-129.87012987013,4,2,17,50,0,0
26875,-129.87012987013,4,2,17,5,0,0
26961,-129.87012987013,4,2,17,50,0,0
27135,326.08695652174,4,2,17,50,1,0
27135,-129.87012987013,4,2,17,50,0,0
27543,-129.87012987013,4,2,17,5,0,0
27623,363.636363636364,4,2,17,50,1,0
27623,-129.87012987013,4,2,17,50,0,0
27895,-129.87012987013,4,2,17,5,0,0
27987,348.837209302326,4,2,17,50,1,0
27987,-129.87012987013,4,2,17,50,0,0
28423,-129.87012987013,4,2,17,5,0,0
28510,-129.87012987013,4,2,17,50,0,0
28946,-129.87012987013,4,2,17,5,0,0
29033,-129.87012987013,4,2,17,50,0,0
29382,-114.942528735632,4,2,17,55,0,0
32085,-114.942528735632,4,2,17,5,0,0
32173,-114.942528735632,4,2,17,55,0,0
34527,-114.942528735632,4,2,17,5,0,0
34614,-114.942528735632,4,2,17,55,0,0
40545,-114.942528735633,4,2,17,60,0,0
41504,-114.942528735633,4,2,17,5,0,0
41591,-114.942528735633,4,2,17,60,0,0
42027,-114.942528735633,4,2,17,5,0,0
42114,-114.942528735633,4,2,17,60,0,0
43335,-103.092783505155,4,2,17,60,0,0
46126,-103.092783505155,4,2,17,65,0,0
48917,-103.092783505155,4,2,17,70,0,0
51707,-103.092783505155,4,2,17,70,0,0
53626,-149.253731343284,4,2,17,45,0,0
54498,-103.092783505155,4,2,17,75,0,0
54760,-103.092783505155,4,2,17,5,0,0
54847,-103.092783505155,4,2,17,75,0,0
60341,-103.092783505155,4,2,17,5,0,0
60428,-103.092783505155,4,2,17,75,0,0
60864,-103.092783505155,4,2,17,5,0,0
60952,-103.092783505155,4,2,17,75,0,0
63132,-103.092783505155,4,2,17,5,0,0
63219,-103.092783505155,4,2,17,75,0,0
65661,-93.4579439252336,4,2,17,80,0,0
65923,-93.4579439252336,4,2,17,5,0,0
66010,-93.4579439252336,4,2,17,80,0,0
68713,-93.4579439252336,4,2,17,5,0,0
68800,-93.4579439252336,4,2,17,80,0,0
71417,-93.4579439252336,4,2,17,80,0,0
72202,-93.4579439252336,4,2,17,5,0,0
72289,-93.4579439252336,4,2,17,80,0,0
72463,-129.87012987013,4,2,17,80,0,0
73161,-93.4579439252336,4,2,17,80,0,0
74033,-114.942528735632,4,2,17,60,0,0
75341,-114.942528735632,4,2,17,5,0,0
75428,-114.942528735632,4,2,17,60,0,0
76824,-114.942528735632,4,2,17,70,0,0
77085,-114.942528735632,4,2,17,5,0,0
77173,-114.942528735632,4,2,17,70,0,0
78219,-212.765957446809,4,2,17,70,0,0
78830,-175.438596491228,4,2,17,5,0,0
78917,-212.765957446809,4,2,17,70,0,0
79527,-212.765957446809,4,2,17,5,0,0
79614,-114.942528735632,4,2,17,65,0,0
79876,-114.942528735632,4,2,17,5,0,0
79963,-114.942528735632,4,2,17,65,0,0
80399,-114.942528735632,4,2,17,5,0,0
80487,-114.942528735632,4,2,17,65,0,0
85021,-149.253731343283,4,2,17,65,0,0
85981,-149.253731343283,4,2,17,5,0,0
86068,-149.253731343283,4,2,17,65,0,0

[Colours]
Combo1 : 106,106,251
Combo2 : 223,36,111

[HitObjects]
501,109,626,5,2,0:2:0:0:
501,109,800,2,0,P|480:101|438:89,1,59.2949971952135,2|2,0:2|0:2,0:0:0:0:
384,10,1159,2,0,P|355:18|327:28,1,59.2949971952135,2|2,0:2|0:2,0:0:0:0:
267,96,1527,6,0,P|252:140|233:211,1,118.589994390427,2|2,0:2|0:2,0:0:0:0:
186,312,2084,2,0,P|130:333|76:313,1,118.589994390427,2|0,0:2|0:2,0:2:0:0:
7,280,2599,1,2,0:2:0:0:
0,269,2804,1,2,0:2:0:0:
0,269,3401,5,2,0:2:0:0:
0,269,3587,2,0,P|30:262|63:267,1,59.2949971952135,2|0,0:2|0:0,0:0:0:0:
134,339,3935,2,0,P|164:346|197:341,1,59.2949971952135,2|0,0:2|0:2,0:2:0:0:
292,251,4284,6,0,P|249:237|170:216,1,118.589994390427,2|2,0:2|0:2,0:2:0:0:
89,169,4807,2,0,P|71:119|97:62,1,118.589994390427,2|0,0:2|0:2,0:2:0:0:
110,47,5214,2,0,P|113:33|119:14,2,19.7649990650712
193,96,5505,1,2,0:2:0:0:
193,96,5680,6,1,P|231:84|332:55,1,145.582497778587,2|0,0:2|0:0,0:2:0:0:
409,72,6377,6,0,P|446:111|425:194,1,145.582497778587,2|0,0:2|0:0,0:2:0:0:
407,268,7059,5,6,1:2:0:0:
209,175,7233,1,0,0:2:0:0:
380,137,7407,1,0,1:2:0:0:
256,301,7582,2,0,P|218:289|165:274,1,85.8450020303307,10|0,0:2|1:2,0:2:0:0:
0,188,7931,2,0,P|37:176|90:161,1,85.8450020303307,2|0,0:2|1:2,0:2:0:0:
145,46,8279,2,0,P|198:33|272:65,1,128.767503045496,2|0,0:2|0:0,0:2:0:0:
280,80,8628,6,0,P|291:115|303:163,1,85.8450020303307,8|2,0:2|1:2,0:0:0:0:
512,6,8977,2,0,P|500:41|488:89,1,85.8450020303307,8|0,0:2|1:2,0:0:0:0:
512,227,9326,1,2,0:2:0:0:
361,66,9500,1,4,1:2:0:0:
306,257,9675,5,8,0:2:0:0:
306,257,9762,1,8,0:2:0:0:
306,257,9849,2,0,L|409:227,1,85.8450020303307,2|2,1:2|0:2,0:0:0:0:
244,112,10198,1,0,1:2:0:0:
149,296,10372,2,0,L|252:325,1,85.8450020303307,14|0,0:2|0:2,0:2:0:0:
108,136,10721,1,2,0:2:0:0:
1,313,10896,1,10,0:2:0:0:
201,196,11070,2,0,P|218:139|183:62,1,128.767503045496,2|0,0:2|0:0,0:2:0:0:
177,63,11419,5,8,0:2:0:0:
412,0,11593,1,2,1:2:0:0:
300,168,11768,1,10,0:2:0:0:
463,82,11942,5,6,1:2:0:0:
472,78,12228,5,6,0:3:0:0:
484,75,12474,5,6,0:3:0:0:
446,224,12638,6,0,P|411:233|342:253,1,85.8450020303307,6|0,1:2|1:2,0:2:0:0:
200,325,12986,1,0,1:2:0:0:
342,158,13161,2,0,P|307:148|238:128,1,85.8450020303307,10|0,0:2|1:2,0:2:0:0:
128,56,13510,1,0,1:2:0:0:
23,213,13684,6,0,P|13:178|-6:109,1,85.8450020303307,10|0,0:2|0:2,0:2:0:0:
231,250,14033,1,2,1:2:0:0:
82,330,14207,2,0,P|93:288|105:247,1,85.8450020303307,10|0,0:2|1:2,0:2:0:0:
201,87,14556,1,0,1:2:0:0:
313,231,14731,2,0,P|366:248|432:210,1,128.767503045496,10|0,0:2|1:2,0:2:0:0:
444,189,15079,1,8,0:2:0:0:
307,361,15254,5,8,0:2:0:0:
307,361,15341,1,8,0:2:0:0:
307,361,15428,2,0,P|247:343|135:311,1,153.990001292336,6|2,1:2|0:2,0:2:0:0:
37,245,15951,1,0,1:2:0:0:
145,132,16126,2,0,P|198:122|272:160,1,115.492500969252,10|0,0:2|0:2,0:2:0:0:
270,164,16475,1,4,0:3:0:0:
421,300,16649,6,0,P|432:253|459:163,1,115.492500969252,6|0,1:2|0:2,0:2:0:0:
459,169,16998,1,2,0:2:0:0:
298,260,17172,2,0,P|288:225|274:179,1,76.9950006461678,2|0,1:2|1:2,0:2:0:0:
169,33,17521,1,8,0:2:0:0:
160,23,17870,1,10,0:2:0:0:
54,141,18060,5,8,0:2:0:0:
54,141,18155,1,8,0:2:0:0:
54,141,18250,2,0,P|82:148|136:164,1,68.1449986482468,2|0,0:2|0:0,0:2:0:0:
195,222,18598,1,2,0:2:0:0:
121,331,18773,2,0,P|153:321|186:312,1,68.1449986482468,2|0,0:2|0:0,0:2:0:0:
272,347,19122,1,2,0:2:0:0:
272,347,19296,1,2,0:2:0:0:
341,223,19470,1,2,0:2:0:0:
341,223,19819,5,2,0:2:0:0:
395,283,19994,1,2,0:2:0:0:
448,341,20168,1,2,0:2:0:0:
448,341,20711,2,0,P|458:298|480:223,1,102.21749797237,2|0,0:2|0:0,0:0:0:0:
483,224,21031,6,0,P|482:177|438:143,1,102.21749797237,2|0,0:2|0:0,0:0:0:0:
419,139,21379,1,2,0:2:0:0:
334,202,21554,2,0,P|303:192|263:181,1,68.1449986482468,2|0,0:2|0:2,0:2:0:0:
149,187,21903,2,0,P|172:165|201:136,1,68.1449986482468,2|0,0:2|0:2,0:2:0:0:
254,34,22251,2,0,P|260:65|271:104,1,68.1449986482468,2|0,0:2|0:2,0:2:0:0:
334,179,22600,1,2,0:2:0:0:
261,262,22775,2,0,P|229:270|190:282,1,68.1449986482468,2|0,0:2|0:2,0:0:0:0:
195,280,23472,5,2,0:2:0:0:
195,280,23647,1,2,0:2:0:0:
96,215,23821,2,0,P|73:170|110:97,1,136.289997296494,2|0,0:2|0:2,0:2:0:0:
178,34,24344,2,0,P|214:43|313:72,1,136.289997296494,2|0,0:2|0:2,0:2:0:0:
400,49,24868,1,2,0:2:0:0:
400,49,25042,1,2,0:2:0:0:
471,135,25217,6,0,P|433:144|366:165,1,102.21749797237,2|0,0:2|0:0,0:2:0:0:
355,176,25565,1,2,0:2:0:0:
277,306,25740,1,2,0:2:0:0:
277,306,26263,5,2,0:2:0:0:
277,306,26437,1,2,0:2:0:0:
179,371,26612,2,0,P|140:359|53:334,1,102.21749797237,2|0,0:2|0:0,0:2:0:0:
62,337,26961,1,2,0:2:0:0:
1,216,27135,2,0,P|35:195|152:231,1,170.362496620617,2|0,0:2|0:0,0:2:0:0:
166,249,27623,2,0,P|177:206|202:121,1,102.21749797237,2|0,0:2|0:2,0:2:0:0:
206,125,27987,6,0,B|252:100|295:131|284:142|330:180|376:148,1,170.362496620617,2|0,0:2|0:2,0:2:0:0:
383,140,28510,1,2,0:2:0:0:
476,227,28684,2,0,P|492:265|458:342,1,102.21749797237,2|2,0:2|0:1,0:2:0:0:
463,342,29033,1,2,0:2:0:0:
463,342,29207,1,2,0:2:0:0:
311,271,29382,6,0,P|343:260|386:249,1,76.9950006461678,6|0,1:2|0:2,0:2:0:0:
215,363,29731,1,0,1:2:0:0:
215,363,29905,2,0,P|252:372|288:384,1,76.9950006461678,2|0,0:2|1:2,0:2:0:0:
205,240,30254,1,2,0:2:0:0:
100,371,30428,1,2,1:2:0:0:
205,240,30603,2,0,P|213:201|195:158,1,76.9950006461678,2|0,0:2|1:2,0:2:0:0:
35,82,30952,1,2,0:2:0:0:
130,207,31126,1,2,1:2:0:0:
237,63,31300,2,0,L|153:44,1,76.9950006461678,2|0,0:2|1:2,0:2:0:0:
385,0,31824,6,0,P|396:37|423:133,1,115.492500969252,2|0,1:2|0:2,0:2:0:0:
431,139,32173,2,0,P|419:173|408:215,1,76.9950006461678,2|0,1:2|0:2,0:2:0:0:
308,290,32521,1,2,1:2:0:0:
308,290,32696,2,0,P|267:295|233:281,1,76.9950006461678,2|0,0:2|1:2,0:2:0:0:
132,174,33045,2,0,P|165:163|216:149,1,76.9950006461678,2|0,0:2|1:2,0:2:0:0:
50,293,33393,2,0,P|84:301|134:317,1,76.9950006461678,2|0,0:2|1:2,0:2:0:0:
214,384,33742,1,2,0:2:0:0:
301,291,33917,2,0,P|339:286|374:300,1,76.9950006461678,2|4,1:2|0:3,0:2:0:0:
465,384,34266,2,0,P|476:339|498:266,1,115.492500969252,2|0,1:2|0:0,0:2:0:0:
506,257,34614,5,2,1:2:0:0:
506,257,34789,1,2,0:2:0:0:
418,156,34963,2,0,P|383:145|328:130,1,76.9950006461678,2|2,1:2|0:2,0:2:0:0:
226,153,35312,1,2,1:2:0:0:
327,29,35486,1,2,0:2:0:0:
226,153,35661,2,0,P|188:163|152:174,1,76.9950006461678,0|0,1:2|3:2,0:0:0:0:
132,188,35923,5,0,3:2:0:0:
132,188,36010,1,0,1:2:0:0:
250,300,36184,1,2,0:2:0:0:
345,132,36359,1,2,1:2:0:0:
184,88,36533,1,8,0:2:0:0:
237,162,36707,1,0,1:2:0:0:
299,235,36882,2,0,P|329:224|396:207,1,76.9950006461678,2|0,3:2|1:2,0:0:0:0:
457,162,37231,1,8,0:3:0:0:
325,331,37405,2,0,P|294:320|227:303,1,76.9950006461678,2|2,1:2|0:2,0:0:0:0:
43,193,37754,5,6,1:2:0:0:
159,373,37928,1,0,0:0:0:0:
236,205,38103,1,2,0:2:0:0:
66,318,38277,1,0,1:2:0:0:
66,318,38364,1,0,1:2:0:0:
66,318,38452,1,10,0:2:0:0:
66,318,38800,5,2,1:2:0:0:
166,142,38975,1,8,0:2:0:0:
14,233,39149,1,0,0:2:0:0:
144,54,39324,2,0,P|175:62|219:75,1,76.9950006461678,6|2,0:3|1:2,0:0:0:0:
300,172,39673,1,2,1:2:0:0:
409,22,39847,2,0,P|441:12|488:-1,1,76.9950006461678,10|0,0:2|0:0,0:2:0:0:
225,132,40196,1,8,0:2:0:0:
356,252,40370,5,0,1:2:0:0:
356,252,40457,1,8,0:2:0:0:
356,252,40545,2,0,P|369:198|403:85,1,153.990001292336,6|0,1:2|0:2,0:2:0:0:
396,103,41068,1,2,1:2:0:0:
239,219,41242,2,0,P|177:213|138:172,1,115.492500969252,6|0,1:2|0:0,0:2:0:0:
134,159,41591,1,2,0:2:0:0:
8,326,41766,6,0,P|48:312|130:289,1,115.492500969252,10|0,0:2|0:0,0:2:0:0:
136,287,42114,1,2,1:2:0:0:
15,128,42289,2,0,P|8:161|-3:213,1,76.9950006461678,14|0,0:2|1:2,0:2:0:0:
141,37,42638,6,1,B|197:8|257:58|231:77|294:131|363:85,1,230.985001938503,8|4,0:2|0:3,0:2:0:0:
471,8,43335,5,14,0:2:0:0:
293,183,43510,1,2,1:2:0:0:
485,99,43684,1,0,1:2:0:0:
282,273,43859,6,0,P|246:261|182:244,1,85.8450020303307,10|0,0:2|1:2,0:2:0:0:
116,194,44207,1,2,1:2:0:0:
245,372,44382,2,0,P|281:360|345:343,1,85.8450020303307,10|0,0:2|1:2,0:2:0:0:
456,249,44730,1,2,1:2:0:0:
320,97,44905,2,0,P|309:132|293:189,1,85.8450020303307,10|0,0:2|1:2,0:2:0:0:
192,315,45254,5,2,1:2:0:0:
57,129,45428,1,10,0:2:0:0:
229,221,45603,1,2,1:2:0:0:
77,347,45777,2,0,P|67:308|51:258,1,85.8450020303307,8|2,0:2|0:2,0:0:0:0:
197,62,46126,5,10,0:2:0:0:
0,195,46300,1,2,1:2:0:0:
119,6,46475,1,0,1:2:0:0:
208,178,46649,6,0,P|244:166|308:149,1,85.8450020303307,10|0,0:2|1:2,0:2:0:0:
374,99,46997,1,2,1:2:0:0:
245,277,47172,2,0,P|209:265|145:248,1,85.8450020303307,10|0,0:2|1:2,0:2:0:0:
37,159,47520,1,2,1:2:0:0:
170,2,47695,2,0,P|181:37|197:94,1,85.8450020303307,10|0,0:2|1:2,0:2:0:0:
278,206,48045,5,2,1:2:0:0:
107,84,48219,2,0,P|64:75|23:87,1,85.8450020303307,14|0,0:2|1:2,0:2:0:0:
155,220,48568,2,0,P|178:211|219:201,1,42.9225010151654,8|0,0:2|0:0,0:0:0:0:
269,139,48742,2,0,P|289:144|309:152,1,42.9225010151654,10|8,0:2|0:2,0:0:0:0:
428,260,48917,6,0,P|441:300|427:339,1,85.8450020303307,2|0,1:2|0:0,0:2:0:0:
411,358,49178,1,0,0:2:0:0:
411,358,49266,1,0,3:2:0:0:
309,304,49440,2,0,P|290:298|252:287,3,42.9225010151654,2|0|0|0,1:2|0:0|0:0|3:2,0:2:0:0:
214,349,49789,2,0,P|190:354|156:364,1,42.9225010151654,2|0,3:2|3:2,0:2:0:0:
54,328,49963,6,0,P|35:292|46:243,1,85.8450020303307,2|0,1:2|3:2,0:2:0:0:
58,241,50225,1,0,3:2:0:0:
58,241,50312,2,0,P|75:234|100:228,1,42.9225010151654,2|0,3:2|3:2,0:2:0:0:
162,169,50486,2,0,P|182:173|203:180,3,42.9225010151654,2|0|0|0,1:2|0:0|3:2|3:2,0:2:0:0:
286,146,50835,6,0,P|299:130|314:114,1,42.9225010151654,10|0,0:2|3:2,0:2:0:0:
206,58,51010,2,0,P|212:77|219:98,1,42.9225010151654,2|0,1:2|3:2,0:2:0:0:
322,32,51184,2,0,P|301:28|280:23,1,42.9225010151654,10|0,0:2|3:2,0:2:0:0:
137,0,51359,5,0,1:2:0:0:
94,4,51446,1,8,0:2:0:0:
60,28,51533,1,10,0:2:0:0:
41,67,51620,1,8,0:2:0:0:
43,109,51707,5,6,1:2:0:0:
188,281,51882,1,8,0:2:0:0:
136,115,52056,1,10,0:2:0:0:
341,254,52231,1,2,1:2:0:0:
349,266,52580,6,1,P|358:229|383:146,2,85.8450020303307,6|0|4,1:2|0:0|0:3,0:2:0:0:
282,332,53103,1,10,0:2:0:0:
453,107,53277,1,10,0:2:0:0:
453,107,53626,6,0,P|445:80|435:44,2,59.2949971952135,2|2|2,0:2|0:2|0:2,0:2:0:0:
501,179,54149,1,2,0:2:0:0:
501,179,54324,1,2,0:2:0:0:
403,314,54498,6,0,P|357:299|275:277,1,128.767503045496,6|0,1:2|0:0,0:2:0:0:
259,275,54847,1,10,0:2:0:0:
96,143,55021,2,0,P|158:88|240:102,1,171.690004060661,2|0,1:2|1:2,0:2:0:0:
360,250,55545,1,10,0:2:0:0:
181,167,55719,1,2,0:2:0:0:
360,73,55893,1,0,1:0:0:0:
190,262,56068,2,0,P|153:248|101:230,1,85.8450020303307,0|8,0:2|0:2,0:0:0:0:
3,163,56417,5,2,1:2:0:0:
142,342,56591,1,2,0:2:0:0:
269,166,56766,1,2,1:2:0:0:
114,122,56940,1,10,0:2:0:0:
249,293,57114,1,0,0:2:0:0:
373,128,57289,6,0,P|383:91|397:45,1,85.8450020303307,2|0,1:2|1:2,0:2:0:0:
204,190,57638,1,10,0:2:0:0:
322,276,57812,2,0,P|300:202|272:110,1,171.690004060661,2|0,1:2|1:0,0:2:0:0:
156,56,58335,1,8,0:2:0:0:
57,249,58510,5,0,0:2:0:0:
204,153,58684,1,2,1:2:0:0:
82,347,58859,2,0,P|46:336|-7:321,1,85.8450020303307,2|8,1:2|0:2,0:2:0:0:
222,244,59207,2,0,P|230:279|244:334,1,85.8450020303307,2|0,0:2|1:2,0:2:0:0:
63,175,59556,2,0,P|89:149|129:110,1,85.8450020303307,2|8,0:2|0:2,0:2:0:0:
304,57,59905,5,0,1:2:0:0:
304,57,59992,1,8,0:2:0:0:
304,57,60080,2,0,P|346:67|433:94,1,128.767503045496,6|0,1:2|0:0,0:2:0:0:
446,101,60428,1,8,0:2:0:0:
283,253,60603,2,1,P|214:258|162:215,1,128.767503045496,2|0,1:2|0:0,0:2:0:0:
162,204,60952,1,0,1:2:0:0:
362,105,61126,1,10,0:2:0:0:
289,18,61300,6,0,P|272:70|240:186,1,171.690004060661,2|0,0:2|1:2,0:0:0:0:
117,247,61824,2,0,P|107:207|88:147,1,85.8450020303307,10|2,0:2|1:2,0:0:0:0:
294,270,62173,1,2,0:2:0:0:
171,367,62347,2,0,P|181:327|199:267,1,85.8450020303307,2|8,1:2|0:2,0:2:0:0:
365,184,62696,1,10,0:3:0:0:
264,77,62870,6,0,P|201:64|144:90,1,128.767503045496,6|0,1:2|0:0,0:2:0:0:
135,105,63219,1,10,0:2:0:0:
358,17,63393,1,6,1:2:0:0:
371,25,63742,1,2,1:2:0:0:
383,33,64091,6,0,P|398:83|433:209,1,171.690004060661,10|6,0:2|0:3,0:0:0:0:
350,340,64614,2,0,P|311:363|261:358,1,85.8450020303307,8|2,0:3|1:2,0:0:0:0:
115,185,64963,1,10,0:2:0:0:
298,272,65138,1,10,0:2:0:0:
298,272,65225,1,8,0:2:0:0:
298,272,65312,1,6,0:3:0:0:
115,384,65486,1,6,0:3:0:0:
218,198,65661,6,0,P|270:168|348:180,1,142.042495665207,14|0,0:2|0:0,0:2:0:0:
360,197,66010,1,10,0:2:0:0:
196,330,66184,2,0,P|156:317|97:301,1,94.694997110138,2|8,1:2|0:0,0:2:0:0:
0,133,66533,1,0,1:2:0:0:
170,236,66707,1,10,0:2:0:0:
54,53,66882,1,2,1:2:0:0:
227,168,67056,6,0,P|267:155|326:139,1,94.694997110138,10|0,0:2|1:2,0:2:0:0:
506,39,67405,2,0,P|461:13|419:17,1,94.694997110138,10|2,0:2|1:2,0:0:0:0:
295,228,67754,1,8,0:2:0:0:
447,90,67928,1,2,1:2:0:0:
336,312,68103,1,10,0:2:0:0:
476,190,68277,1,2,1:2:0:0:
309,81,68452,6,0,P|240:70|178:107,1,142.042495665207,10|0,0:2|0:0,0:2:0:0:
173,121,68800,1,10,0:2:0:0:
37,259,68975,2,0,P|26:218|9:163,1,94.694997110138,2|8,1:2|0:2,0:2:0:0:
247,326,69324,2,0,P|257:285|274:230,1,94.694997110138,2|8,1:2|0:2,0:2:0:0:
369,138,69673,5,0,1:2:0:0:
179,247,69847,1,10,0:2:0:0:
345,341,70021,2,0,P|383:329|437:314,1,94.694997110138,2|8,1:2|0:2,0:2:0:0:
284,162,70370,2,0,P|274:200|260:255,1,94.694997110138,2|14,0:2|0:2,0:0:0:0:
469,198,70719,1,0,1:2:0:0:
469,198,70806,1,0,1:2:0:0:
469,198,70893,2,0,P|441:170|400:130,2,94.694997110138,10|8|8,0:2|0:3|0:3,0:0:0:0:
279,44,71417,6,0,P|231:34|175:64,1,94.694997110138,6|0,1:2|0:0,0:2:0:0:
274,208,71766,1,0,1:2:0:0:
274,208,71853,1,0,1:2:0:0:
274,208,71940,2,0,P|318:193|439:160,1,142.042495665207,10|0,0:2|0:2,0:2:0:0:
435,164,72289,1,4,0:3:0:0:
265,357,72463,5,6,1:2:0:0:
247,376,72812,2,0,P|237:342|222:290,1,68.1449986482468,8|0,0:2|0:0,0:0:0:0:
123,145,73161,1,2,1:2:0:0:
245,228,73335,2,0,P|280:237|341:255,1,94.694997110138,10|2,0:2|0:2,0:0:0:0:
292,130,73684,1,8,0:2:0:0:
169,275,73859,5,0,1:2:0:0:
169,275,73946,1,8,0:2:0:0:
169,275,74033,2,0,P|159:239|145:192,1,76.9950006461678,6|0,1:2|0:2,0:2:0:0:
292,130,74382,2,0,P|265:156|232:192,1,76.9950006461678,2|0,1:2|0:2,0:2:0:0:
105,96,74731,2,0,P|141:105|188:116,1,76.9950006461678,2|0,1:2|0:2,0:2:0:0:
277,35,75080,2,0,P|331:34|376:73,1,115.492500969252,2|0,1:2|0:0,0:2:0:0:
379,96,75428,6,0,P|362:149|335:247,2,153.990001292336,2|0|2,1:2|1:2|1:2,0:2:0:0:
379,96,76475,1,0,1:2:0:0:
440,292,76824,6,0,P|416:337|337:349,1,115.492500969252,6|0,1:2|0:0,0:2:0:0:
338,352,77173,2,0,P|303:341|257:328,1,76.9950006461678,0|2,1:2|1:2,0:0:0:0:
220,270,77434,1,8,0:2:0:0:
220,270,77521,2,0,P|184:279|146:291,1,76.9950006461678,2|0,1:2|0:2,0:2:0:0:
123,365,77783,1,8,0:2:0:0:
123,365,77870,2,0,P|85:368|51:350,1,76.9950006461678,0|8,1:2|0:2,0:0:0:0:
2,294,78132,5,8,0:2:0:0:
2,294,78219,2,0,P|44:237|115:232,1,145.582497778587,6|0,1:2|0:0,0:2:0:0:
132,243,78917,6,0,P|188:261|260:205,1,145.582497778587
273,143,79614,6,0,P|284:97|307:23,1,115.492500969252,6|0,1:2|0:0,0:2:0:0:
311,14,79963,1,8,0:2:0:0:
437,147,80138,2,0,P|440:203|413:253,1,115.492500969252,2|0,1:2|0:0,0:2:0:0:
314,354,80487,1,0,1:2:0:0:
189,239,80661,2,0,P|222:228|283:211,1,76.9950006461678,10|0,0:2|1:2,0:2:0:0:
282,214,80923,5,0,1:2:0:0:
282,214,81010,1,2,1:2:0:0:
129,63,81184,1,2,1:2:0:0:
255,127,81359,1,8,0:2:0:0:
105,250,81533,2,0,P|71:239|10:222,1,76.9950006461678,2|0,1:2|1:2,0:2:0:0:
20,225,81795,5,0,1:2:0:0:
20,225,81882,1,2,1:2:0:0:
129,63,82056,1,10,0:2:0:0:
220,199,82231,1,2,0:2:0:0:
347,46,82405,6,0,P|314:36|266:22,1,76.9950006461678,6|0,1:2|1:2,0:2:0:0:
135,171,82754,1,10,0:2:0:0:
23,15,82928,1,6,1:2:0:0:
15,5,83452,5,10,0:2:0:0:
214,84,83626,1,10,0:2:0:0:
99,237,83800,1,2,0:2:0:0:
10,105,83975,1,2,0:2:0:0:
5,98,84324,1,6,0:3:0:0:
0,90,84673,5,2,3:2:0:0:
68,161,84847,1,10,0:2:0:0:
142,233,85021,2,0,B|209:288|308:211|255:173|352:98|439:159,1,326.122484573674,6|0,1:2|0:0,0:2:0:0:
441,175,86068,5,0,0:2:0:0:
431,206,86155,1,8,0:2:0:0:
422,237,86242,1,8,0:2:0:0:
412,268,86329,1,8,0:2:0:0:
403,300,86416,1,10,0:2:0:0:
