osu file format v14

[General]
AudioFilename: audio.mp3
AudioLeadIn: 0
PreviewTime: 40161
Countdown: 0
SampleSet: Soft
StackLeniency: 0.4
Mode: 0
LetterboxInBreaks: 0
WidescreenStoryboard: 0

[Editor]
DistanceSpacing: 0.2
BeatDivisor: 8
GridSize: 4
TimelineZoom: 3.339998

[Metadata]
Title:Battle Spirit
TitleUnicode:バトルスピリット
Artist:Yoshino Aoki
ArtistUnicode:青木佳乃
Creator:P o M u T a
Version:XX
Source:バトルネットワーク ロックマンエグゼ2
Tags:electronic video Kyshiro forte megaman Mega Man pomuta Battle Network Rockman EXE 2 capcom game boy advance airman quickman cutman shadowman protoman knightman magnetman freezeman bass gospel gba instrumental
BeatmapID:1008723
BeatmapSetID:472007

[Difficulty]
HPDrainRate:7
CircleSize:4.2
OverallDifficulty:9.8
ApproachRate:9.8
SliderMultiplier:3.59999990463257
SliderTickRate:1

[Events]
//Background and Video events
0,0,"2070867_p0.jpg",0,0
//Break Periods
//Storyboard Layer 0 (Background)
//Storyboard Layer 1 (Fail)
//Storyboard Layer 2 (Pass)
//Storyboard Layer 3 (Foreground)
//Storyboard Layer 4 (Overlay)
//Storyboard Sound Samples

[TimingPoints]
530,412.825099766066,4,2,1,60,1,0
530,-133.333333333333,4,2,1,60,0,0
3006,-133.333333333333,4,2,1,70,0,0
3213,-100,4,2,1,80,0,0
3832,-133.333333333333,4,2,1,60,0,0
4761,-83.3333333333333,4,2,1,60,0,0
5071,-100,4,2,1,60,0,0
5483,-100,4,2,1,70,0,0
5690,-66.6666666666667,4,2,1,100,0,0
6309,-100,4,2,1,60,0,0
6722,-100,4,2,1,70,0,0
7135,-133.333333333333,4,2,1,80,0,0
7444,-100,4,2,1,80,0,0
9818,-83.3333333333333,4,2,1,90,0,0
10437,-100,4,2,1,80,0,0
16423,-83.3333333333333,4,2,1,90,0,0
17043,-100,4,2,1,80,0,0
20345,-90.9090909090909,4,2,1,85,0,0
23648,-90.9090909090909,4,2,1,50,0,0
24061,-90.9090909090909,4,2,1,60,0,0
24473,-90.9090909090909,4,2,1,70,0,0
24886,-90.9090909090909,4,2,1,80,0,0
25299,-90.9090909090909,4,2,1,85,0,0
32730,-90.9090909090909,4,2,1,75,0,0
33143,-90.9090909090909,4,2,1,80,0,0
33556,-90.9090909090909,4,2,1,85,0,0
38716,-66.6666666666667,4,2,1,90,0,0
39335,-133.333333333333,4,2,1,80,0,0
40161,-133.333333333333,4,2,1,80,0,0
40574,-100,4,2,1,80,0,0
42844,-66.6666666666667,4,2,1,80,0,0
43463,-100,4,2,1,80,0,0
49449,-66.6666666666667,4,2,1,80,0,0
50069,-100,4,2,1,80,0,0
53371,-90.9090909090909,4,2,1,85,0,1
56674,-90.9090909090909,4,2,1,50,0,1
57087,-90.9090909090909,4,2,1,60,0,1
57499,-90.9090909090909,4,2,1,70,0,1
57912,-90.9090909090909,4,2,1,80,0,1
58325,-90.9090909090909,4,2,1,85,0,1
65756,-90.9090909090909,4,2,1,75,0,1
66169,-90.9090909090909,4,2,1,80,0,1
66582,-90.9090909090909,4,2,1,85,0,0
71535,-66.6666666666667,4,2,1,80,0,0
72361,-133.333333333333,4,2,1,60,0,0
72774,-133.333333333333,4,2,1,70,0,0
73187,-133.333333333333,4,2,1,100,0,0

[Colours]
Combo1 : 191,255,191
Combo2 : 136,136,255
Combo3 : 255,198,140
Combo4 : 210,166,255

[HitObjects]
123,192,530,6,0,B|163:198|163:198|216:186|216:186|256:192,1,135.000001573563,6|0,0:0|0:0,0:0:0:0:
491,112,942,1,2,0:0:0:0:
491,112,1046,2,0,L|499:253,1,135.000001573563,0|0,0:0|0:0,0:0:0:0:
362,354,1355,2,0,P|359:319|410:234,1,135.000001573563,2|0,0:0|0:0,0:0:0:0:
255,191,1665,2,0,P|286:205|334:292,1,135.000001573563,0|0,0:0|0:0,0:0:0:0:
255,191,1974,2,0,P|240:201|191:200,1,67.5000007867814,0|2,0:0|0:0,0:0:0:0:
111,10,2181,6,0,P|128:51|121:95,1,67.5000007867814,2|0,0:0|0:0,0:0:0:0:
60,129,2387,2,0,L|194:123,1,135.000001573563,0|2,0:0|0:0,0:0:0:0:
12,182,2697,2,0,L|17:316,1,135.000001573563,0|2,0:0|0:0,0:0:0:0:
79,383,3006,5,12,0:0:0:0:
105,298,3110,1,4,0:0:0:0:
190,328,3213,6,0,P|97:345|17:317,1,179.999995231629,8|0,0:3|0:0,0:0:0:0:
428,366,3522,2,0,P|335:349|255:377,1,179.999995231629,4|2,0:0|0:0,0:0:0:0:
491,306,3832,5,2,0:0:0:0:
256,192,4039,1,0,0:0:0:0:
491,78,4245,1,2,0:0:0:0:
491,78,4348,2,0,P|423:91|362:68,1,135.000001573563,0|0,0:0|0:0,0:0:0:0:
497,165,4658,1,2,0:0:0:0:
256,192,4761,6,0,B|190:174|190:174|48:215,1,215.999987686158,2|0,0:3|3:0,0:0:0:0:
176,371,5071,6,0,L|164:260,1,89.9999976158143,2|0,0:0|0:0,0:0:0:0:
48,214,5277,2,0,L|60:325,1,89.9999976158143,2|0,0:3|3:0,0:0:0:0:
157,106,5483,1,8,0:3:0:0:
149,6,5587,1,4,0:3:0:0:
67,63,5690,6,0,B|156:56|156:56|250:92|250:92|335:83,1,270.000003147125,4|8,0:2|0:0,0:0:0:0:
487,169,5999,2,0,B|398:161|398:161|304:197|304:197|219:188,1,270.000003147125,6|0,0:0|0:0,0:0:0:0:
66,252,6309,5,2,0:3:0:0:
78,304,6412,1,0,0:0:0:0:
119,338,6515,1,2,0:3:0:0:
172,338,6619,1,0,3:0:0:0:
278,273,6722,5,8,0:0:0:0:
331,273,6825,1,8,0:0:0:0:
372,307,6928,1,0,3:0:0:0:
384,359,7031,1,8,0:0:0:0:
503,338,7135,6,0,P|507:274|478:204,1,135.000001573563,6|0,0:0|3:0,0:0:0:0:
388,125,7444,6,0,L|196:131,1,179.999995231629,0|0,3:0|3:0,0:0:0:0:
198,52,7754,2,0,L|288:50,1,89.9999976158143,2|0,0:0|0:0,0:0:0:0:
325,205,7960,1,2,0:3:0:0:
218,208,8064,2,0,L|26:214,1,179.999995231629,0|0,3:0|3:0,0:0:0:0:
0,121,8373,2,0,P|-10:69|10:29,1,89.9999976158143,8|0,0:0|3:0,0:0:0:0:
96,299,8580,2,0,P|106:351|86:391,1,89.9999976158143,2|0,0:0|0:0,0:0:0:0:
118,129,8786,5,2,3:0:0:0:
153,104,8889,1,0,3:0:0:0:
195,89,8992,1,2,0:0:0:0:
239,93,9096,1,0,3:0:0:0:
279,112,9199,2,0,P|302:152|294:206,1,89.9999976158143,8|0,0:0|3:0,0:0:0:0:
388,287,9405,2,0,L|399:197,2,89.9999976158143,2|0|2,0:0|0:0|0:3,0:0:0:0:
501,257,9715,1,0,3:0:0:0:
470,370,9818,6,0,B|426:357|426:357|256:378,1,215.999987686158,6|0,0:0|0:0,0:0:0:0:
38,282,10128,2,0,B|82:295|82:295|250:274,1,215.999987686158,6|0,0:0|0:0,0:0:0:0:
333,201,10437,6,0,P|363:284|322:361,1,179.999995231629,2|0,0:0|3:0,0:0:0:0:
230,167,10747,2,0,L|413:151,1,179.999995231629,0|0,3:0|3:0,0:0:0:0:
276,76,11057,2,0,L|184:84,1,89.9999976158143,2|0,0:0|0:0,0:0:0:0:
87,37,11263,5,2,0:3:0:0:
99,144,11366,1,0,3:0:0:0:
6,214,11469,1,2,0:0:0:0:
18,321,11573,2,0,B|63:310|63:310|151:340|151:340|194:329,1,179.999995231629,0|0,3:0|3:0,0:0:0:0:
256,192,11882,1,2,0:0:0:0:
256,192,12089,6,0,P|349:211|427:182,1,179.999995231629,2|2,0:3|0:0,0:0:0:0:
512,309,12398,2,0,P|419:290|341:319,1,179.999995231629,0|0,3:0|3:0,0:0:0:0:
506,190,12708,2,0,P|495:143|502:99,1,89.9999976158143,2|0,0:0|0:0,0:0:0:0:
418,33,12914,5,2,0:3:0:0:
337,105,13017,1,0,3:0:0:0:
337,212,13121,1,2,0:0:0:0:
231,234,13224,2,0,P|138:216|63:261,1,179.999995231629,2|10,0:3|0:0,0:0:0:0:
22,354,13533,1,0,3:0:0:0:
22,354,13740,6,0,P|47:255|13:190,1,179.999995231629,2|0,0:0|3:0,0:0:0:0:
78,103,14050,2,0,L|262:84,1,179.999995231629,0|0,3:0|3:0,0:0:0:0:
185,177,14359,2,0,L|277:167,1,89.9999976158143,2|0,0:0|0:0,0:0:0:0:
100,186,14566,1,2,0:3:0:0:
122,269,14669,2,0,P|198:254|292:292,1,179.999995231629,0|0,3:0|3:0,0:0:0:0:
354,100,14978,2,0,P|353:146|366:190,1,89.9999976158143,8|0,0:0|3:0,0:0:0:0:
500,96,15185,2,0,P|512:51|511:5,1,89.9999976158143,2|0,0:0|0:0,0:0:0:0:
365,187,15391,5,2,0:3:0:0:
324,205,15494,1,0,3:0:0:0:
279,208,15598,1,2,0:0:0:0:
235,194,15701,1,0,3:0:0:0:
196,170,15804,2,0,L|104:176,1,89.9999976158143,8|0,0:0|3:0,0:0:0:0:
35,61,16010,2,0,L|127:55,1,89.9999976158143,2|0,0:0|0:0,0:0:0:0:
142,294,16217,2,0,P|98:290|53:305,1,89.9999976158143,2|0,0:3|3:0,0:0:0:0:
228,369,16423,6,0,L|443:373,1,215.999987686158,6|0,0:0|0:0,0:0:0:0:
512,192,16733,2,0,L|297:188,1,215.999987686158,6|0,0:0|0:0,0:0:0:0:
374,108,17043,6,0,P|409:195|342:290,1,179.999995231629,2|0,0:0|3:0,0:0:0:0:
297,188,17352,2,0,P|262:101|329:6,1,179.999995231629,0|0,3:0|3:0,0:0:0:0:
404,12,17662,2,0,L|496:19,1,89.9999976158143,2|0,0:0|0:0,0:0:0:0:
512,192,17868,2,0,P|518:150|507:103,2,89.9999976158143,2|0|2,0:3|3:0|0:0,0:0:0:0:
374,268,18178,2,0,P|279:276|229:344,1,179.999995231629,0|0,3:0|3:0,0:0:0:0:
335,374,18487,1,2,0:0:0:0:
335,374,18694,6,0,L|517:365,1,179.999995231629,2|2,0:3|0:0,0:0:0:0:
230,338,19003,2,0,L|51:330,1,179.999995231629,0|0,3:0|3:0,0:0:0:0:
313,265,19313,2,0,L|403:260,1,89.9999976158143,2|0,0:0|0:0,0:0:0:0:
230,338,19519,2,0,P|202:272|252:170,1,179.999995231629,2|2,0:3|0:0,0:0:0:0:
348,161,19829,2,0,P|376:95|326:-7,1,179.999995231629,0|10,3:0|0:0,0:0:0:0:
177,93,20139,2,0,P|221:100|264:87,1,89.9999976158143,0|8,3:0|0:0,0:0:0:0:
74,50,20345,6,0,P|66:96|85:157,1,99.0000003986359,6|0,0:0|3:0,0:0:0:0:
145,332,20552,2,0,P|149:285|183:231,1,99.0000003986359,2|0,0:3|3:0,0:0:0:0:
316,147,20758,1,8,0:0:0:0:
324,255,20861,1,0,3:0:0:0:
333,363,20964,1,2,0:0:0:0:
422,301,21068,1,0,3:0:0:0:
324,255,21171,6,0,L|226:294,1,99.0000003986359,2|0,0:3|3:0,0:0:0:0:
316,147,21377,2,0,L|414:186,1,99.0000003986359,2|0,0:0|3:0,0:0:0:0:
510,26,21584,1,8,0:0:0:0:
510,26,21687,1,0,3:0:0:0:
416,80,21790,1,2,0:0:0:0:
416,80,21893,1,0,3:0:0:0:
510,136,21996,6,0,L|503:241,1,99.0000003986359,2|0,0:0|3:0,0:0:0:0:
374,371,22203,2,0,L|367:266,1,99.0000003986359,2|0,0:3|3:0,0:0:0:0:
256,109,22409,1,8,0:0:0:0:
242,266,22512,1,0,3:0:0:0:
112,175,22616,2,0,L|123:280,1,99.0000003986359,2|0,0:0|3:0,0:0:0:0:
256,109,22822,6,0,L|267:4,1,99.0000003986359,2|0,0:3|3:0,0:0:0:0:
416,80,23028,2,0,P|442:122|446:178,1,99.0000003986359,2|0,0:0|3:0,0:0:0:0:
256,192,23235,1,8,0:0:0:0:
256,192,23338,1,8,0:0:0:0:
178,115,23441,1,2,0:0:0:0:
178,115,23544,1,8,0:0:0:0:
122,273,23648,6,0,L|20:261,1,99.0000003986359,2|0,0:0|3:0,0:0:0:0:
192,365,23854,2,0,L|294:353,1,99.0000003986359,2|0,0:3|3:0,0:0:0:0:
448,329,24061,5,8,0:0:0:0:
485,256,24164,1,0,3:0:0:0:
459,178,24267,1,2,0:0:0:0:
386,141,24370,1,0,3:0:0:0:
256,263,24473,5,2,0:3:0:0:
158,214,24577,1,0,3:0:0:0:
124,110,24680,1,2,0:0:0:0:
174,13,24783,1,0,3:0:0:0:
388,110,24886,6,0,L|491:113,1,99.0000003986359,8|0,0:0|3:0,0:0:0:0:
124,110,25093,2,0,L|21:113,1,99.0000003986359,2|0,0:0|3:0,0:0:0:0:
54,288,25299,5,2,0:0:0:0:
196,362,25402,1,2,0:3:0:0:
125,219,25505,1,2,0:3:0:0:
97,376,25609,1,0,3:0:0:0:
213,265,25712,2,0,L|313:275,1,99.0000003986359,8|0,0:0|3:0,0:0:0:0:
479,209,25918,2,0,L|379:199,1,99.0000003986359,2|0,0:0|3:0,0:0:0:0:
330,36,26125,6,0,P|317:81|333:134,1,99.0000003986359,2|2,0:3|0:3,0:0:0:0:
506,381,26331,2,0,P|519:336|502:282,1,99.0000003986359,2|0,0:0|3:0,0:0:0:0:
344,269,26537,1,8,0:0:0:0:
175,351,26641,1,0,3:0:0:0:
256,192,26744,2,0,L|256:291,1,99.0000003986359,2|2,0:3|0:0,0:0:0:0:
336,351,26950,6,0,P|385:343|431:359,1,99.0000003986359,2|0,0:0|3:0,0:0:0:0:
260,384,27157,1,2,0:3:0:0:
260,384,27260,1,0,3:0:0:0:
175,351,27363,2,0,P|128:367|81:357,1,99.0000003986359,8|0,0:0|3:0,0:0:0:0:
128,164,27570,2,0,L|126:267,1,99.0000003986359,2|0,0:0|3:0,0:0:0:0:
76,77,27776,6,0,P|120:61|170:70,1,99.0000003986359,2|0,0:3|3:0,0:0:0:0:
251,142,27982,1,2,0:0:0:0:
358,159,28086,1,0,3:0:0:0:
457,114,28189,5,8,0:0:0:0:
346,67,28292,1,0,3:0:0:0:
251,142,28395,1,2,0:0:0:0:
260,260,28498,1,0,3:0:0:0:
357,326,28602,6,0,P|404:335|470:315,1,99.0000003986359,2|0,0:0|3:0,0:0:0:0:
260,260,28808,2,0,P|213:251|147:271,1,99.0000003986359,2|0,0:3|3:0,0:0:0:0:
45,244,29014,2,0,B|67:280|67:280|63:341,1,99.0000003986359,8|0,0:0|3:0,0:0:0:0:
64,47,29221,2,0,B|67:103|67:103|45:140,1,99.0000003986359,2|0,0:0|3:0,0:0:0:0:
150,193,29427,1,2,0:3:0:0:
150,193,29530,1,0,3:0:0:0:
150,193,29634,2,0,B|185:208|211:180|211:180|234:207|234:207|278:185|326:213,1,198.000000797272,2|8,0:0|0:0,0:0:0:0:
436,294,29943,1,8,0:0:0:0:
509,176,30046,2,0,P|519:128|501:79,1,99.0000003986359,2|8,0:0|0:0,0:0:0:0:
436,294,30253,6,0,B|404:284|404:284|335:299,1,99.0000003986359,2|0,0:0|3:0,0:0:0:0:
150,193,30459,2,0,B|182:203|182:203|251:188,1,99.0000003986359,2|0,0:3|3:0,0:0:0:0:
502,81,30666,1,8,0:0:0:0:
409,24,30769,2,0,B|377:14|377:14|313:27,2,99.0000003986359,0|2|0,3:0|0:0|3:0,0:0:0:0:
249,91,31079,6,0,P|225:48|229:0,1,99.0000003986359,2|0,0:3|3:0,0:0:0:0:
333,154,31285,1,2,0:0:0:0:
296,256,31388,1,0,3:0:0:0:
186,247,31491,2,0,P|136:246|93:269,1,99.0000003986359,8|0,0:0|3:0,0:0:0:0:
20,189,31698,2,0,L|8:88,1,99.0000003986359,2|0,0:0|3:0,0:0:0:0:
28,347,31904,5,2,0:0:0:0:
106,341,32007,1,0,3:0:0:0:
185,346,32111,1,2,0:3:0:0:
263,340,32214,1,0,3:0:0:0:
341,347,32317,1,8,0:0:0:0:
419,341,32420,1,0,3:0:0:0:
497,347,32523,2,0,P|500:293|476:258,1,99.0000003986359,2|0,0:0|3:0,0:0:0:0:
256,192,32730,5,2,0:0:0:0:
290,210,32799,1,2,0:0:0:0:
329,215,32867,1,2,0:0:0:0:
368,207,32936,1,2,0:0:0:0:
402,187,33005,1,2,0:0:0:0:
428,157,33074,1,2,0:0:0:0:
442,119,33143,5,10,0:0:0:0:
403,130,33211,1,2,0:0:0:0:
363,128,33280,1,2,0:0:0:0:
325,114,33349,1,2,0:0:0:0:
308,78,33418,1,2,0:0:0:0:
311,38,33487,1,2,0:0:0:0:
331,3,33556,5,2,0:0:0:0:
410,5,33659,2,0,P|464:16|510:3,1,99.0000003986359,2|0,0:0|3:0,0:0:0:0:
308,78,33865,2,0,P|260:66|212:77,1,99.0000003986359,2|8,0:0|0:0,0:0:0:0:
83,131,34072,2,0,L|67:31,1,99.0000003986359,2|0,0:0|3:0,0:0:0:0:
110,300,34278,1,2,0:0:0:0:
15,262,34381,5,2,0:0:0:0:
182,226,34484,2,0,P|91:202|14:265,1,198.000000797272,8|2,0:0|0:0,0:0:0:0:
110,300,34794,1,2,0:0:0:0:
83,131,34897,1,2,0:0:0:0:
113,316,35000,2,0,B|139:336|139:336|221:324,1,99.0000003986359,0|2,3:0|0:0,0:0:0:0:
274,81,35207,6,0,B|254:107|254:107|266:189,1,99.0000003986359,2|2,0:0|0:0,0:0:0:0:
291,57,35413,1,0,3:0:0:0:
271,199,35516,2,0,P|318:210|365:197,1,99.0000003986359,2|8,0:0|0:0,0:0:0:0:
440,325,35723,2,0,P|429:277|442:230,1,99.0000003986359,2|0,0:0|3:0,0:0:0:0:
201,310,35929,2,0,P|287:292|370:359,1,198.000000797272,2|8,0:0|0:3,0:0:0:0:
136,360,36239,2,0,L|36:354,1,99.0000003986359,4|4,0:3|0:3,0:0:0:0:
7,249,36445,1,2,0:0:0:0:
7,249,36548,1,2,0:0:0:0:
75,164,36652,1,0,3:0:0:0:
75,164,36755,1,2,0:0:0:0:
179,194,36858,6,0,L|279:188,1,99.0000003986359,2|2,0:0|0:0,0:0:0:0:
365,104,37065,1,0,3:0:0:0:
512,251,37168,2,0,P|418:251|356:336,1,198.000000797272,2|2,0:0|0:0,0:0:0:0:
466,353,37477,1,0,3:0:0:0:
496,163,37581,1,2,0:0:0:0:
277,188,37684,2,0,P|254:145|251:95,1,99.0000003986359,2|8,0:0|0:3,0:0:0:0:
283,1,37890,1,8,0:0:0:0:
365,104,37993,1,4,0:3:0:0:
143,123,38097,2,0,L|30:115,1,99.0000003986359,2|0,0:0|3:0,0:0:0:0:
143,261,38303,2,0,L|30:269,1,99.0000003986359,2|2,0:0|0:0,0:0:0:0:
234,169,38509,5,8,0:3:0:0:
380,67,38613,1,4,0:3:0:0:
512,261,38716,6,0,P|511:322|475:384,1,135.000001573563,4|2,0:0|0:0,0:0:0:0:
510,97,38922,1,8,0:0:0:0:
234,169,39025,6,0,B|371:233|371:118|493:179,1,270.000003147125,6|0,0:0|0:0,0:0:0:0:
169,233,39335,6,0,P|149:200|144:159,3,67.5000007867814,2|2|0|0,0:3|0:3|0:0|3:3,0:0:0:0:
78,130,39748,2,0,P|45:150|4:155,3,67.5000007867814,8|8|0|8,0:0|0:0|3:0|0:0,0:0:0:0:
0,290,40161,6,0,B|2:266|-5:242|-5:242|33:263|86:254,1,135.000001573563,6|0,0:0|3:0,0:0:0:0:
185,192,40470,1,0,3:0:0:0:
257,291,40574,6,0,P|245:333|255:376,1,89.9999976158143,8|0,0:0|3:0,0:0:0:0:
327,192,40780,1,2,0:0:0:0:
414,349,40883,1,0,0:0:0:0:
421,344,40935,1,0,0:0:0:0:
429,341,40986,2,0,P|441:298|430:255,1,89.9999976158143,2|0,0:3|3:0,0:0:0:0:
255,376,41193,1,2,0:0:0:0:
96,344,41296,2,0,P|91:259|13:218,1,179.999995231629,0|0,3:0|3:0,0:0:0:0:
15,308,41606,1,2,0:0:0:0:
15,308,41709,1,0,0:0:0:0:
107,154,41812,6,0,L|96:56,1,89.9999976158143,2|0,0:3|3:0,0:0:0:0:
203,187,42018,2,0,L|192:89,1,89.9999976158143,2|0,0:0|3:0,0:0:0:0:
309,187,42225,2,0,L|319:97,1,89.9999976158143,8|0,0:0|3:0,0:0:0:0:
405,154,42431,2,0,L|415:64,1,89.9999976158143,2|0,0:0|0:0,0:0:0:0:
489,218,42638,1,2,0:3:0:0:
481,307,42741,1,0,3:0:0:0:
354,356,42844,6,0,B|303:342|303:342|167:391|134:267,1,270.000003147125,6|0,0:0|0:0,0:0:0:0:
0,211,43154,2,0,P|140:188|131:271,1,270.000003147125,6|0,0:0|0:0,0:0:0:0:
74,223,43463,6,0,L|63:39,1,179.999995231629,2|0,0:0|3:0,0:0:0:0:
221,33,43773,2,0,P|144:74|62:42,1,179.999995231629,0|0,3:0|3:0,0:0:0:0:
223,228,44083,2,0,L|213:139,1,89.9999976158143,2|0,0:0|0:0,0:0:0:0:
297,297,44289,5,2,0:3:0:0:
393,274,44392,1,0,3:0:0:0:
325,202,44495,1,2,0:0:0:0:
365,369,44599,2,0,B|328:362|328:362|223:377|223:377|187:365,1,179.999995231629,0|0,3:0|3:0,0:0:0:0:
457,355,44908,1,2,0:0:0:0:
457,355,45115,6,0,P|499:271|461:200,1,179.999995231629,2|2,0:3|0:0,0:0:0:0:
512,140,45424,2,0,P|465:200|377:171,1,179.999995231629,0|0,3:0|3:0,0:0:0:0:
175,96,45734,2,0,L|271:101,1,89.9999976158143,2|0,0:0|0:0,0:0:0:0:
129,192,45940,1,2,0:3:0:0:
20,185,46043,1,0,3:0:0:0:
175,96,46147,5,2,0:0:0:0:
163,298,46250,2,0,B|121:295|121:295|79:320|79:320|-9:316,1,179.999995231629,0|10,3:0|0:0,0:0:0:0:
20,185,46559,1,0,3:0:0:0:
261,347,46766,6,0,L|171:340,1,89.9999976158143,2|0,0:0|3:0,0:0:0:0:
332,278,46972,1,0,3:0:0:0:
405,211,47076,1,0,3:0:0:0:
470,285,47179,1,8,0:0:0:0:
321,182,47282,2,0,P|312:138|323:94,1,89.9999976158143,0|2,3:0|0:0,0:0:0:0:
399,357,47488,5,0,0:0:0:0:
399,357,47540,1,0,0:0:0:0:
399,357,47592,2,0,L|310:352,1,89.9999976158143,2|0,0:3|3:0,0:0:0:0:
478,359,47798,5,2,0:0:0:0:
309,351,47901,2,0,L|220:346,1,89.9999976158143,0|8,3:0|0:0,0:0:0:0:
120,341,48108,1,0,3:0:0:0:
173,258,48211,2,0,L|262:263,1,89.9999976158143,2|0,0:0|0:0,0:0:0:0:
120,341,48417,6,0,P|84:301|76:267,1,89.9999976158143,2|0,0:3|3:0,0:0:0:0:
215,182,48624,2,0,P|203:226|172:258,1,89.9999976158143,2|0,0:0|3:0,0:0:0:0:
30,187,48830,2,0,P|74:175|117:185,1,89.9999976158143,8|0,0:0|3:0,0:0:0:0:
251,79,49036,2,0,P|162:100|100:38,1,179.999995231629,2|2,0:0|0:3,0:0:0:0:
188,8,49346,1,0,3:0:0:0:
302,175,49449,6,0,B|496:175|496:175|422:153,1,270.000003147125,6|0,0:0|0:0,0:0:0:0:
434,317,49759,2,0,B|240:317|240:317|313:338,1,270.000003147125,6|0,0:0|0:0,0:0:0:0:
355,246,50069,5,2,0:0:0:0:
256,246,50172,1,0,3:0:0:0:
157,246,50275,1,0,3:0:0:0:
90,320,50378,2,0,P|58:230|101:162,1,179.999995231629,0|0,3:0|3:0,0:0:0:0:
197,156,50688,2,0,L|191:66,1,89.9999976158143,2|0,0:0|0:0,0:0:0:0:
157,246,50894,5,2,0:3:0:0:
256,246,50997,1,0,3:0:0:0:
355,246,51101,1,2,0:0:0:0:
432,185,51204,2,0,P|462:101|429:20,1,179.999995231629,0|0,3:0|3:0,0:0:0:0:
447,280,51513,2,0,L|458:372,1,89.9999976158143,2|0,0:0|0:0,0:0:0:0:
198,326,51720,6,0,B|248:321|248:321|330:344|330:344|374:339,1,179.999995231629,2|2,0:3|0:0,0:0:0:0:
145,232,52029,2,0,P|164:318|96:378,1,179.999995231629,0|0,3:0|3:0,0:0:0:0:
254,150,52339,2,0,P|246:198|258:246,1,89.9999976158143,2|0,0:0|0:0,0:0:0:0:
43,102,52545,2,0,P|131:108|204:57,1,179.999995231629,2|2,0:3|0:0,0:0:0:0:
469,102,52855,2,0,P|381:108|308:57,1,179.999995231629,0|10,3:0|0:0,0:0:0:0:
254,237,53165,2,0,P|245:194|254:150,1,89.9999976158143,0|8,3:0|0:0,0:0:0:0:
108,267,53371,6,0,L|95:365,1,99.0000003986359,6|0,0:0|3:0,0:0:0:0:
32,229,53578,1,2,0:3:0:0:
177,198,53681,1,0,3:0:0:0:
267,335,53784,2,0,L|254:237,1,99.0000003986359,8|0,0:0|3:0,0:0:0:0:
178,375,53990,1,2,0:0:0:0:
352,288,54094,1,0,3:0:0:0:
177,198,54197,6,0,L|164:100,1,99.0000003986359,2|0,0:3|3:0,0:0:0:0:
108,267,54403,1,2,0:0:0:0:
253,236,54506,1,0,3:0:0:0:
163,99,54610,6,0,L|150:1,1,99.0000003986359,8|0,0:0|3:0,0:0:0:0:
53,192,54816,1,2,0:0:0:0:
290,145,54919,1,0,3:0:0:0:
211,373,55022,6,0,P|260:362|305:375,1,99.0000003986359,2|0,0:0|3:0,0:0:0:0:
470,283,55229,1,2,0:3:0:0:
470,283,55332,1,0,3:0:0:0:
345,220,55435,1,8,0:0:0:0:
345,220,55538,1,0,3:0:0:0:
499,153,55642,2,0,L|491:51,1,99.0000003986359,2|0,0:0|3:0,0:0:0:0:
465,310,55848,5,2,0:3:0:0:
340,247,55951,1,0,3:0:0:0:
262,375,56054,2,0,L|163:375,1,99.0000003986359,2|0,0:0|3:0,0:0:0:0:
22,259,56261,2,0,L|34:369,1,99.0000003986359,8|8,0:0|0:0,0:0:0:0:
53,181,56467,2,0,L|65:291,1,99.0000003986359,2|8,0:0|0:0,0:0:0:0:
187,110,56674,5,2,0:0:0:0:
156,85,56777,1,0,3:0:0:0:
118,73,56880,1,2,0:3:0:0:
79,80,56983,1,0,3:0:0:0:
342,118,57087,5,8,0:0:0:0:
291,149,57190,1,0,3:0:0:0:
232,148,57293,1,2,0:0:0:0:
187,110,57396,1,0,3:0:0:0:
489,227,57499,5,2,0:3:0:0:
479,149,57603,1,0,3:0:0:0:
419,98,57706,1,2,0:0:0:0:
342,118,57809,1,0,3:0:0:0:
285,200,57912,5,8,0:0:0:0:
255,294,58015,1,0,3:0:0:0:
171,347,58119,1,2,0:0:0:0:
73,332,58222,1,0,3:0:0:0:
15,251,58325,6,0,P|9:201|26:156,1,99.0000003986359,2|2,0:0|0:3,0:0:0:0:
167,248,58531,2,0,L|171:348,1,99.0000003986359,2|0,0:3|3:0,0:0:0:0:
255,294,58738,5,8,0:0:0:0:
249,195,58841,1,0,3:0:0:0:
245,100,58944,2,0,L|241:0,1,99.0000003986359,2|0,0:0|3:0,0:0:0:0:
369,76,59151,5,2,0:3:0:0:
363,175,59254,1,2,0:3:0:0:
359,270,59357,2,0,L|355:370,1,99.0000003986359,2|0,0:0|3:0,0:0:0:0:
485,294,59563,5,8,0:0:0:0:
479,195,59667,1,0,3:0:0:0:
475,100,59770,2,0,L|471:0,1,99.0000003986359,2|2,0:3|0:0,0:0:0:0:
277,94,59976,6,0,B|304:73|304:73|378:76,1,99.0000003986359,2|0,0:0|3:0,0:0:0:0:
189,148,60183,1,2,0:3:0:0:
275,2,60286,1,0,3:0:0:0:
363,175,60389,2,0,P|369:226|355:277,1,99.0000003986359,8|0,0:0|3:0,0:0:0:0:
149,264,60596,2,0,P|143:314|157:365,1,99.0000003986359,2|0,0:0|3:0,0:0:0:0:
189,148,60802,5,2,0:3:0:0:
80,159,60905,1,0,3:0:0:0:
275,2,61008,2,0,L|177:-1,1,99.0000003986359,2|0,0:0|3:0,0:0:0:0:
363,175,61215,2,0,L|461:172,1,99.0000003986359,8|0,0:0|3:0,0:0:0:0:
511,23,61421,1,2,0:0:0:0:
338,90,61524,1,0,3:0:0:0:
414,261,61628,6,0,L|521:272,1,99.0000003986359,2|0,0:0|3:0,0:0:0:0:
314,251,61834,1,2,0:3:0:0:
305,359,61937,1,0,3:0:0:0:
171,317,62040,6,0,L|64:306,1,99.0000003986359,8|0,0:0|3:0,0:0:0:0:
323,143,62247,1,2,0:0:0:0:
305,359,62350,1,0,3:0:0:0:
91,193,62453,6,0,L|193:185,1,99.0000003986359,2|0,0:3|3:0,0:0:0:0:
323,143,62660,2,0,L|425:135,1,99.0000003986359,2|0,0:0|3:0,0:0:0:0:
403,366,62866,2,0,L|304:358,1,99.0000003986359,8|8,0:0|0:0,0:0:0:0:
171,317,63073,2,0,L|72:309,1,99.0000003986359,2|8,0:0|0:0,0:0:0:0:
256,192,63279,5,2,0:0:0:0:
256,201,63382,1,0,3:0:0:0:
256,212,63485,2,0,B|274:190|238:158|256:117,1,99.0000003986359,2|0,0:3|3:0,0:0:0:0:
296,47,63692,5,8,0:0:0:0:
312,12,63795,1,0,3:0:0:0:
216,47,63898,1,2,0:0:0:0:
200,12,64001,1,0,3:0:0:0:
390,88,64105,6,0,P|437:78|484:92,1,99.0000003986359,2|0,0:3|3:0,0:0:0:0:
123,88,64311,2,0,P|76:78|29:92,1,99.0000003986359,2|0,0:0|3:0,0:0:0:0:
399,181,64517,2,0,P|418:225|415:274,1,99.0000003986359,8|0,0:0|3:0,0:0:0:0:
112,181,64724,2,0,P|93:225|96:274,1,99.0000003986359,2|0,0:0|3:0,0:0:0:0:
380,358,64930,5,2,0:0:0:0:
301,369,65033,1,0,3:0:0:0:
232,328,65137,1,2,0:3:0:0:
223,249,65240,1,0,3:0:0:0:
258,178,65343,1,8,0:0:0:0:
331,149,65446,1,0,3:0:0:0:
408,167,65549,2,0,B|442:176|442:176|508:163,1,99.0000003986359,2|0,0:0|3:0,0:0:0:0:
355,0,65756,5,2,0:0:0:0:
328,2,65825,1,2,0:0:0:0:
301,4,65893,1,2,0:0:0:0:
279,18,65962,5,2,0:0:0:0:
252,20,66031,1,2,0:0:0:0:
225,22,66100,1,2,0:0:0:0:
203,36,66169,5,10,0:0:0:0:
176,38,66237,1,2,0:0:0:0:
149,40,66306,1,2,0:0:0:0:
127,54,66375,5,2,0:0:0:0:
100,56,66444,1,2,0:0:0:0:
73,58,66513,1,2,0:0:0:0:
51,72,66582,5,2,0:0:0:0:
3,126,66685,2,0,P|-20:77|-9:34,1,99.0000003986359,2|0,0:0|3:0,0:0:0:0:
177,258,66891,2,0,P|200:307|189:350,1,99.0000003986359,2|8,0:0|0:0,0:0:0:0:
90,192,67098,1,2,0:0:0:0:
290,150,67201,2,0,L|191:143,1,99.0000003986359,0|2,3:0|0:0,0:0:0:0:
372,86,67407,1,2,0:0:0:0:
474,275,67510,2,0,L|274:260,1,198.000000797272,8|2,0:0|0:0,0:0:0:0:
106,384,67820,2,0,L|225:373,2,99.0000003986359,2|2|0,0:0|0:0|3:0,0:0:0:0:
21,330,68130,1,2,0:0:0:0:
21,330,68233,5,2,0:0:0:0:
109,285,68336,2,0,P|138:188|90:111,1,198.000000797272,2|2,0:0|0:0,0:0:0:0:
23,206,68646,1,8,0:0:0:0:
23,206,68749,2,0,L|218:169,1,198.000000797272,2|2,0:0|0:0,0:0:0:0:
314,151,69058,5,2,0:0:0:0:
207,280,69162,2,0,L|413:312,1,198.000000797272,8|4,0:3|0:3,0:0:0:0:
488,259,69471,2,0,L|484:363,1,99.0000003986359,2|2,0:0|0:0,0:0:0:0:
489,229,69678,1,0,3:0:0:0:
489,229,69781,1,2,0:0:0:0:
492,139,69884,6,0,P|444:146|388:124,1,99.0000003986359,2|2,0:0|0:0,0:0:0:0:
451,46,70091,1,0,3:0:0:0:
335,193,70194,2,0,P|242:165|148:198,1,198.000000797272,2|2,0:0|0:0,0:0:0:0:
97,280,70503,2,0,P|89:328|100:376,2,99.0000003986359,0|2|2,3:0|0:0|0:0,0:0:0:0:
50,193,70813,6,0,P|97:146|45:34,1,198.000000797272,8|4,0:3|0:3,0:0:0:0:
18,114,71123,1,2,0:0:0:0:
165,51,71226,1,0,3:0:0:0:
272,166,71329,2,0,L|376:163,1,99.0000003986359,2|2,0:0|0:0,0:0:0:0:
162,303,71535,5,8,0:3:0:0:
155,36,71639,1,4,0:3:0:0:
306,165,71742,6,0,L|483:159,1,135.000001573563,4|2,0:0|0:0,0:0:0:0:
71,176,71948,1,8,0:0:0:0:
400,83,72051,6,0,P|259:55|187:144,1,270.000003147125,6|0,0:0|0:0,0:0:0:0:
381,268,72361,5,2,0:3:0:0:
381,268,72464,2,0,P|319:305|258:284,1,135.000001573563,2|0,0:3|3:0,0:0:0:0:
490,193,72774,2,0,L|485:271,1,67.5000007867814,8|8,0:0|0:0,0:0:0:0:
262,287,72980,2,0,L|276:363,1,67.5000007867814,0|8,3:0|0:0,0:0:0:0:
59,252,73187,5,4,0:0:0:0:
