osu file format v14

[General]
AudioFilename: audio.mp3
AudioLeadIn: 0
PreviewTime: 40161
Countdown: 0
SampleSet: Soft
StackLeniency: 0.7
Mode: 0
LetterboxInBreaks: 0
WidescreenStoryboard: 0

[Editor]
DistanceSpacing: 1.2
BeatDivisor: 4
GridSize: 4
TimelineZoom: 1

[Metadata]
Title:Battle Spirit
TitleUnicode:バトルスピリット
Artist:Yoshino Aoki
ArtistUnicode:青木佳乃
Creator:P o M u T a
Version:Normal
Source:バトルネットワーク ロックマンエグゼ2
Tags:electronic video Kyshiro forte megaman Mega Man pomuta Battle Network Rockman EXE 2 capcom game boy advance airman quickman cutman shadowman protoman knightman magnetman freezeman bass gospel gba instrumental
BeatmapID:1008722
BeatmapSetID:472007

[Difficulty]
HPDrainRate:4
CircleSize:3
OverallDifficulty:4
ApproachRate:5
SliderMultiplier:1.42
SliderTickRate:1

[Events]
//Background and Video events
0,0,"2070867_p0.jpg",0,0
//Break Periods
2,33755,38961
2,66781,71574
//Storyboard Layer 0 (Background)
//Storyboard Layer 1 (Fail)
//Storyboard Layer 2 (Pass)
//Storyboard Layer 3 (Foreground)
//Storyboard Layer 4 (Overlay)
//Storyboard Sound Samples

[TimingPoints]
530,412.825099766066,4,2,1,60,1,0
3006,-100,4,2,1,70,0,0
3213,-100,4,2,1,80,0,0
3832,-100,4,2,1,60,0,0
5483,-100,4,2,1,70,0,0
5690,-100,4,2,1,100,0,0
6309,-100,4,2,1,60,0,0
6722,-100,4,2,1,70,0,0
7135,-100,4,2,1,80,0,0
20345,-100,4,2,1,85,0,0
32730,-100,4,2,1,75,0,0
33143,-100,4,2,1,80,0,0
33556,-100,4,2,1,85,0,0
39335,-100,4,2,1,80,0,0
53371,-100,4,2,1,85,0,1
65756,-100,4,2,1,75,0,1
66169,-100,4,2,1,80,0,1
66582,-100,4,2,1,85,0,0
72774,-100,4,2,1,70,0,0
73187,-100,4,2,1,100,0,0

[Colours]
Combo1 : 191,255,191
Combo2 : 136,136,255
Combo3 : 255,198,140
Combo4 : 210,166,255

[HitObjects]
256,262,530,6,0,L|256:341,2,71,6|0|2,0:0|0:0|0:0,0:0:0:0:
369,134,1355,2,0,L|485:123,2,106.5,2|0|0,0:0|0:0|0:0,0:0:0:0:
298,182,2181,1,2,0:0:0:0:
214,167,2387,1,0,0:0:0:0:
129,152,2594,1,2,0:0:0:0:
14,277,3006,5,12,0:0:0:0:
7,191,3213,2,0,L|-1:82,2,106.5,8|4|2,0:3|0:0|0:0,0:0:0:0:
14,277,4039,6,0,B|54:277|54:277|88:291,1,71,0|2,0:0|0:0,0:0:0:0:
240,354,4658,2,0,B|270:364|270:364|350:345,2,106.5,2|0|2,0:0|3:0|0:3,0:0:0:0:
175,298,5483,1,8,0:3:0:0:
213,221,5690,2,0,P|220:162|204:117,2,106.5,4|6|2,0:2|0:0|0:3,0:0:0:0:
44,192,6722,1,8,0:0:0:0:
119,39,7135,6,0,B|173:42|211:22|211:22|249:51|321:65,1,213,6|2,0:0|0:0,0:0:0:0:
405,65,7960,2,0,B|449:70|449:70|483:46|483:46|518:47,2,106.5,2|0|2,0:3|3:0|0:0,0:0:0:0:
365,141,8786,2,0,L|377:286,1,142,2|8,3:0|0:0,0:0:0:0:
322,348,9405,1,2,0:0:0:0:
293,268,9612,1,2,0:3:0:0:
28,53,10437,6,0,L|141:42,2,106.5,2|0|2,0:0|3:0|0:0,0:0:0:0:
62,131,11263,2,0,L|152:139,1,71,2|2,0:3|0:0,0:0:0:0:
213,166,11676,2,0,P|222:200|220:246,1,71,8|2,0:0|0:0,0:0:0:0:
157,292,12089,2,0,L|44:281,2,106.5,2|0|2,0:3|3:0|0:0,0:0:0:0:
237,320,12914,2,0,L|319:310,1,71,2|2,0:3|0:0,0:0:0:0:
391,298,13327,2,0,L|461:306,1,71,8|0,0:0|3:0,0:0:0:0:
506,234,13740,6,0,P|514:165|421:68,1,213,2|2,0:0|0:0,0:0:0:0:
336,53,14566,2,0,B|284:62|284:62|223:36,2,106.5,2|0|2,0:3|3:0|0:0,0:0:0:0:
365,133,15391,2,0,L|343:286,1,142,2|8,0:3|0:0,0:0:0:0:
261,252,16010,1,2,0:0:0:0:
282,334,16217,1,2,0:3:0:0:
67,68,17043,6,0,B|114:41|114:41|180:47,2,106.5,2|0|2,0:0|3:0|0:0,0:0:0:0:
36,147,17868,2,0,L|46:229,1,71,2|2,0:3|0:0,0:0:0:0:
121,254,18281,2,0,L|131:172,1,71,8|2,0:0|0:0,0:0:0:0:
192,125,18694,2,0,P|241:109|290:126,2,106.5,2|0|2,0:3|3:0|0:0,0:0:0:0:
241,198,19519,2,0,P|290:215|339:198,2,106.5,2|0|0,0:3|3:0|3:0,0:0:0:0:
192,125,20345,6,0,P|123:103|22:200,1,213,6|2,0:0|0:0,0:0:0:0:
58,264,21171,2,0,B|82:284|82:284|239:279|239:279|263:301,1,213,2|2,0:3|0:0,0:0:0:0:
322,351,21996,2,0,P|391:373|492:276,1,213,2|2,0:0|0:0,0:0:0:0:
456,212,22822,2,0,B|432:192|432:192|275:197|275:197|251:175,1,213,2|2,0:3|0:0,0:0:0:0:
191,125,23648,6,0,L|105:128,1,71,2|2,0:0|0:3,0:0:0:0:
46,83,24061,1,8,0:0:0:0:
111,28,24267,2,0,L|344:19,1,213,2|8,0:0|0:0,0:0:0:0:
484,80,25299,1,2,0:0:0:0:
480,164,25505,1,2,0:3:0:0:
407,119,25712,2,0,L|334:116,1,71,8|2,0:0|0:0,0:0:0:0:
262,160,26125,1,2,0:3:0:0:
258,244,26331,1,2,0:0:0:0:
185,199,26537,2,0,L|114:196,1,71,8|2,0:0|0:3,0:0:0:0:
73,120,26950,6,0,P|31:178|45:246,1,142,2|8,0:0|0:0,0:0:0:0:
106,300,27570,1,2,0:0:0:0:
184,333,27776,2,0,L|327:323,1,142,2|8,0:3|0:0,0:0:0:0:
464,224,28602,2,0,P|499:296|464:361,1,142,2|8,0:0|0:0,0:0:0:0:
412,293,29221,1,2,0:0:0:0:
378,214,29427,2,0,L|399:70,1,142,2|8,0:3|0:0,0:0:0:0:
257,170,30253,6,0,L|269:253,2,71,2|2|8,0:0|0:3|0:0,0:0:0:0:
194,111,30872,1,2,0:0:0:0:
119,69,31079,2,0,L|42:75,1,71,2|2,0:3|0:0,0:0:0:0:
17,154,31491,2,0,L|14:227,1,71,8|2,0:0|0:0,0:0:0:0:
72,286,31904,2,0,B|142:286|142:286|209:316,1,142,2|8,0:0|0:0,0:0:0:0:
284,352,32523,1,2,0:0:0:0:
366,329,32730,2,0,L|376:258,1,71,2|2,0:0|0:0,0:0:0:0:
377,173,33143,2,0,L|367:102,2,71,10|2|2,0:0|0:0|0:0,0:0:0:0:
474,264,40161,6,0,P|377:222|285:279,1,213,6|2,0:0|0:0,0:0:0:0:
231,334,40986,2,0,P|183:356|126:346,2,106.5,2|0|2,0:3|3:0|0:0,0:0:0:0:
210,251,41812,2,0,P|189:212|218:124,1,142,2|8,0:3|0:0,0:0:0:0:
295,88,42431,1,2,0:0:0:0:
374,117,42638,1,2,0:3:0:0:
34,152,43463,6,0,L|18:39,2,106.5,2|0|2,0:0|3:0|0:0,0:0:0:0:
118,137,44289,2,0,L|110:217,1,71,2|2,0:3|0:0,0:0:0:0:
195,198,44702,2,0,L|203:278,1,71,8|2,0:0|0:0,0:0:0:0:
282,240,45115,2,0,L|310:347,2,106.5,2|0|2,0:3|3:0|0:0,0:0:0:0:
352,191,45940,2,0,L|430:185,1,71,2|2,0:3|0:0,0:0:0:0:
487,130,46353,1,8,0:0:0:0:
447,54,46559,1,0,3:0:0:0:
369,88,46766,6,0,P|261:103|171:46,1,213,2|2,0:0|0:0,0:0:0:0:
119,115,47592,2,0,P|68:86|21:88,2,106.5,2|0|2,0:3|3:0|0:0,0:0:0:0:
173,181,48417,2,0,P|196:246|179:316,1,142,2|8,0:3|0:0,0:0:0:0:
106,359,49036,1,2,0:0:0:0:
27,326,49243,1,2,0:3:0:0:
367,336,50069,6,0,L|485:350,2,106.5,2|0|2,0:0|3:0|0:0,0:0:0:0:
281,327,50894,1,2,0:3:0:0:
196,338,51101,1,2,0:0:0:0:
111,349,51307,2,0,P|100:313|102:280,1,71,8|2,0:0|0:0,0:0:0:0:
163,220,51720,2,0,L|282:212,2,106.5,2|0|2,0:3|3:0|0:0,0:0:0:0:
106,155,52545,2,0,L|1:147,2,106.5,2|0|0,0:3|3:0|3:0,0:0:0:0:
142,77,53371,6,0,B|249:79|249:79|339:15,1,213,6|2,0:0|0:0,0:0:0:0:
418,40,54197,2,0,B|416:147|416:147|480:237,1,213,2|2,0:3|0:0,0:0:0:0:
446,313,55022,2,0,B|339:311|339:311|249:375,1,213,2|2,0:0|0:0,0:0:0:0:
170,350,55848,2,0,B|172:243|172:243|108:153,1,213,2|2,0:3|0:0,0:0:0:0:
142,77,56674,5,2,0:0:0:0:
227,77,56880,1,2,0:3:0:0:
256,156,57087,1,8,0:0:0:0:
341,156,57293,2,0,L|484:156,1,142,2|2,0:0|0:0,0:0:0:0:
507,238,57912,2,0,L|499:318,1,71,8|2,0:0|0:0,0:0:0:0:
427,353,58325,1,2,0:0:0:0:
422,268,58531,1,2,0:3:0:0:
351,315,58738,2,0,L|261:309,1,71,8|2,0:0|0:0,0:0:0:0:
207,266,59151,2,0,P|206:226|216:190,1,71,2|2,0:3|0:0,0:0:0:0:
275,137,59563,2,0,P|276:97|266:61,1,71,8|2,0:0|0:3,0:0:0:0:
198,17,59976,6,0,P|132:10|75:54,1,142,2|8,0:0|0:0,0:0:0:0:
61,137,60596,1,2,0:0:0:0:
122,195,60802,2,0,L|116:284,1,71,2|2,0:3|0:0,0:0:0:0:
63,332,61215,2,0,P|95:350|139:347,1,71,8|2,0:0|0:0,0:0:0:0:
196,298,61628,2,0,P|263:293|338:315,1,142,2|8,0:0|0:0,0:0:0:0:
401,365,62247,1,2,0:0:0:0:
461,304,62453,2,0,L|478:221,1,71,2|2,0:3|0:0,0:0:0:0:
483,149,62866,1,8,0:0:0:0:
398,160,63073,1,2,0:0:0:0:
313,171,63279,6,0,L|307:94,2,71,2|2|8,0:0|0:3|0:0,0:0:0:0:
276,248,63898,1,2,0:0:0:0:
200,208,64105,2,0,P|163:206|114:214,1,71,2|2,0:3|0:0,0:0:0:0:
129,295,64517,2,0,P|92:297|43:289,1,71,8|2,0:0|0:0,0:0:0:0:
5,225,64930,2,0,P|0:156|51:106,1,142,2|8,0:0|0:0,0:0:0:0:
130,85,65549,1,2,0:0:0:0:
208,118,65756,2,0,B|250:123|250:123|288:103,1,71,2|2,0:0|0:0,0:0:0:0:
348,66,66169,2,0,B|373:52|373:52|415:57,2,71,10|2|2,0:0|0:0|0:0,0:0:0:0:
256,192,72774,5,8,0:0:0:0:
256,192,73187,5,4,0:0:0:0:
