osu file format v14

[General]
AudioFilename: audio.mp3
AudioLeadIn: 0
PreviewTime: 40161
Countdown: 0
SampleSet: Soft
StackLeniency: 0.7
Mode: 0
LetterboxInBreaks: 0
WidescreenStoryboard: 0

[Editor]
DistanceSpacing: 1.1
BeatDivisor: 4
GridSize: 4
TimelineZoom: 4.019999

[Metadata]
Title:Battle Spirit
TitleUnicode:バトルスピリット
Artist:Yoshino Aoki
ArtistUnicode:青木佳乃
Creator:P o M u T a
Version:Light Insane
Source:バトルネットワーク ロックマンエグゼ2
Tags:electronic video Kyshiro forte megaman Mega Man pomuta Battle Network Rockman EXE 2 capcom game boy advance airman quickman cutman shadowman protoman knightman magnetman freezeman bass gospel gba instrumental
BeatmapID:1009408
BeatmapSetID:472007

[Difficulty]
HPDrainRate:5
CircleSize:4
OverallDifficulty:6.5
ApproachRate:8
SliderMultiplier:1.82
SliderTickRate:1

[Events]
//Background and Video events
0,0,"2070867_p0.jpg",0,0
//Break Periods
//Storyboard Layer 0 (Background)
//Storyboard Layer 1 (Fail)
//Storyboard Layer 2 (Pass)
//Storyboard Layer 3 (Foreground)
//Storyboard Layer 4 (Overlay)
//Storyboard Sound Samples

[TimingPoints]
530,412.825099766066,4,2,1,60,1,0
530,-133.333333333333,4,2,1,60,0,0
3006,-133.333333333333,4,2,1,70,0,0
3213,-133.333333333333,4,2,1,80,0,0
3832,-133.333333333333,4,2,1,60,0,0
5483,-133.333333333333,4,2,1,70,0,0
5690,-133.333333333333,4,2,1,100,0,0
6309,-133.333333333333,4,2,1,60,0,0
6722,-133.333333333333,4,2,1,70,0,0
7135,-100,4,2,1,80,0,0
9818,-100,4,2,1,90,0,0
10437,-100,4,2,1,80,0,0
16423,-100,4,2,1,90,0,0
17043,-100,4,2,1,80,0,0
20345,-100,4,2,1,85,0,0
23648,-100,4,2,1,50,0,0
24061,-100,4,2,1,60,0,0
24473,-100,4,2,1,70,0,0
24886,-100,4,2,1,80,0,0
25299,-100,4,2,1,85,0,0
32730,-100,4,2,1,75,0,0
33143,-100,4,2,1,80,0,0
33556,-100,4,2,1,85,0,0
38716,-100,4,2,1,90,0,0
39335,-100,4,2,1,80,0,0
53371,-100,4,2,1,85,0,1
56674,-100,4,2,1,50,0,1
57087,-100,4,2,1,60,0,1
57499,-100,4,2,1,70,0,1
57912,-100,4,2,1,80,0,1
58325,-100,4,2,1,85,0,1
65756,-100,4,2,1,75,0,1
66169,-100,4,2,1,80,0,1
66582,-100,4,2,1,85,0,0
71535,-100,4,2,1,80,0,0
72774,-100,4,2,1,70,0,0
73187,-100,4,2,1,100,0,0

[Colours]
Combo1 : 191,255,191
Combo2 : 136,136,255
Combo3 : 255,198,140
Combo4 : 210,166,255

[HitObjects]
446,136,530,6,0,L|364:141,1,68.250002603531,6|0,0:0|0:0,0:0:0:0:
303,145,942,1,2,0:0:0:0:
256,287,1355,1,2,0:0:0:0:
209,145,1768,1,2,0:0:0:0:
159,246,2078,5,2,0:0:0:0:
159,246,2181,2,0,B|131:270|131:270|28:263,1,136.500005207062,2|2,0:0|0:0,0:0:0:0:
3,153,2903,2,0,L|1:100,1,34.1250013017655,2|12,0:0|0:0,0:0:0:0:
510,118,3729,6,0,L|509:153,1,34.1250013017655,2|2,0:0|0:0,0:0:0:0:
359,162,4245,1,2,0:0:0:0:
493,229,4658,1,2,0:0:0:0:
343,238,5071,1,2,0:0:0:0:
429,360,5483,5,8,0:3:0:0:
256,148,5896,1,8,0:0:0:0:
83,360,6309,1,2,0:3:0:0:
256,148,6722,1,8,0:0:0:0:
256,148,6825,2,0,L|256:57,1,68.250002603531,8|8,0:0|0:0,0:0:0:0:
254,29,7135,6,0,P|160:25|94:82,1,182,6|8,0:0|0:0,0:0:0:0:
44,205,7754,1,2,0:0:0:0:
179,219,7960,2,0,L|158:353,2,136.5,2|0|2,0:3|3:0|0:0,0:0:0:0:
264,350,8786,6,0,L|363:342,1,91,2|2,3:0|0:0,0:0:0:0:
503,223,9199,2,0,L|404:215,1,91,8|2,0:0|0:0,0:0:0:0:
306,56,9612,1,2,0:3:0:0:
256,276,9818,5,6,0:0:0:0:
256,262,10128,1,6,0:0:0:0:
256,248,10437,6,0,L|113:261,2,136.5,2|0|2,0:0|3:0|0:0,0:0:0:0:
340,85,11263,2,0,L|483:98,2,136.5,2|0|2,0:3|3:0|0:0,0:0:0:0:
172,85,12089,6,0,L|36:97,2,136.5,2|0|2,0:3|3:0|0:0,0:0:0:0:
256,248,12914,2,0,L|391:260,2,136.5,2|2|0,0:3|0:3|3:0,0:0:0:0:
25,296,13740,6,0,P|116:298|174:384,1,182,2|8,0:0|0:0,0:0:0:0:
1,375,14359,1,2,0:0:0:0:
92,210,14566,2,0,P|98:168|60:77,2,136.5,2|0|2,0:3|3:0|0:0,0:0:0:0:
203,55,15391,6,0,P|189:100|193:147,1,91,2|2,0:3|0:0,0:0:0:0:
320,240,15804,2,0,P|322:285|309:329,1,91,8|2,0:0|0:0,0:0:0:0:
156,350,16217,1,2,0:3:0:0:
320,119,16423,5,6,0:0:0:0:
320,105,16733,1,6,0:0:0:0:
320,91,17043,6,0,L|421:86,1,91,2|0,0:0|3:0,0:0:0:0:
460,83,17352,2,0,P|477:126|472:182,1,91,0|0,3:0|3:0,0:0:0:0:
460,218,17662,1,2,0:0:0:0:
422,310,17868,2,0,L|467:332,2,45.5,2|0|2,0:3|3:0|0:0,0:0:0:0:
374,295,18178,2,0,L|276:307,1,91,0|0,3:0|3:0,0:0:0:0:
233,314,18487,1,2,0:0:0:0:
271,221,18694,6,0,P|278:176|259:129,1,91,2|2,0:3|0:0,0:0:0:0:
222,103,19003,2,0,L|125:113,1,91,0|0,3:0|3:0,0:0:0:0:
81,118,19313,1,2,0:0:0:0:
81,118,19416,1,0,0:0:0:0:
81,118,19519,2,0,P|70:74|122:-9,2,136.5,2|0|0,0:3|3:0|3:0,0:0:0:0:
7,211,20345,6,0,P|123:228|127:363,1,273,6|2,0:0|0:0,0:0:0:0:
392,348,21171,2,0,P|276:331|272:196,1,273,2|2,0:3|0:0,0:0:0:0:
483,52,21996,6,0,B|390:82|390:34|302:52,1,182,2|8,0:0|0:0,0:0:0:0:
224,113,22616,1,2,0:0:0:0:
44,113,22822,2,0,B|137:143|137:95|225:113,1,182,2|8,0:3|0:0,0:0:0:0:
288,189,23441,1,2,0:0:0:0:
196,366,23648,6,0,P|183:322|195:274,1,91,2|2,0:0|0:3,0:0:0:0:
319,278,24061,2,0,P|328:322|316:366,1,91,8|2,0:0|0:0,0:0:0:0:
406,204,24473,2,0,L|457:201,3,45.5,2|0|2|0,0:3|3:0|0:0|3:0,0:0:0:0:
487,165,24886,2,0,L|476:113,3,45.5,8|0|2|0,0:0|3:0|0:0|3:0,0:0:0:0:
463,71,25299,5,2,0:0:0:0:
440,68,25402,1,2,0:3:0:0:
417,65,25505,1,2,0:3:0:0:
394,62,25609,1,0,3:0:0:0:
371,66,25712,1,8,0:0:0:0:
348,70,25815,1,0,3:0:0:0:
325,75,25918,1,2,0:0:0:0:
302,80,26021,1,0,3:0:0:0:
280,72,26125,6,0,L|235:51,3,45.5,2|2|2|0,0:3|0:3|0:0|3:0,0:0:0:0:
189,40,26537,2,0,L|147:59,3,45.5,8|0|2|2,0:0|3:0|0:3|0:0,0:0:0:0:
104,83,26950,6,0,P|49:171|128:303,1,273,2|2,0:0|0:0,0:0:0:0:
336,199,27776,2,0,P|241:184|127:310,1,273,2|2,0:3|0:0,0:0:0:0:
381,289,28602,2,0,L|369:99,1,182,2|8,0:0|0:0,0:0:0:0:
469,101,29221,1,2,0:0:0:0:
480,282,29427,2,0,L|468:92,1,182,2|8,0:3|0:0,0:0:0:0:
485,362,30046,1,2,0:0:0:0:
300,318,30253,6,0,L|306:370,3,45.5,2|0|2|0,0:0|3:0|0:3|3:0,0:0:0:0:
261,305,30666,2,0,L|255:253,3,45.5,8|0|2|0,0:0|3:0|0:0|3:0,0:0:0:0:
226,327,31079,2,0,L|232:379,3,45.5,2|0|2|0,0:3|3:0|0:0|3:0,0:0:0:0:
187,314,31491,2,0,L|181:262,3,45.5,8|0|2|0,0:0|3:0|0:0|3:0,0:0:0:0:
161,339,31904,5,2,0:0:0:0:
139,346,32007,1,0,3:0:0:0:
116,344,32111,1,2,0:3:0:0:
95,334,32214,1,0,3:0:0:0:
76,320,32317,1,8,0:0:0:0:
62,301,32420,1,0,3:0:0:0:
53,280,32523,1,2,0:0:0:0:
49,257,32627,1,0,3:0:0:0:
51,234,32730,6,0,P|52:221|56:205,12,30.3333333333333,2|2|2|2|2|2|10|2|2|2|2|2|2,0:0|0:0|0:0|0:0|0:0|0:0|0:0|0:0|0:0|0:0|0:0|0:0|0:0,0:0:0:0:
239,36,33968,6,0,L|77:43,1,136.5,8|2,0:0|0:0,0:0:0:0:
150,129,34484,1,8,0:0:0:0:
150,129,34588,2,0,L|255:124,1,91,0|2,3:0|0:0,0:0:0:0:
340,118,35000,1,0,3:0:0:0:
256,10,35207,5,2,0:0:0:0:
372,196,35620,2,0,L|534:189,1,136.5,8|2,0:0|0:0,0:0:0:0:
406,281,36136,1,8,0:3:0:0:
406,281,36239,2,0,L|300:276,1,91,4|2,0:3|0:0,0:0:0:0:
256,358,36652,1,0,3:0:0:0:
196,277,36858,6,0,L|106:281,1,91,2|0,0:0|3:0,0:0:0:0:
256,358,37271,2,0,L|165:361,1,91,8|0,0:0|3:0,0:0:0:0:
315,277,37684,1,2,0:0:0:0:
315,277,37787,2,0,L|406:281,1,91,8|4,0:3|0:3,0:0:0:0:
455,282,38097,1,2,0:0:0:0:
256,192,38303,1,2,0:0:0:0:
256,192,38509,5,8,0:3:0:0:
57,282,38716,5,4,0:0:0:0:
54,295,39025,1,6,0:0:0:0:
51,76,39748,1,8,0:0:0:0:
51,76,39851,2,0,B|83:67|83:67|151:83,1,91,8|8,0:0|0:0,0:0:0:0:
186,95,40161,6,0,P|205:57|192:13,1,91,6|0,0:0|3:0,0:0:0:0:
131,168,40574,2,0,L|145:260,1,91,8|2,0:0|0:0,0:0:0:0:
302,368,40986,2,0,P|332:307|324:240,2,136.5,2|0|2,0:3|3:0|0:0,0:0:0:0:
236,218,41812,2,0,L|419:198,1,182,2|8,0:3|0:0,0:0:0:0:
490,267,42431,1,2,0:0:0:0:
490,267,42638,1,2,0:3:0:0:
418,46,42844,5,6,0:0:0:0:
404,48,43154,1,6,0:0:0:0:
390,50,43463,6,0,L|244:38,2,136.5,2|0|2,0:0|3:0|0:0,0:0:0:0:
195,144,44289,2,0,L|341:132,2,136.5,2|0|2,0:3|3:0|0:0,0:0:0:0:
13,281,45115,6,0,L|1:135,2,136.5,2|0|2,0:3|3:0|0:0,0:0:0:0:
107,86,45940,2,0,L|95:232,2,136.5,2|0|0,0:3|3:0|3:0,0:0:0:0:
230,299,46766,6,0,P|142:301|93:374,1,182,2|8,0:0|0:0,0:0:0:0:
310,359,47385,1,2,0:0:0:0:
350,267,47592,2,0,L|333:131,2,136.5,2|0|2,0:3|3:0|0:0,0:0:0:0:
429,205,48417,6,0,L|439:295,1,91,2|2,0:3|0:0,0:0:0:0:
258,235,48830,2,0,L|247:144,1,91,8|2,0:0|0:0,0:0:0:0:
445,334,49243,1,2,0:3:0:0:
173,315,49449,5,6,0:0:0:0:
160,319,49759,1,6,0:0:0:0:
147,323,50069,6,0,L|48:316,1,91,2|0,0:0|3:0,0:0:0:0:
11,185,50481,1,8,0:0:0:0:
110,196,50688,1,2,0:0:0:0:
229,43,50894,2,0,P|236:90|224:141,1,91,2|2,0:3|0:0,0:0:0:0:
31,21,51307,1,8,0:0:0:0:
130,32,51513,1,2,0:0:0:0:
338,100,51720,6,0,L|487:79,2,136.5,2|0|2,0:3|3:0|0:0,0:0:0:0:
338,284,52545,2,0,L|487:305,2,136.5,2|0|0,0:3|3:0|3:0,0:0:0:0:
77,243,53371,6,0,P|205:245|263:364,1,273,6|2,0:0|0:0,0:0:0:0:
435,141,54197,2,0,P|307:139|249:20,1,273,2|2,0:3|0:0,0:0:0:0:
15,109,55022,6,0,L|201:136,1,182,2|8,0:0|0:0,0:0:0:0:
114,36,55642,1,2,0:0:0:0:
13,209,55848,2,0,L|125:359,1,182,2|8,0:3|0:0,0:0:0:0:
134,227,56467,1,2,0:0:0:0:
256,321,56674,6,0,L|256:366,3,45.5,2|0|2|0,0:0|3:0|0:3|3:0,0:0:0:0:
303,382,57087,2,0,L|357:372,3,45.5,8|0|2|0,0:0|3:0|0:0|3:0,0:0:0:0:
396,360,57499,1,2,0:3:0:0:
418,344,57603,1,0,3:0:0:0:
432,320,57706,1,2,0:0:0:0:
439,293,57809,1,0,3:0:0:0:
437,265,57912,1,8,0:0:0:0:
427,239,58015,1,0,3:0:0:0:
408,219,58119,1,2,0:0:0:0:
398,193,58222,1,0,3:0:0:0:
401,165,58325,6,0,P|427:152|452:147,3,45.5,2|2|2|0,0:0|0:3|0:3|3:0,0:0:0:0:
477,111,58738,2,0,L|468:61,3,45.5,8|0|2|0,0:0|3:0|0:0|3:0,0:0:0:0:
423,45,59151,1,2,0:3:0:0:
400,47,59254,1,2,0:3:0:0:
377,49,59357,1,2,0:0:0:0:
354,51,59460,1,0,3:0:0:0:
331,53,59563,1,8,0:0:0:0:
308,55,59667,1,0,3:0:0:0:
285,57,59770,1,2,0:3:0:0:
262,59,59873,1,2,0:0:0:0:
239,61,59976,5,2,0:0:0:0:
185,145,60183,1,2,0:3:0:0:
207,141,60286,1,0,3:0:0:0:
228,148,60389,1,8,0:0:0:0:
247,160,60492,1,0,3:0:0:0:
259,178,60596,1,2,0:0:0:0:
267,198,60699,1,0,3:0:0:0:
267,220,60802,1,2,0:3:0:0:
352,272,61008,1,2,0:0:0:0:
348,250,61112,1,0,3:0:0:0:
355,229,61215,1,8,0:0:0:0:
367,210,61318,1,0,3:0:0:0:
385,198,61421,1,2,0:0:0:0:
405,190,61524,1,0,3:0:0:0:
427,190,61628,5,2,0:0:0:0:
505,252,61834,1,2,0:3:0:0:
503,274,61937,1,0,3:0:0:0:
501,296,62040,1,8,0:0:0:0:
500,318,62144,1,0,3:0:0:0:
499,340,62247,2,0,L|474:380,2,45.5,2|0|2,0:0|3:0|0:3,0:0:0:0:
384,310,62660,1,2,0:0:0:0:
367,324,62763,1,0,3:0:0:0:
350,338,62866,1,8,0:0:0:0:
333,353,62969,1,8,0:0:0:0:
317,367,63073,2,0,L|271:377,2,45.5,2|8|2,0:0|0:0|0:0,0:0:0:0:
201,214,63485,6,0,P|163:276|210:383,1,182,2|2,0:3|0:0,0:0:0:0:
311,170,64105,1,2,0:3:0:0:
311,170,64311,2,0,P|349:108|302:1,1,182,2|2,0:0|0:0,0:0:0:0:
211,69,64930,5,2,0:0:0:0:
194,84,65033,1,0,3:0:0:0:
172,90,65137,1,2,0:3:0:0:
149,91,65240,1,0,3:0:0:0:
126,87,65343,1,8,0:0:0:0:
104,80,65446,1,0,3:0:0:0:
83,69,65549,1,2,0:0:0:0:
69,50,65653,1,0,3:0:0:0:
62,28,65756,6,0,L|22:28,12,30.3333333333333,2|2|2|2|2|2|10|2|2|2|2|2|2,0:0|0:0|0:0|0:0|0:0|0:0|0:0|0:0|0:0|0:0|0:0|0:0|0:0,0:0:0:0:
30,244,66994,6,0,L|125:251,1,91,8|0,0:0|3:0,0:0:0:0:
220,257,67407,1,2,0:0:0:0:
220,257,67510,2,0,P|227:305|206:354,1,91,8|2,0:0|0:0,0:0:0:0:
171,371,67820,1,2,0:0:0:0:
256,193,68026,1,0,3:0:0:0:
341,371,68233,5,2,0:0:0:0:
481,136,68646,2,0,L|491:274,1,136.5,8|2,0:0|0:0,0:0:0:0:
384,220,69162,1,8,0:3:0:0:
384,220,69265,2,0,L|391:118,1,91,4|2,0:3|0:0,0:0:0:0:
276,159,69678,1,0,3:0:0:0:
162,126,69884,6,0,L|67:134,1,91,2|0,0:0|3:0,0:0:0:0:
71,250,70297,2,0,L|162:258,1,91,8|0,0:0|3:0,0:0:0:0:
272,374,70710,1,2,0:0:0:0:
272,374,70813,2,0,P|261:312|274:241,1,136.5,8|2,0:3|0:0,0:0:0:0:
323,119,71329,1,2,0:0:0:0:
323,119,71432,1,2,0:0:0:0:
323,119,71535,5,8,0:3:0:0:
42,192,71742,5,4,0:0:0:0:
28,192,72051,1,6,0:0:0:0:
198,40,72774,1,8,0:0:0:0:
198,40,72877,2,0,L|205:133,1,91,8|8,0:0|0:0,0:0:0:0:
256,192,73187,5,4,0:0:0:0:
