osu file format v14

[General]
AudioFilename: audio.mp3
AudioLeadIn: 0
PreviewTime: 40161
Countdown: 0
SampleSet: Soft
StackLeniency: 0.7
Mode: 0
LetterboxInBreaks: 0
WidescreenStoryboard: 0

[Editor]
DistanceSpacing: 0.8
BeatDivisor: 4
GridSize: 4
TimelineZoom: 3.299999

[Metadata]
Title:Battle Spirit
TitleUnicode:バトルスピリット
Artist:Yoshino Aoki
ArtistUnicode:青木佳乃
Creator:P o M u T a
Version:Insane
Source:バトルネットワーク ロックマンエグゼ2
Tags:electronic video Kyshiro forte megaman Mega Man pomuta Battle Network Rockman EXE 2 capcom game boy advance airman quickman cutman shadowman protoman knightman magnetman freezeman bass gospel gba instrumental
BeatmapID:1008720
BeatmapSetID:472007

[Difficulty]
HPDrainRate:5.5
CircleSize:4
OverallDifficulty:7
ApproachRate:8.7
SliderMultiplier:1.92
SliderTickRate:1

[Events]
//Background and Video events
0,0,"2070867_p0.jpg",0,0
//Break Periods
//Storyboard Layer 0 (Background)
//Storyboard Layer 1 (Fail)
//Storyboard Layer 2 (Pass)
//Storyboard Layer 3 (Foreground)
//Storyboard Layer 4 (Overlay)
//Storyboard Sound Samples

[TimingPoints]
530,412.825099766066,4,2,1,60,1,0
530,-133.333333333333,4,2,1,60,0,0
3006,-100,4,2,1,70,0,0
3213,-100,4,2,1,80,0,0
3832,-133.333333333333,4,2,1,60,0,0
5483,-133.333333333333,4,2,1,70,0,0
5690,-100,4,2,1,100,0,0
6309,-133.333333333333,4,2,1,60,0,0
6722,-133.333333333333,4,2,1,70,0,0
7135,-100,4,2,1,80,0,0
9818,-100,4,2,1,90,0,0
10437,-100,4,2,1,80,0,0
16423,-100,4,2,1,90,0,0
17043,-100,4,2,1,80,0,0
20345,-100,4,2,1,85,0,0
23648,-100,4,2,1,50,0,0
24061,-100,4,2,1,60,0,0
24473,-100,4,2,1,70,0,0
24886,-100,4,2,1,80,0,0
25299,-100,4,2,1,85,0,0
32730,-100,4,2,1,75,0,0
33143,-100,4,2,1,80,0,0
33556,-100,4,2,1,85,0,0
38716,-100,4,2,1,90,0,0
39335,-100,4,2,1,80,0,0
42844,-66.6666666666667,4,2,1,80,0,0
43463,-100,4,2,1,80,0,0
49449,-66.6666666666667,4,2,1,80,0,0
50069,-100,4,2,1,80,0,0
53371,-100,4,2,1,85,0,1
56674,-100,4,2,1,50,0,1
57087,-100,4,2,1,60,0,1
57499,-100,4,2,1,70,0,1
57912,-100,4,2,1,80,0,1
58325,-100,4,2,1,85,0,1
65756,-100,4,2,1,75,0,1
66169,-100,4,2,1,80,0,1
66582,-100,4,2,1,85,0,0
71535,-100,4,2,1,80,0,0
72361,-100,4,2,1,60,0,0
72774,-100,4,2,1,70,0,0
73187,-100,4,2,1,100,0,0

[Colours]
Combo1 : 191,255,191
Combo2 : 136,136,255
Combo3 : 255,198,140
Combo4 : 210,166,255

[HitObjects]
373,191,530,5,6,0:0:0:0:
482,247,736,1,0,0:0:0:0:
296,280,942,1,2,0:0:0:0:
296,280,1046,2,0,P|294:316|306:362,1,72.0000027465821,0|0,0:0|0:0,0:0:0:0:
368,380,1355,2,0,L|446:371,1,72.0000027465821,2|0,0:0|0:0,0:0:0:0:
301,350,1665,2,0,L|223:341,1,72.0000027465821,0|0,0:0|0:0,0:0:0:0:
158,330,1974,1,0,0:0:0:0:
7,289,2181,6,0,P|10:325|6:367,1,72.0000027465821,2|0,0:0|0:0,0:0:0:0:
32,219,2594,1,2,0:0:0:0:
51,220,2697,2,0,P|91:222|130:214,1,72.0000027465821,0|2,0:0|0:0,0:0:0:0:
184,173,3006,1,12,0:0:0:0:
205,140,3110,1,4,0:0:0:0:
199,102,3213,6,0,B|193:51|193:51|216:9,1,96,8|0,0:3|0:0,0:0:0:0:
297,11,3522,2,0,B|319:51|319:51|313:102,1,96,4|2,0:0|0:0,0:0:0:0:
256,192,3832,5,2,0:0:0:0:
256,336,4039,1,0,0:0:0:0:
396,259,4245,1,2,0:0:0:0:
378,268,4348,2,0,P|338:268|304:261,1,72.0000027465821,0|0,0:0|0:0,0:0:0:0:
256,192,4658,1,2,0:0:0:0:
231,207,4761,2,0,P|193:200|157:210,1,72.0000027465821,2|0,0:3|3:0,0:0:0:0:
114,272,5071,1,2,0:0:0:0:
95,249,5174,1,0,0:0:0:0:
86,221,5277,1,2,0:3:0:0:
88,192,5380,1,0,3:0:0:0:
99,165,5483,6,0,P|108:145|106:119,1,36.0000013732911,8|4,0:3|0:3,0:0:0:0:
11,80,5690,2,0,L|59:75,1,48,4|2,0:2|0:0,0:0:0:0:
141,9,5896,2,0,L|135:56,1,48,8|6,0:0|0:0,0:0:0:0:
404,192,6309,5,2,0:3:0:0:
381,174,6412,1,0,0:0:0:0:
354,165,6515,1,2,0:3:0:0:
325,166,6619,1,0,3:0:0:0:
298,176,6722,1,8,0:0:0:0:
276,194,6825,1,8,0:0:0:0:
262,219,6928,1,0,3:0:0:0:
256,247,7031,1,8,0:0:0:0:
253,321,7135,6,0,L|203:314,1,48,6|0,0:0|3:0,0:0:0:0:
343,350,7444,2,0,L|442:341,1,96,0|0,3:0|3:0,0:0:0:0:
510,332,7754,1,2,0:0:0:0:
460,167,7960,2,0,L|467:221,1,48,2|0,0:3|3:0,0:0:0:0:
510,77,8270,2,0,P|464:83|415:63,1,96,0|0,3:0|3:0,0:0:0:0:
360,23,8580,1,2,0:0:0:0:
198,85,8786,6,0,L|259:80,1,48,2|0,3:0|3:0,0:0:0:0:
136,174,9096,2,0,L|38:167,1,96,0|0,3:0|3:0,0:0:0:0:
4,104,9405,2,0,P|4:76|14:46,1,48,2|0,0:0|0:0,0:0:0:0:
63,246,9612,2,0,P|63:274|53:304,1,48,2|0,0:3|3:0,0:0:0:0:
11,360,9818,1,6,0:0:0:0:
256,192,10128,1,6,0:0:0:0:
501,360,10437,5,2,0:0:0:0:
499,321,10541,1,0,3:0:0:0:
497,282,10644,1,0,3:0:0:0:
495,243,10747,1,0,3:0:0:0:
415,325,10953,1,0,3:0:0:0:
413,286,11057,1,2,0:0:0:0:
301,191,11263,2,0,P|330:192|349:185,1,48,2|0,0:3|3:0,0:0:0:0:
210,191,11469,2,0,P|187:192|164:185,1,48,2|0,0:0|3:0,0:0:0:0:
409,118,11779,2,0,P|417:94|414:67,1,48,0|2,3:0|0:0,0:0:0:0:
224,50,12089,5,2,0:3:0:0:
252,76,12192,1,0,3:0:0:0:
290,80,12295,1,2,0:0:0:0:
326,68,12398,1,0,3:0:0:0:
158,109,12605,1,0,3:0:0:0:
120,114,12708,1,2,0:0:0:0:
35,235,12914,2,0,P|31:263|38:285,1,48,2|0,0:3|3:0,0:0:0:0:
157,341,13121,2,0,P|161:313|154:291,1,48,2|2,0:0|0:3,0:0:0:0:
287,244,13327,1,8,0:0:0:0:
267,276,13430,1,10,0:0:0:0:
276,313,13533,1,0,3:0:0:0:
492,332,13740,6,0,P|424:269|441:179,1,192,2|8,0:0|0:0,0:0:0:0:
476,115,14256,2,0,P|451:106|419:112,1,48,0|2,3:0|0:0,0:0:0:0:
273,173,14566,1,2,0:3:0:0:
242,196,14669,2,0,B|222:202|222:202|137:181,1,96,0|0,3:0|3:0,0:0:0:0:
80,161,14978,2,0,P|71:114|89:70,1,96,8|2,0:0|0:0,0:0:0:0:
141,266,15391,5,2,0:3:0:0:
102,269,15494,1,0,3:0:0:0:
63,272,15598,1,2,0:0:0:0:
24,275,15701,1,0,3:0:0:0:
145,352,15907,1,0,3:0:0:0:
106,355,16010,1,2,0:0:0:0:
256,270,16217,1,2,0:3:0:0:
256,318,16320,1,0,3:0:0:0:
256,365,16423,1,6,0:0:0:0:
45,192,16733,1,6,0:0:0:0:
256,19,17043,5,2,0:0:0:0:
294,23,17146,1,0,3:0:0:0:
332,27,17249,1,0,3:0:0:0:
370,31,17352,1,0,3:0:0:0:
240,120,17559,1,0,3:0:0:0:
278,116,17662,1,2,0:0:0:0:
339,196,17868,1,2,0:3:0:0:
369,172,17971,1,0,3:0:0:0:
407,169,18075,1,2,0:0:0:0:
443,182,18178,1,0,3:0:0:0:
308,276,18384,1,0,3:0:0:0:
346,282,18487,1,2,0:0:0:0:
168,311,18694,5,2,0:3:0:0:
218,363,18797,2,0,L|325:359,1,96,0|0,3:0|3:0,0:0:0:0:
168,311,19107,1,8,0:0:0:0:
132,295,19210,1,0,3:0:0:0:
94,300,19313,2,0,P|72:306|47:323,1,48,2|0,0:0|0:0,0:0:0:0:
7,254,19519,1,2,0:3:0:0:
7,254,19623,2,0,L|14:145,1,96,0|0,3:0|3:0,0:0:0:0:
72,117,19932,1,8,0:0:0:0:
109,127,20035,1,10,0:0:0:0:
145,113,20139,2,0,P|154:96|156:65,1,48,0|8,3:0|0:0,0:0:0:0:
134,0,20345,5,6,0:0:0:0:
181,3,20448,1,0,3:0:0:0:
228,6,20552,1,2,0:3:0:0:
275,9,20655,1,0,3:0:0:0:
347,18,20758,2,0,L|341:71,1,48,8|0,0:0|3:0,0:0:0:0:
382,130,20964,2,0,P|416:134|439:124,1,48,2|0,0:0|3:0,0:0:0:0:
321,183,21171,1,2,0:3:0:0:
277,162,21274,1,0,3:0:0:0:
228,163,21377,1,2,0:0:0:0:
185,185,21480,1,0,3:0:0:0:
137,248,21584,2,0,P|134:275|141:304,1,48,8|0,0:0|3:0,0:0:0:0:
201,340,21790,2,0,L|265:332,1,48,2|0,0:0|3:0,0:0:0:0:
312,290,21996,5,2,0:0:0:0:
343,325,22100,1,0,3:0:0:0:
390,333,22203,1,2,0:3:0:0:
433,312,22306,1,0,3:0:0:0:
464,241,22409,2,0,L|511:236,1,48,8|0,0:0|3:0,0:0:0:0:
511,148,22616,2,0,L|464:143,1,48,2|0,0:0|3:0,0:0:0:0:
400,192,22822,1,2,0:3:0:0:
352,192,22925,1,0,3:0:0:0:
304,192,23028,1,2,0:0:0:0:
256,192,23132,1,0,3:0:0:0:
194,239,23235,2,0,P|190:269|195:296,1,48,8|8,0:0|0:0,0:0:0:0:
194,145,23441,2,0,P|190:115|195:88,1,48,2|8,0:0|0:0,0:0:0:0:
267,273,23648,6,0,P|269:298|259:327,3,48,2|0|2|0,0:0|3:0|0:3|3:0,0:0:0:0:
197,362,24061,2,0,P|175:369|151:369,3,48,8|0|2|0,0:0|3:0|0:0|3:0,0:0:0:0:
78,347,24473,1,2,0:3:0:0:
39,317,24577,1,0,3:0:0:0:
26,270,24680,1,2,0:0:0:0:
35,222,24783,1,0,3:0:0:0:
68,187,24886,1,8,0:0:0:0:
97,149,24989,1,0,3:0:0:0:
109,102,25093,1,2,0:0:0:0:
94,55,25196,1,0,3:0:0:0:
56,24,25299,6,0,L|5:21,1,48,2|2,0:0|0:3,0:0:0:0:
174,60,25505,2,0,L|222:63,1,48,2|0,0:3|3:0,0:0:0:0:
97,149,25712,2,0,L|46:146,1,48,8|0,0:0|3:0,0:0:0:0:
215,185,25918,2,0,L|262:187,1,48,2|0,0:0|3:0,0:0:0:0:
412,77,26125,1,2,0:3:0:0:
382,114,26228,1,2,0:3:0:0:
368,160,26331,1,2,0:0:0:0:
379,206,26434,1,0,3:0:0:0:
412,240,26537,1,8,0:0:0:0:
407,287,26641,1,0,3:0:0:0:
373,321,26744,1,2,0:3:0:0:
325,322,26847,1,2,0:0:0:0:
291,287,26950,5,2,0:0:0:0:
465,158,27157,1,2,0:3:0:0:
472,181,27260,1,0,3:0:0:0:
479,203,27363,1,8,0:0:0:0:
412,77,27570,2,0,L|420:29,2,48,2|0|2,0:0|3:0|0:3,0:0:0:0:
236,102,27982,1,2,0:0:0:0:
259,106,28086,1,0,3:0:0:0:
282,110,28189,1,8,0:0:0:0:
148,202,28395,2,0,L|98:215,1,48,2|0,0:0|3:0,0:0:0:0:
29,238,28602,5,2,0:0:0:0:
119,350,28808,1,2,0:3:0:0:
167,348,28911,1,0,3:0:0:0:
203,317,29014,1,8,0:0:0:0:
256,135,29221,2,0,L|256:183,2,48,2|0|2,0:0|3:0|0:3,0:0:0:0:
309,317,29634,1,2,0:0:0:0:
345,348,29737,1,0,3:0:0:0:
393,350,29840,1,8,0:0:0:0:
203,317,30046,1,2,0:0:0:0:
167,348,30150,1,8,0:0:0:0:
119,350,30253,5,2,0:0:0:0:
79,322,30356,1,0,3:0:0:0:
71,274,30459,1,2,0:3:0:0:
95,232,30563,1,0,3:0:0:0:
137,210,30666,1,8,0:0:0:0:
184,214,30769,1,0,3:0:0:0:
230,227,30872,1,2,0:0:0:0:
277,222,30975,1,0,3:0:0:0:
321,204,31079,2,0,P|322:178|312:143,1,48,2|0,0:3|3:0,0:0:0:0:
383,88,31285,2,0,P|360:74|325:65,1,48,2|0,0:0|3:0,0:0:0:0:
403,165,31491,2,0,P|400:195|407:225,1,48,8|0,0:0|3:0,0:0:0:0:
510,268,31698,2,0,P|482:280|460:301,1,48,2|0,0:0|3:0,0:0:0:0:
366,362,31904,5,2,0:0:0:0:
331,328,32007,1,0,3:0:0:0:
285,312,32111,1,2,0:3:0:0:
237,319,32214,1,0,3:0:0:0:
193,339,32317,1,8,0:0:0:0:
149,359,32420,1,0,3:0:0:0:
101,366,32523,1,2,0:0:0:0:
55,350,32627,1,0,3:0:0:0:
20,316,32730,6,0,L|14:280,2,32,2|2|2,0:0|0:0|0:0,0:0:0:0:
27,268,32936,2,0,L|21:232,2,32,2|2|2,0:0|0:0|0:0,0:0:0:0:
34,220,33143,2,0,L|28:184,2,32,10|2|2,0:0|0:0|0:0,0:0:0:0:
41,172,33349,2,0,L|35:136,2,32,2|2|2,0:0|0:0|0:0,0:0:0:0:
48,124,33556,6,0,L|39:72,1,48,2|2,0:0|0:0,0:0:0:0:
169,112,33865,2,0,P|143:156|147:204,1,96,2|2,0:0|0:0,0:0:0:0:
366,199,34278,2,0,P|368:152|343:112,2,96,2|8|2,0:0|0:0|0:0,0:0:0:0:
310,252,34794,2,0,P|309:279|316:305,1,48,2|2,0:0|0:0,0:0:0:0:
203,289,35000,2,0,P|204:316|197:342,1,48,0|2,3:0|0:0,0:0:0:0:
102,364,35207,5,2,0:0:0:0:
102,364,35310,2,0,B|77:351|77:351|10:359,1,96,2|2,0:0|0:0,0:0:0:0:
139,205,35723,2,0,B|164:218|164:218|231:210,1,96,2|2,0:0|0:0,0:0:0:0:
451,174,36136,2,0,P|406:161|359:168,1,96,8|4,0:3|0:3,0:0:0:0:
494,243,36445,2,0,P|496:270|486:298,1,48,2|2,0:0|0:0,0:0:0:0:
359,167,36652,2,0,P|353:144|355:121,1,48,0|2,3:0|0:0,0:0:0:0:
397,57,36858,5,2,0:0:0:0:
397,57,36961,2,0,P|354:45|297:73,1,96,2|2,0:0|0:0,0:0:0:0:
256,240,37374,2,0,L|256:144,1,96,2|2,0:0|0:0,0:0:0:0:
115,327,37787,2,0,P|158:339|215:311,1,96,8|4,0:3|0:3,0:0:0:0:
156,252,38097,1,2,0:0:0:0:
108,245,38200,1,0,3:0:0:0:
61,256,38303,1,2,0:0:0:0:
37,298,38406,1,2,0:0:0:0:
37,345,38509,5,8,0:3:0:0:
115,159,38716,2,0,B|72:175|72:175|1:94,2,144,4|6|2,0:0|0:0|0:3,0:0:0:0:
183,122,39438,2,0,L|289:131,1,96,2|0,0:3|3:3,0:0:0:0:
342,63,39748,1,8,0:0:0:0:
342,63,39851,2,0,L|236:54,1,96,8|8,0:0|0:0,0:0:0:0:
229,199,40161,6,0,L|282:203,1,48,6|0,0:0|3:0,0:0:0:0:
461,252,40470,2,0,B|430:244|430:244|362:264,1,96,0|0,3:0|3:0,0:0:0:0:
322,317,40780,1,2,0:0:0:0:
53,297,40986,2,0,L|60:355,1,48,2|0,0:3|3:0,0:0:0:0:
132,205,41296,2,0,B|105:217|105:217|34:203,1,96,0|0,3:0|3:0,0:0:0:0:
7,139,41606,1,2,0:0:0:0:
149,76,41812,6,0,L|212:68,1,48,2|0,0:3|3:0,0:0:0:0:
263,197,42122,2,0,B|249:170|249:170|270:95,1,96,0|0,3:0|3:0,0:0:0:0:
325,54,42431,2,0,P|342:82|340:112,1,48,2|0,0:0|0:0,0:0:0:0:
417,172,42638,2,0,P|441:147|461:139,1,48,2|0,0:3|3:0,0:0:0:0:
325,54,42844,6,0,B|274:66|274:66|171:47,1,144.000005493164,6|0,0:0|0:0,0:0:0:0:
234,136,43154,2,0,B|143:119|143:119|92:131,1,144.000005493164,6|0,0:0|0:0,0:0:0:0:
64,65,43463,5,2,0:0:0:0:
31,86,43567,1,0,3:0:0:0:
17,121,43670,1,0,3:0:0:0:
24,158,43773,1,0,3:0:0:0:
99,268,43979,2,0,L|86:319,1,48,0|2,3:0|0:0,0:0:0:0:
244,270,44289,1,2,0:3:0:0:
282,267,44392,1,0,3:0:0:0:
273,304,44495,1,2,0:0:0:0:
264,341,44599,1,0,3:0:0:0:
428,360,44805,2,0,P|432:333|445:313,1,48,0|2,3:0|0:0,0:0:0:0:
510,167,45115,5,2,0:3:0:0:
471,167,45218,1,0,3:0:0:0:
436,149,45321,1,2,0:0:0:0:
414,117,45424,2,0,P|399:70|416:19,1,96,0|0,3:0|3:0,0:0:0:0:
485,70,45734,1,2,0:0:0:0:
327,153,45940,1,2,0:3:0:0:
288,149,46043,1,0,3:0:0:0:
249,145,46147,1,2,0:0:0:0:
210,141,46250,2,0,B|200:112|200:112|219:43,1,96,0|10,3:0|0:0,0:0:0:0:
286,13,46559,1,0,3:0:0:0:
327,153,46766,6,0,B|340:232|256:268|256:268|256:312,1,192,2|8,0:0|0:0,0:0:0:0:
316,362,47282,2,0,P|328:341|331:318,1,48,0|2,3:0|0:0,0:0:0:0:
150,235,47592,1,2,0:3:0:0:
118,257,47695,2,0,B|94:268|94:268|19:250,1,96,0|0,3:0|3:0,0:0:0:0:
0,184,48004,2,0,P|-5:136|9:91,1,96,8|2,0:0|0:0,0:0:0:0:
154,41,48417,6,0,P|178:48|205:48,1,48,2|0,0:3|3:0,0:0:0:0:
311,48,48624,2,0,P|335:47|358:41,1,48,2|0,0:0|3:0,0:0:0:0:
488,144,48933,1,0,3:0:0:0:
451,132,49036,1,2,0:0:0:0:
412,133,49140,1,0,0:0:0:0:
377,148,49243,2,0,P|357:158|322:159,1,48,2|0,0:3|3:0,0:0:0:0:
263,124,49449,6,0,L|119:142,1,144.000005493164,6|0,0:0|0:0,0:0:0:0:
120,242,49759,2,0,L|263:260,1,144.000005493164,6|0,0:0|0:0,0:0:0:0:
400,227,50069,5,2,0:0:0:0:
421,258,50172,1,0,3:0:0:0:
418,296,50275,1,0,3:0:0:0:
393,325,50378,2,0,B|367:321|367:321|292:347,1,96,0|0,3:0|3:0,0:0:0:0:
234,371,50688,1,2,0:0:0:0:
71,315,50894,1,2,0:3:0:0:
107,326,50997,1,0,3:0:0:0:
144,320,51101,1,2,0:0:0:0:
170,292,51204,2,0,P|188:249|178:199,1,96,0|0,3:0|3:0,0:0:0:0:
139,142,51513,1,2,0:0:0:0:
256,41,51720,5,2,0:3:0:0:
230,69,51823,2,0,L|335:67,1,96,0|0,3:0|3:0,0:0:0:0:
410,65,52133,1,8,0:0:0:0:
410,65,52236,1,0,3:0:0:0:
410,65,52339,2,0,P|419:92|416:117,1,48,2|0,0:0|0:0,0:0:0:0:
391,183,52545,5,2,0:3:0:0:
365,211,52649,2,0,L|470:209,1,96,0|0,3:0|3:0,0:0:0:0:
498,288,52958,1,8,0:0:0:0:
460,281,53061,1,10,0:0:0:0:
426,300,53165,2,0,P|410:321|401:344,1,48,0|8,3:0|0:0,0:0:0:0:
318,376,53371,5,6,0:0:0:0:
316,328,53474,1,0,3:0:0:0:
290,289,53578,1,2,0:3:0:0:
246,269,53681,1,0,3:0:0:0:
199,275,53784,1,8,0:0:0:0:
151,281,53887,1,0,3:0:0:0:
108,261,53990,1,2,0:0:0:0:
82,222,54094,1,0,3:0:0:0:
80,174,54197,6,0,L|89:117,1,48,2|0,0:3|3:0,0:0:0:0:
186,98,54403,2,0,L|179:51,1,48,2|0,0:0|3:0,0:0:0:0:
325,98,54610,2,0,L|333:51,1,48,8|0,0:0|3:0,0:0:0:0:
432,174,54816,2,0,L|424:126,1,48,2|0,0:0|3:0,0:0:0:0:
499,265,55022,5,2,0:0:0:0:
463,296,55126,1,0,3:0:0:0:
417,310,55229,1,2,0:3:0:0:
370,303,55332,1,0,3:0:0:0:
329,278,55435,2,0,P|323:252|330:221,1,48,8|0,0:0|3:0,0:0:0:0:
242,185,55642,2,0,P|248:211|241:242,1,48,2|0,0:0|3:0,0:0:0:0:
193,312,55848,5,2,0:3:0:0:
157,343,55951,1,0,3:0:0:0:
111,357,56054,1,2,0:0:0:0:
64,350,56158,1,0,3:0:0:0:
23,325,56261,2,0,P|16:298|23:267,1,48,8|8,0:0|0:0,0:0:0:0:
81,205,56467,2,0,P|87:182|85:158,1,48,2|8,0:0|0:0,0:0:0:0:
7,64,56674,5,2,0:0:0:0:
49,86,56777,1,0,3:0:0:0:
96,84,56880,1,2,0:3:0:0:
140,66,56983,1,0,3:0:0:0:
176,34,57087,1,8,0:0:0:0:
222,23,57190,1,0,3:0:0:0:
269,33,57293,1,2,0:0:0:0:
304,65,57396,1,0,3:0:0:0:
320,110,57499,2,0,P|319:136|309:157,3,48,2|0|2|0,0:3|3:0|0:0|3:0,0:0:0:0:
270,223,57912,2,0,P|247:221|216:227,3,48,8|0|2|0,0:0|3:0|0:0|3:0,0:0:0:0:
173,284,58325,6,0,L|182:343,1,48,2|2,0:0|0:3,0:0:0:0:
95,268,58531,2,0,L|104:327,1,48,2|0,0:3|3:0,0:0:0:0:
251,300,58738,6,0,L|260:359,1,48,8|0,0:0|3:0,0:0:0:0:
173,284,58944,2,0,L|182:343,1,48,2|0,0:0|3:0,0:0:0:0:
329,316,59151,6,0,L|338:375,1,48,2|2,0:3|0:3,0:0:0:0:
251,300,59357,2,0,L|260:359,1,48,2|0,0:0|3:0,0:0:0:0:
407,332,59563,6,0,L|416:391,1,48,8|0,0:0|3:0,0:0:0:0:
329,316,59770,2,0,L|338:375,1,48,2|2,0:3|0:0,0:0:0:0:
387,249,59976,5,2,0:0:0:0:
433,258,60080,1,0,3:0:0:0:
479,241,60183,1,2,0:3:0:0:
387,135,60389,1,8,0:0:0:0:
433,126,60492,1,0,3:0:0:0:
479,143,60596,1,2,0:0:0:0:
343,192,60802,2,0,L|290:192,2,48,2|0|2,0:3|3:0|0:0,0:0:0:0:
169,192,61215,2,0,L|222:192,2,48,8|0|2,0:0|3:0|0:0,0:0:0:0:
33,143,61628,5,2,0:0:0:0:
79,126,61731,1,0,3:0:0:0:
125,135,61834,1,2,0:3:0:0:
33,241,62040,1,8,0:0:0:0:
79,258,62144,1,0,3:0:0:0:
125,249,62247,1,2,0:0:0:0:
256,314,62453,2,0,L|256:368,1,48,2|0,0:3|3:0,0:0:0:0:
256,238,62660,1,2,0:0:0:0:
256,112,62866,2,0,L|256:166,1,48,8|8,0:0|0:0,0:0:0:0:
256,36,63073,1,2,0:0:0:0:
150,184,63279,6,0,L|170:140,2,48,2|0|2,0:0|3:0|0:3,0:0:0:0:
361,184,63692,2,0,L|342:140,2,48,8|0|2,0:0|3:0|0:0,0:0:0:0:
154,262,64105,2,0,L|99:253,1,48,2|0,0:3|3:0,0:0:0:0:
210,330,64311,1,2,0:0:0:0:
358,262,64517,2,0,L|413:253,1,48,8|0,0:0|3:0,0:0:0:0:
302,330,64724,1,2,0:0:0:0:
256,192,64930,5,2,0:0:0:0:
303,184,65033,1,0,3:0:0:0:
350,176,65137,1,2,0:3:0:0:
398,169,65240,1,0,3:0:0:0:
445,161,65343,2,0,L|451:103,1,48,8|0,0:0|3:0,0:0:0:0:
362,24,65549,2,0,L|366:71,1,48,2|0,0:0|3:0,0:0:0:0:
256,111,65756,6,0,L|220:117,2,32,2|2|2,0:0|0:0|0:0,0:0:0:0:
208,104,65962,2,0,L|172:110,2,32,2|2|2,0:0|0:0|0:0,0:0:0:0:
160,97,66169,2,0,L|124:103,2,32,10|2|2,0:0|0:0|0:0,0:0:0:0:
112,90,66375,2,0,L|76:96,2,32,2|2|2,0:0|0:0|0:0,0:0:0:0:
64,83,66582,6,0,L|16:90,1,48,2|2,0:0|0:0,0:0:0:0:
61,277,66891,2,0,P|73:229|56:179,2,96,2|2|2,0:0|0:0|0:0,0:0:0:0:
257,230,67510,2,0,L|157:239,1,96,8|2,0:0|0:0,0:0:0:0:
220,320,67820,1,2,0:0:0:0:
267,325,67923,1,2,0:0:0:0:
315,330,68026,1,0,3:0:0:0:
362,336,68130,1,2,0:0:0:0:
428,308,68233,6,0,P|432:283|427:257,1,48,2|2,0:0|0:0,0:0:0:0:
357,114,68542,2,0,P|355:63|373:9,2,96,2|2|2,0:0|0:0|0:0,0:0:0:0:
256,217,69162,2,0,P|269:171|263:123,1,96,8|4,0:3|0:3,0:0:0:0:
180,243,69471,1,2,0:0:0:0:
183,290,69574,1,2,0:0:0:0:
186,337,69678,1,0,3:0:0:0:
138,334,69781,1,2,0:0:0:0:
66,326,69884,6,0,P|45:328|20:335,1,48,2|2,0:0|0:0,0:0:0:0:
40,154,70194,2,0,P|52:200|39:250,2,96,2|2|2,0:0|0:0|0:0,0:0:0:0:
162,31,70813,2,0,P|145:75|154:121,1,96,8|4,0:3|0:3,0:0:0:0:
256,95,71123,1,2,0:0:0:0:
256,143,71226,1,0,3:0:0:0:
256,190,71329,1,2,0:0:0:0:
256,237,71432,1,2,0:0:0:0:
256,308,71535,6,0,P|242:315|201:314,1,48,8|4,0:3|0:3,0:0:0:0:
147,282,71742,1,4,0:0:0:0:
325,344,71845,6,0,P|339:337|380:338,1,48,2|8,0:0|0:0,0:0:0:0:
434,370,72051,1,6,0:0:0:0:
484,318,72155,2,0,L|481:263,1,48,0|0,3:0|0:0,0:0:0:0:
508,203,72361,5,2,0:3:0:0:
508,203,72464,2,0,P|470:217|417:201,1,96,2|0,0:3|3:0,0:0:0:0:
365,153,72774,1,8,0:0:0:0:
347,108,72877,1,8,0:0:0:0:
350,60,72980,1,0,3:0:0:0:
301,66,73084,1,8,0:0:0:0:
256,49,73187,5,4,0:0:0:0:
