osu file format v14

[General]
AudioFilename: audio.mp3
AudioLeadIn: 0
PreviewTime: 40161
Countdown: 0
SampleSet: Soft
StackLeniency: 0.7
Mode: 0
LetterboxInBreaks: 0
WidescreenStoryboard: 0

[Editor]
DistanceSpacing: 1.2
BeatDivisor: 4
GridSize: 4
TimelineZoom: 1.5

[Metadata]
Title:Battle Spirit
TitleUnicode:バトルスピリット
Artist:Yoshino Aoki
ArtistUnicode:青木佳乃
Creator:P o M u T a
Version:Hard
Source:バトルネットワーク ロックマンエグゼ2
Tags:electronic video Kyshiro forte megaman Mega Man pomuta Battle Network Rockman EXE 2 capcom game boy advance airman quickman cutman shadowman protoman knightman magnetman freezeman bass gospel gba instrumental
BeatmapID:1008719
BeatmapSetID:472007

[Difficulty]
HPDrainRate:5
CircleSize:4
OverallDifficulty:6
ApproachRate:7.5
SliderMultiplier:1.62
SliderTickRate:1

[Events]
//Background and Video events
0,0,"2070867_p0.jpg",0,0
//Break Periods
//Storyboard Layer 0 (Background)
//Storyboard Layer 1 (Fail)
//Storyboard Layer 2 (Pass)
//Storyboard Layer 3 (Foreground)
//Storyboard Layer 4 (Overlay)
//Storyboard Sound Samples

[TimingPoints]
530,412.825099766066,4,2,1,60,1,0
3006,-100,4,2,1,70,0,0
3213,-100,4,2,1,80,0,0
3832,-100,4,2,1,60,0,0
5483,-100,4,2,1,70,0,0
5690,-100,4,2,1,100,0,0
6722,-100,4,2,1,70,0,0
7135,-100,4,2,1,80,0,0
9818,-100,4,2,1,90,0,0
10437,-100,4,2,1,80,0,0
16423,-100,4,2,1,90,0,0
17043,-100,4,2,1,80,0,0
20345,-100,4,2,1,85,0,0
32730,-100,4,2,1,75,0,0
33143,-100,4,2,1,80,0,0
33556,-100,4,2,1,85,0,0
38716,-100,4,2,1,90,0,0
39335,-100,4,2,1,80,0,0
53371,-100,4,2,1,85,0,1
65756,-100,4,2,1,75,0,1
66169,-100,4,2,1,80,0,1
66582,-100,4,2,1,85,0,0
71535,-100,4,2,1,80,0,0
72361,-100,4,2,1,60,0,0
72774,-100,4,2,1,70,0,0
73187,-100,4,2,1,100,0,0

[Colours]
Combo1 : 191,255,191
Combo2 : 136,136,255
Combo3 : 255,198,140
Combo4 : 210,166,255

[HitObjects]
44,129,530,5,6,0:0:0:0:
55,225,736,1,0,0:0:0:0:
133,167,942,1,2,0:0:0:0:
157,170,1046,2,0,B|199:178|199:178|233:158|233:158|280:163,1,121.5,0|2,0:0|0:0,0:0:0:0:
371,204,1562,1,0,0:0:0:0:
371,204,1665,1,0,0:0:0:0:
371,204,1768,2,0,L|376:300,1,81,2|0,0:0|0:0,0:0:0:0:
291,336,2181,6,0,L|210:325,1,81,2|0,0:0|0:0,0:0:0:0:
125,373,2594,1,2,0:0:0:0:
118,349,2697,2,0,P|121:289|163:241,1,121.5,0|12,0:0|0:0,0:0:0:0:
256,240,3213,2,0,P|271:180|241:114,2,121.5,8|4|2,0:3|0:0|0:0,0:0:0:0:
210,325,4039,5,0,0:0:0:0:
298,364,4245,1,2,0:0:0:0:
322,364,4348,2,0,L|450:368,1,121.5,0|2,0:0|0:0,0:0:0:0:
488,298,4864,1,0,0:0:0:0:
500,277,4967,2,0,P|486:218|442:176,1,121.5,0|2,3:0|0:3,0:0:0:0:
358,134,5483,5,8,0:3:0:0:
344,104,5587,1,4,0:3:0:0:
347,71,5690,1,4,0:2:0:0:
443,50,5896,2,0,P|446:70|442:90,1,40.5,8|6,0:0|0:0,0:0:0:0:
118,191,6722,5,8,0:0:0:0:
95,200,6825,2,0,L|12:195,1,81,8|8,0:0|0:0,0:0:0:0:
3,176,7135,6,0,B|-7:149|-7:149|4:97,1,81,6|0,0:0|3:0,0:0:0:0:
89,50,7548,2,0,L|80:11,2,40.5,8|0|2,0:0|3:0|0:0,0:0:0:0:
178,86,7960,2,0,L|169:125,2,40.5,0|0|2,3:0|0:0|0:0,0:0:0:0:
273,65,8373,2,0,P|314:86|334:113,1,81,8|2,0:0|0:0,0:0:0:0:
376,202,8786,6,0,L|385:282,1,81,2|2,3:0|0:0,0:0:0:0:
468,331,9199,2,0,P|439:363|400:378,1,81,8|2,0:0|0:0,0:0:0:0:
356,368,9508,1,0,0:0:0:0:
308,358,9612,2,0,L|265:364,1,40.5,2|0,0:3|3:0,0:0:0:0:
219,368,9818,2,0,B|188:310|188:310|197:246,2,121.5,6|6|2,0:0|0:0|0:0,0:0:0:0:
275,288,10644,5,0,3:0:0:0:
129,357,10850,2,0,L|84:350,2,40.5,8|0|2,0:0|3:0|0:0,0:0:0:0:
100,263,11263,2,0,L|55:256,1,40.5,2|0,0:3|3:0,0:0:0:0:
25,223,11469,2,0,P|28:181|12:135,1,81,2|8,0:0|0:0,0:0:0:0:
0,48,11882,1,2,0:0:0:0:
95,24,12089,6,0,P|137:29|177:25,1,81,2|2,0:3|0:0,0:0:0:0:
238,99,12501,2,0,P|204:125|179:156,1,81,8|2,0:0|0:0,0:0:0:0:
184,252,12914,2,0,P|189:277|188:299,1,40.5,2|0,0:3|3:0,0:0:0:0:
216,333,13121,2,0,B|177:333|177:333|137:355,2,81,2|8|0,0:0|0:0|3:0,0:0:0:0:
311,353,13740,5,2,0:0:0:0:
408,353,13946,1,0,3:0:0:0:
408,255,14153,2,0,L|408:215,2,40.5,8|0|2,0:0|3:0|0:0,0:0:0:0:
311,255,14566,2,0,L|311:215,2,40.5,2|0|2,0:3|3:0|0:0,0:0:0:0:
311,353,14978,2,0,P|263:355|224:336,1,81,8|2,0:0|0:0,0:0:0:0:
186,196,15391,6,0,P|191:239|182:287,1,81,2|2,0:3|0:0,0:0:0:0:
137,361,15804,2,0,L|50:352,1,81,8|2,0:0|0:0,0:0:0:0:
18,322,16114,1,0,0:0:0:0:
31,275,16217,2,0,P|32:249|29:219,1,40.5,2|0,0:3|3:0,0:0:0:0:
16,188,16423,2,0,P|16:146|64:79,2,121.5,6|6|2,0:0|0:0|0:0,0:0:0:0:
111,165,17249,5,0,3:0:0:0:
130,260,17455,2,0,L|144:344,1,81,8|2,0:0|0:0,0:0:0:0:
238,317,17868,2,0,L|244:359,2,40.5,0|0|2,3:0|0:0|0:0,0:0:0:0:
257,221,18281,2,0,L|257:125,1,81,8|2,0:0|0:0,0:0:0:0:
204,59,18694,5,2,0:3:0:0:
308,59,18900,1,2,0:0:0:0:
204,59,19107,2,0,L|114:52,1,81,8|2,0:0|0:0,0:0:0:0:
74,48,19416,1,0,0:0:0:0:
25,45,19519,2,0,P|17:84|39:135,1,81,0|2,3:0|0:0,0:0:0:0:
106,182,19932,1,8,0:0:0:0:
57,269,20139,1,0,3:0:0:0:
57,269,20242,1,8,0:0:0:0:
57,269,20345,6,0,L|147:282,1,81,6|2,0:0|0:3,0:0:0:0:
185,286,20655,1,0,3:0:0:0:
233,291,20758,2,0,L|242:242,2,40.5,8|0|2,0:0|3:0|0:0,0:0:0:0:
316,340,21171,2,0,L|406:327,1,81,2|2,0:3|0:0,0:0:0:0:
444,323,21480,1,0,3:0:0:0:
492,318,21584,2,0,L|501:367,2,40.5,8|0|2,0:0|3:0|0:0,0:0:0:0:
491,221,21996,6,0,P|450:223|405:206,1,81,2|2,0:0|0:3,0:0:0:0:
381,173,22306,1,0,3:0:0:0:
367,126,22409,2,0,L|366:83,2,40.5,8|0|2,0:0|3:0|0:0,0:0:0:0:
282,174,22822,2,0,P|241:172|196:189,1,81,2|2,0:3|0:0,0:0:0:0:
172,222,23132,1,0,3:0:0:0:
158,269,23235,2,0,L|157:312,2,40.5,8|8|2,0:0|0:0|0:0,0:0:0:0:
79,211,23648,5,2,0:0:0:0:
4,273,23854,1,2,0:3:0:0:
79,211,24061,1,8,0:0:0:0:
4,148,24267,1,2,0:0:0:0:
79,87,24473,2,0,L|73:32,2,40.5,2|0|2,0:3|3:0|0:0,0:0:0:0:
154,148,24886,1,8,0:0:0:0:
202,146,24989,1,0,3:0:0:0:
250,144,25093,1,2,0:0:0:0:
338,105,25299,6,0,L|381:103,3,40.5,2|2|2|0,0:0|0:3|0:3|3:0,0:0:0:0:
423,83,25712,2,0,L|473:93,3,40.5,8|0|2|0,0:0|3:0|0:0|3:0,0:0:0:0:
490,131,26125,1,2,0:3:0:0:
483,228,26331,1,2,0:0:0:0:
386,225,26537,1,8,0:0:0:0:
315,292,26744,1,2,0:3:0:0:
315,292,26847,1,2,0:0:0:0:
315,292,26950,6,0,L|226:288,1,81,2|2,0:0|0:3,0:0:0:0:
149,240,27363,1,8,0:0:0:0:
128,283,27466,1,0,3:0:0:0:
142,329,27570,1,2,0:0:0:0:
225,208,27776,2,0,P|231:166|220:129,1,81,2|2,0:3|0:0,0:0:0:0:
134,84,28189,2,0,L|90:86,2,40.5,8|0|2,0:0|3:0|0:0,0:0:0:0:
215,30,28602,6,0,L|301:35,1,81,2|2,0:0|0:3,0:0:0:0:
393,35,29014,1,8,0:0:0:0:
393,35,29118,1,0,3:0:0:0:
393,35,29221,1,2,0:0:0:0:
350,122,29427,2,0,L|264:127,1,81,2|2,0:3|0:0,0:0:0:0:
195,191,29840,2,0,L|152:194,2,40.5,8|8|2,0:0|0:0|0:0,0:0:0:0:
256,266,30253,5,2,0:0:0:0:
195,341,30459,2,0,L|152:338,2,40.5,2|0|8,0:3|3:0|0:0,0:0:0:0:
291,352,30872,1,2,0:0:0:0:
339,346,30975,1,0,3:0:0:0:
387,340,31079,1,2,0:3:0:0:
483,330,31285,2,0,L|489:371,2,40.5,2|0|8,0:0|3:0|0:0,0:0:0:0:
466,233,31698,1,2,0:0:0:0:
450,137,31904,6,0,L|400:129,3,40.5,2|0|2|0,0:0|3:0|0:3|3:0,0:0:0:0:
361,129,32317,2,0,L|318:135,3,40.5,8|0|2|0,0:0|3:0|0:0|3:0,0:0:0:0:
274,149,32730,2,0,P|233:151|196:136,1,81,0|2,3:0|0:0,0:0:0:0:
112,88,33143,2,0,P|70:86|28:106,1,81,10|2,0:0|0:0,0:0:0:0:
4,193,33556,6,0,L|12:233,1,40.5,2|2,0:0|0:0,0:0:0:0:
96,280,33865,2,0,L|77:366,2,81,2|2|2,0:0|0:0|0:0,0:0:0:0:
170,216,34484,2,0,L|252:223,1,81,8|2,0:0|0:0,0:0:0:0:
279,262,34794,2,0,L|274:306,3,40.5,2|2|0|2,0:0|0:0|3:0|0:0,0:0:0:0:
302,341,35207,6,0,P|326:351|354:352,1,40.5,2|2,0:0|0:0,0:0:0:0:
425,305,35516,2,0,L|510:317,2,81,2|2|2,0:0|0:0|0:0,0:0:0:0:
375,221,36136,2,0,L|365:134,1,81,8|4,0:3|0:3,0:0:0:0:
321,159,36445,2,0,L|314:198,1,40.5,2|2,0:0|0:0,0:0:0:0:
268,180,36652,2,0,L|261:219,1,40.5,0|2,3:0|0:0,0:0:0:0:
215,201,36858,6,0,L|208:240,1,40.5,2|2,0:0|0:0,0:0:0:0:
258,324,37168,2,0,B|285:331|285:331|338:315,2,81,2|2|2,0:0|0:0|0:0,0:0:0:0:
162,345,37787,2,0,L|77:337,1,81,8|4,0:3|0:3,0:0:0:0:
43,307,38097,2,0,P|37:288|38:263,3,40.5,2|0|2|2,0:0|3:0|0:0|0:0,0:0:0:0:
46,219,38509,5,8,0:3:0:0:
10,128,38716,2,0,P|-1:66|26:3,2,121.5,4|6|2,0:0|0:0|0:3,0:0:0:0:
56,142,39438,2,0,L|165:134,1,81,2|0,0:3|3:3,0:0:0:0:
185,132,39748,1,8,0:0:0:0:
233,129,39851,2,0,L|227:78,2,40.5,8|0|8,0:0|3:0|0:0,0:0:0:0:
242,176,40161,6,0,B|268:192|268:192|322:185,1,81,6|0,0:0|3:0,0:0:0:0:
404,140,40574,1,8,0:0:0:0:
452,135,40677,1,0,3:0:0:0:
487,168,40780,1,2,0:0:0:0:
512,261,40986,2,0,L|509:350,1,81,0|2,3:0|0:0,0:0:0:0:
417,371,41399,2,0,L|420:282,1,81,8|2,0:0|0:0,0:0:0:0:
335,242,41812,6,0,L|247:248,1,81,2|2,0:3|0:0,0:0:0:0:
212,160,42225,2,0,P|202:119|198:68,1,81,8|2,0:0|0:0,0:0:0:0:
218,36,42534,1,0,0:0:0:0:
179,6,42638,2,0,L|127:10,1,40.5,2|0,0:3|3:0,0:0:0:0:
89,13,42844,1,6,0:0:0:0:
7,133,43154,1,6,0:0:0:0:
83,192,43360,1,0,0:0:0:0:
83,192,43463,6,0,L|72:279,1,81,2|0,0:0|3:0,0:0:0:0:
157,319,43876,2,0,L|152:271,2,40.5,8|0|2,0:0|3:0|0:0,0:0:0:0:
250,291,44289,2,0,L|239:378,1,81,0|0,0:0|3:0,0:0:0:0:
233,209,44702,1,8,0:0:0:0:
329,196,44908,1,2,0:0:0:0:
425,183,45115,6,0,L|408:104,1,81,2|2,0:3|0:0,0:0:0:0:
329,196,45527,2,0,L|346:275,1,81,8|2,0:0|0:0,0:0:0:0:
389,297,45837,1,0,0:0:0:0:
437,290,45940,2,0,L|477:285,2,40.5,2|0|2,0:3|3:0|0:0,0:0:0:0:
383,371,46353,1,8,0:0:0:0:
297,352,46559,1,0,3:0:0:0:
297,352,46663,1,8,0:0:0:0:
297,352,46766,6,0,B|275:364|275:364|216:352,1,81,2|0,0:0|3:0,0:0:0:0:
132,311,47179,1,8,0:0:0:0:
111,267,47282,1,0,3:0:0:0:
131,222,47385,1,2,0:0:0:0:
227,206,47592,2,0,P|230:164|221:119,1,81,2|2,0:3|0:0,0:0:0:0:
248,32,48004,2,0,L|337:26,1,81,8|2,0:0|0:0,0:0:0:0:
150,36,48417,6,0,L|61:30,1,81,2|2,0:3|0:0,0:0:0:0:
14,111,48830,2,0,L|94:116,1,81,8|2,0:0|0:0,0:0:0:0:
143,119,49140,1,0,0:0:0:0:
191,124,49243,2,0,P|197:143|199:167,1,40.5,2|0,0:3|3:0,0:0:0:0:
191,211,49449,1,6,0:0:0:0:
256,341,49759,1,6,0:0:0:0:
321,211,50069,5,2,0:0:0:0:
345,304,50275,1,0,3:0:0:0:
256,341,50481,2,0,L|170:344,1,81,8|2,0:0|0:0,0:0:0:0:
77,343,50894,2,0,P|69:324|68:304,2,40.5,0|0|2,3:0|0:0|0:0,0:0:0:0:
130,198,51307,2,0,P|145:236|140:276,1,81,8|2,0:0|0:0,0:0:0:0:
64,153,51720,6,0,P|102:122|139:116,1,81,2|2,0:3|0:0,0:0:0:0:
177,29,52133,2,0,L|271:25,1,81,8|2,0:0|0:0,0:0:0:0:
303,42,52442,1,0,0:0:0:0:
347,61,52545,2,0,L|446:57,1,81,0|2,3:0|0:0,0:0:0:0:
480,141,52958,1,8,0:0:0:0:
385,151,53165,1,0,3:0:0:0:
385,151,53268,1,8,0:0:0:0:
385,151,53371,6,0,P|373:191|379:238,1,81,6|2,0:0|0:3,0:0:0:0:
370,278,53681,1,0,3:0:0:0:
332,301,53784,2,0,L|291:298,2,40.5,8|0|2,0:0|3:0|0:0,0:0:0:0:
235,349,54197,2,0,P|216:309|227:262,1,81,2|2,0:3|0:0,0:0:0:0:
250,235,54506,1,0,3:0:0:0:
277,195,54610,2,0,L|273:151,2,40.5,8|0|2,0:0|3:0|0:0,0:0:0:0:
185,162,55022,6,0,L|208:74,1,81,2|2,0:0|0:3,0:0:0:0:
253,79,55332,1,0,3:0:0:0:
301,74,55435,2,0,L|292:31,2,40.5,8|0|2,0:0|3:0|0:0,0:0:0:0:
384,123,55848,2,0,L|473:119,1,81,2|2,0:3|0:0,0:0:0:0:
471,167,56158,1,0,3:0:0:0:
477,215,56261,2,0,L|429:217,2,40.5,8|8|2,0:0|0:0|0:0,0:0:0:0:
499,309,56674,5,2,0:0:0:0:
418,363,56880,1,2,0:3:0:0:
325,332,57087,1,8,0:0:0:0:
319,234,57293,1,2,0:0:0:0:
313,136,57499,2,0,L|359:139,2,40.5,2|0|2,0:3|3:0|0:0,0:0:0:0:
229,186,57912,1,8,0:0:0:0:
209,141,58015,1,0,3:0:0:0:
225,94,58119,1,2,0:0:0:0:
256,2,58325,6,0,L|202:9,3,40.5,2|2|2|0,0:0|0:3|0:3|3:0,0:0:0:0:
167,14,58738,2,0,L|113:21,3,40.5,8|0|2|0,0:0|3:0|0:0|3:0,0:0:0:0:
79,28,59151,1,2,0:3:0:0:
40,116,59357,1,2,0:0:0:0:
136,106,59563,1,8,0:0:0:0:
40,116,59770,1,0,3:0:0:0:
46,212,59976,6,0,L|52:301,1,81,2|2,0:0|0:3,0:0:0:0:
74,336,60286,1,0,3:0:0:0:
122,344,60389,2,0,L|176:343,2,40.5,8|0|2,0:0|3:0|0:0,0:0:0:0:
182,266,60802,2,0,L|281:276,1,81,2|2,0:3|0:0,0:0:0:0:
309,260,61112,1,0,3:0:0:0:
355,247,61215,2,0,L|401:253,2,40.5,8|0|2,0:0|3:0|0:0,0:0:0:0:
284,180,61628,6,0,P|274:134|282:94,1,81,2|2,0:0|0:3,0:0:0:0:
319,73,61937,1,0,3:0:0:0:
319,73,62040,2,0,L|368:68,2,40.5,8|0|2,0:0|3:0|0:0,0:0:0:0:
226,40,62453,2,0,L|141:36,1,81,2|2,0:3|0:0,0:0:0:0:
96,35,62763,1,0,3:0:0:0:
96,35,62866,2,0,L|40:41,2,40.5,8|8|2,0:0|0:0|0:0,0:0:0:0:
136,123,63279,5,2,0:0:0:0:
68,192,63485,1,2,0:3:0:0:
68,192,63589,1,0,3:0:0:0:
68,192,63692,1,8,0:0:0:0:
136,261,63898,2,0,L|136:312,2,40.5,2|0|2,0:0|3:0|0:3,0:0:0:0:
205,192,64311,1,2,0:0:0:0:
253,192,64414,1,0,3:0:0:0:
301,192,64517,1,8,0:0:0:0:
383,140,64724,1,2,0:0:0:0:
438,220,64930,6,0,L|431:265,3,40.5,2|0|2|0,0:0|3:0|0:3|3:0,0:0:0:0:
423,308,65343,2,0,L|369:303,3,40.5,8|0|2|0,0:0|3:0|0:0|3:0,0:0:0:0:
376,353,65756,2,0,P|336:363|292:353,1,81,0|2,3:0|0:0,0:0:0:0:
218,299,66169,2,0,P|208:259|218:215,1,81,10|2,0:0|0:0,0:0:0:0:
254,131,66582,5,2,0:0:0:0:
241,84,66685,1,2,0:0:0:0:
156,133,66891,2,0,B|139:151|139:151|75:135,2,81,2|2|2,0:0|0:0|0:0,0:0:0:0:
254,131,67510,2,0,P|292:125|334:140,1,81,8|2,0:0|0:0,0:0:0:0:
365,172,67820,2,0,P|370:190|369:217,3,40.5,2|2|0|2,0:0|0:0|3:0|0:0,0:0:0:0:
360,259,68233,6,0,P|355:277|356:304,1,40.5,2|2,0:0|0:0,0:0:0:0:
429,360,68542,2,0,L|511:351,2,81,2|2|2,0:0|0:0|0:0,0:0:0:0:
355,298,69162,2,0,L|273:289,1,81,8|4,0:3|0:3,0:0:0:0:
225,285,69471,2,0,L|167:292,1,40.5,2|2,0:0|0:0,0:0:0:0:
136,296,69678,2,0,L|78:289,1,40.5,0|2,3:0|0:0,0:0:0:0:
47,285,69884,6,0,P|41:308|44:331,1,40.5,2|2,0:0|0:0,0:0:0:0:
92,216,70194,2,0,P|98:177|86:132,2,81,2|2|2,0:0|0:0|0:0,0:0:0:0:
176,167,70813,2,0,L|270:161,1,81,8|4,0:3|0:3,0:0:0:0:
305,162,71123,2,0,P|308:181|306:202,3,40.5,2|0|2|2,0:0|3:0|0:0|0:0,0:0:0:0:
299,250,71535,5,8,0:3:0:0:
213,295,71742,1,4,0:0:0:0:
207,246,71845,1,2,0:0:0:0:
128,303,72051,2,0,L|118:342,1,40.5,6|0,0:0|3:0,0:0:0:0:
23,321,72361,1,2,0:3:0:0:
23,321,72464,2,0,B|11:290|11:290|32:235|32:235|18:202,1,121.5,2|8,0:3|0:0,0:0:0:0:
1,167,72877,2,0,L|98:161,1,81,8|8,0:0|0:0,0:0:0:0:
130,157,73187,5,4,0:0:0:0:
