osu file format v14

[General]
AudioFilename: audio.mp3
AudioLeadIn: 0
PreviewTime: 40161
Countdown: 0
SampleSet: Soft
StackLeniency: 0.7
Mode: 0
LetterboxInBreaks: 0
WidescreenStoryboard: 0

[Editor]
DistanceSpacing: 1.7
BeatDivisor: 12
GridSize: 4
TimelineZoom: 4.399998

[Metadata]
Title:Battle Spirit
TitleUnicode:バトルスピリット
Artist:Yoshino Aoki
ArtistUnicode:青木佳乃
Creator:P o M u T a
Version:Extra
Source:バトルネットワーク ロックマンエグゼ2
Tags:electronic video Kyshiro forte megaman Mega Man pomuta Battle Network Rockman EXE 2 capcom game boy advance airman quickman cutman shadowman protoman knightman magnetman freezeman bass gospel gba instrumental
BeatmapID:1008718
BeatmapSetID:472007

[Difficulty]
HPDrainRate:6
CircleSize:4.2
OverallDifficulty:8.5
ApproachRate:9.4
SliderMultiplier:3.19999990463257
SliderTickRate:1

[Events]
//Background and Video events
0,0,"2070867_p0.jpg",0,0
//Break Periods
//Storyboard Layer 0 (Background)
//Storyboard Layer 1 (Fail)
//Storyboard Layer 2 (Pass)
//Storyboard Layer 3 (Foreground)
//Storyboard Layer 4 (Overlay)
//Storyboard Sound Samples

[TimingPoints]
530,412.825099766066,4,2,1,60,1,0
530,-133.333333333333,4,2,1,60,0,0
3006,-100,4,2,1,70,0,0
3213,-100,4,2,1,80,0,0
3832,-133.333333333333,4,2,1,60,0,0
5483,-100,4,2,1,70,0,0
5690,-100,4,2,1,100,0,0
6309,-200,4,2,1,60,0,0
6515,-166.666666666667,4,2,1,60,0,0
6722,-142.857142857143,4,2,1,70,0,0
6928,-125,4,2,1,70,0,0
7135,-100,4,2,1,80,0,0
9818,-100,4,2,1,90,0,0
10437,-100,4,2,1,80,0,0
16423,-100,4,2,1,90,0,0
17043,-100,4,2,1,80,0,0
20345,-100,4,2,1,85,0,0
25299,-100,4,2,1,50,0,0
25712,-100,4,2,1,60,0,0
26125,-100,4,2,1,70,0,0
26537,-100,4,2,1,80,0,0
26950,-100,4,2,1,85,0,0
32730,-100,4,2,1,75,0,0
33143,-100,4,2,1,80,0,0
33556,-100,4,2,1,85,0,0
38716,-100,4,2,1,90,0,0
39335,-200,4,2,1,80,0,0
40161,-100,4,2,1,80,0,0
42844,-100,4,2,1,90,0,0
43463,-100,4,2,1,80,0,0
53371,-100,4,2,1,85,0,1
58325,-100,4,2,1,50,0,1
58738,-100,4,2,1,60,0,1
59151,-100,4,2,1,70,0,1
59563,-100,4,2,1,80,0,1
59976,-100,4,2,1,85,0,1
65756,-100,4,2,1,75,0,1
66169,-100,4,2,1,80,0,1
66582,-100,4,2,1,85,0,0
71535,-100,4,2,1,80,0,0
72361,-200,4,2,1,60,0,0
72774,-200,4,2,1,70,0,0
73187,-200,4,2,1,100,0,0

[Colours]
Combo1 : 191,255,191
Combo2 : 136,136,255
Combo3 : 255,198,140
Combo4 : 210,166,255

[HitObjects]
332,227,530,6,0,B|356:207|356:207|312:231|268:199,1,120.000001001358,6|0,0:0|0:0,0:0:0:0:
91,90,942,1,2,0:0:0:0:
151,30,1046,2,0,P|174:90|153:149,1,120.000001001358,0|0,0:0|0:0,0:0:0:0:
29,151,1355,2,0,P|6:91|27:32,1,120.000001001358,2|0,0:0|0:0,0:0:0:0:
102,200,1665,2,0,B|110:232|110:232|87:267|111:317,1,120.000001001358,0|0,0:0|0:0,0:0:0:0:
159,369,1974,1,0,0:0:0:0:
340,271,2181,6,0,B|302:257|267:275|267:275|225:258,1,120.000001001358,2|0,0:0|0:0,0:0:0:0:
268,197,2490,1,0,0:0:0:0:
385,213,2594,1,2,0:0:0:0:
385,213,2697,2,0,P|366:273|373:331,1,120.000001001358,0|2,0:0|0:0,0:0:0:0:
433,380,3006,1,12,0:0:0:0:
506,347,3110,1,4,0:0:0:0:
505,267,3213,2,0,B|487:219|487:219|515:166|478:115,1,159.999995231628,8|0,0:3|0:0,0:0:0:0:
341,129,3522,2,0,B|374:106|374:106|440:140|440:140|478:116,1,159.999995231628,4|2,0:0|0:0,0:0:0:0:
281,78,3832,6,0,P|305:138|297:192,1,120.000001001358,2|0,0:0|0:0,0:0:0:0:
178,356,4245,1,2,0:0:0:0:
178,356,4348,2,0,L|172:225,1,120.000001001358,0|0,0:0|0:0,0:0:0:0:
64,234,4658,2,0,P|120:214|174:238,1,120.000001001358,2|0,0:0|0:0,0:0:0:0:
61,343,4967,2,0,P|41:287|64:233,1,120.000001001358,0|0,3:0|0:0,0:0:0:0:
178,356,5277,2,0,P|164:330|141:311,1,60.0000005006791,2|0,0:3|3:0,0:0:0:0:
64,233,5483,5,8,0:3:0:0:
55,152,5587,1,4,0:3:0:0:
46,72,5690,1,4,0:2:0:0:
195,192,5896,1,8,0:0:0:0:
204,111,5999,1,6,0:0:0:0:
494,61,6309,6,0,L|490:109,1,39.9999988079071,2|0,0:3|0:0,0:0:0:0:
393,145,6515,6,0,L|401:201,1,47.9999971046449,2|0,0:3|3:0,0:0:0:0:
488,250,6722,6,0,L|482:311,1,55.9999966220857,8|8,0:0|0:0,0:0:0:0:
346,304,6928,6,0,L|352:368,1,63.9999980926514,0|8,3:0|0:0,0:0:0:0:
238,232,7135,6,0,P|250:162|189:97,1,159.999995231628,6|0,0:0|3:0,0:0:0:0:
146,173,7444,2,0,L|162:10,1,159.999995231628,0|0,3:0|3:0,0:0:0:0:
70,184,7754,2,0,L|77:267,1,79.9999976158142,2|0,0:0|0:0,0:0:0:0:
160,309,7960,1,2,0:3:0:0:
92,376,8064,2,0,L|-1:374,1,79.9999976158142,0|2,3:0|0:0,0:0:0:0:
160,309,8270,2,0,B|221:292|264:342|264:342|318:316,1,159.999995231628,0|0,3:0|3:0,0:0:0:0:
344,254,8580,2,0,P|346:210|329:169,1,79.9999976158142,2|0,0:0|0:0,0:0:0:0:
270,226,8786,5,2,3:0:0:0:
419,203,8889,1,0,3:0:0:0:
270,226,8992,2,0,L|179:212,1,79.9999976158142,2|0,0:0|3:0,0:0:0:0:
333,176,9199,2,0,L|319:85,1,79.9999976158142,8|0,0:0|3:0,0:0:0:0:
419,203,9405,2,0,L|510:189,1,79.9999976158142,2|0,0:0|0:0,0:0:0:0:
507,270,9612,1,2,0:3:0:0:
428,283,9715,1,0,3:0:0:0:
390,353,9818,2,0,B|330:363|330:363|325:310|293:272,1,159.999995231628,6|0,0:0|0:0,0:0:0:0:
122,353,10128,2,0,B|182:363|182:363|187:310|219:271,1,159.999995231628,6|0,0:0|0:0,0:0:0:0:
352,160,10437,6,0,P|284:196|211:170,1,159.999995231628,2|0,0:0|3:0,0:0:0:0:
38,93,10747,2,0,L|197:84,1,159.999995231628,0|0,3:0|3:0,0:0:0:0:
275,99,11057,2,0,P|271:55|239:18,1,79.9999976158142,2|0,0:0|0:0,0:0:0:0:
123,170,11263,2,0,L|136:337,1,159.999995231628,2|2,0:3|0:0,0:0:0:0:
25,252,11573,2,0,L|38:85,1,159.999995231628,0|0,3:0|3:0,0:0:0:0:
19,337,11882,1,2,0:0:0:0:
245,268,12089,6,0,P|319:261|407:304,1,159.999995231628,2|2,0:3|0:0,0:0:0:0:
361,106,12398,2,0,P|418:153|450:246,1,159.999995231628,0|0,3:0|3:0,0:0:0:0:
504,46,12708,2,0,L|494:139,1,79.9999976158142,2|0,0:0|0:0,0:0:0:0:
340,210,12914,2,0,P|253:174|196:196,1,159.999995231628,2|2,0:3|0:0,0:0:0:0:
32,112,13224,2,0,L|204:115,1,159.999995231628,2|10,0:3|0:0,0:0:0:0:
58,30,13533,2,0,L|143:32,1,79.9999976158142,0|8,3:0|0:0,0:0:0:0:
195,196,13740,6,0,P|121:203|56:257,1,159.999995231628,2|0,0:0|3:0,0:0:0:0:
258,264,14050,2,0,P|328:239|409:260,1,159.999995231628,0|0,3:0|3:0,0:0:0:0:
290,357,14359,2,0,P|247:344|211:347,1,79.9999976158142,2|0,0:0|0:0,0:0:0:0:
296,154,14566,2,0,P|373:169|501:72,2,239.999992847443,2|0|2,0:3|3:0|0:0,0:0:0:0:
504,204,15288,1,0,0:0:0:0:
231,119,15391,6,0,P|222:165|243:204,1,79.9999976158142,2|0,0:3|3:0,0:0:0:0:
378,77,15598,2,0,L|360:0,1,79.9999976158142,2|0,0:0|3:0,0:0:0:0:
504,204,15804,2,0,L|486:281,1,79.9999976158142,8|0,0:0|3:0,0:0:0:0:
340,348,16010,1,2,0:0:0:0:
326,253,16114,1,0,0:0:0:0:
188,319,16217,2,0,B|221:326|221:326|240:317|240:317|268:320,1,79.9999976158142,2|0,0:3|3:0,0:0:0:0:
144,228,16423,2,0,P|96:279|100:366,1,159.999995231628,6|0,0:0|0:0,0:0:0:0:
99,19,16733,2,0,P|93:97|143:155,1,159.999995231628,6|0,0:0|0:0,0:0:0:0:
326,253,17043,6,0,P|406:250|468:304,1,159.999995231628,2|0,0:0|3:0,0:0:0:0:
435,174,17352,2,0,P|485:113|481:34,1,159.999995231628,0|0,3:0|3:0,0:0:0:0:
371,349,17662,2,0,P|326:349|294:360,1,79.9999976158142,2|0,0:0|0:0,0:0:0:0:
85,275,17868,2,0,L|258:284,1,159.999995231628,2|2,0:3|0:0,0:0:0:0:
163,185,18178,2,0,L|-10:194,1,159.999995231628,0|0,3:0|3:0,0:0:0:0:
40,363,18487,2,0,L|126:367,1,79.9999976158142,2|0,0:0|0:0,0:0:0:0:
244,283,18694,5,2,0:3:0:0:
317,221,18797,1,0,3:0:0:0:
302,125,18900,2,0,P|281:92|243:66,1,79.9999976158142,2|0,0:0|3:0,0:0:0:0:
244,283,19107,1,8,0:0:0:0:
306,356,19210,1,0,3:0:0:0:
402,341,19313,2,0,P|435:320|461:282,1,79.9999976158142,2|0,0:0|0:0,0:0:0:0:
227,184,19519,5,2,0:3:0:0:
317,221,19623,2,0,B|386:236|419:184|419:184|471:184,1,159.999995231628,0|0,3:0|3:0,0:0:0:0:
227,184,19932,1,8,0:0:0:0:
147,184,20035,1,10,0:0:0:0:
94,245,20139,1,0,3:0:0:0:
14,245,20242,1,8,0:0:0:0:
74,355,20345,6,0,B|109:336|109:336|165:327|220:380,1,159.999995231628,6|2,0:0|0:3,0:0:0:0:
256,307,20655,1,0,3:0:0:0:
294,377,20758,2,0,L|378:369,1,79.9999976158142,8|0,0:0|3:0,0:0:0:0:
248,227,20964,2,0,L|256:310,1,79.9999976158142,2|0,0:0|3:0,0:0:0:0:
407,164,21171,2,0,P|332:174|263:125,1,159.999995231628,2|2,0:3|0:0,0:0:0:0:
244,50,21480,1,0,3:0:0:0:
407,164,21584,2,0,L|492:158,1,79.9999976158142,8|0,0:0|3:0,0:0:0:0:
323,55,21790,2,0,L|238:49,1,79.9999976158142,2|0,0:0|3:0,0:0:0:0:
150,180,21996,6,0,B|130:122|130:122|148:85|148:85|135:29,1,159.999995231628,2|2,0:0|0:3,0:0:0:0:
62,80,22306,1,0,3:0:0:0:
200,249,22409,2,0,P|226:220|235:182,1,79.9999976158142,8|0,0:0|3:0,0:0:0:0:
61,79,22616,2,0,P|35:108|27:147,1,79.9999976158142,2|0,0:0|3:0,0:0:0:0:
136,378,22822,2,0,B|145:358|145:339|145:339|89:301|97:229,1,159.999995231628,2|2,0:3|0:0,0:0:0:0:
150,180,23132,1,0,3:0:0:0:
235,180,23235,2,0,P|238:135|222:96,1,79.9999976158142,8|8,0:0|0:0,0:0:0:0:
17,292,23441,2,0,P|14:337|30:376,1,79.9999976158142,2|8,0:0|0:0,0:0:0:0:
274,352,23648,5,2,0:0:0:0:
332,297,23751,1,0,3:0:0:0:
411,286,23854,1,2,0:3:0:0:
473,337,23957,1,0,3:0:0:0:
411,286,24061,2,0,P|400:246|404:205,1,79.9999976158142,8|0,0:0|3:0,0:0:0:0:
418,128,24267,2,0,P|427:90|450:57,1,79.9999976158142,2|0,0:0|3:0,0:0:0:0:
479,192,24473,5,2,0:3:0:0:
479,192,24577,1,0,3:0:0:0:
342,152,24680,1,2,0:0:0:0:
342,152,24783,1,0,3:0:0:0:
230,211,24886,2,0,L|142:204,1,79.9999976158142,8|0,0:0|3:0,0:0:0:0:
48,284,25093,2,0,P|45:325|53:363,1,79.9999976158142,2|0,0:0|3:0,0:0:0:0:
142,282,25299,5,2,0:0:0:0:
0,228,25402,1,2,0:3:0:0:
138,301,25505,5,2,0:3:0:0:
61,187,25609,1,0,3:0:0:0:
149,84,25712,2,0,P|145:42|128:5,1,79.9999976158142,8|0,0:0|3:0,0:0:0:0:
260,162,25918,2,0,P|244:199|241:239,1,79.9999976158142,2|0,0:0|3:0,0:0:0:0:
328,315,26125,5,2,0:3:0:0:
222,377,26228,1,2,0:3:0:0:
328,315,26331,2,0,L|407:310,1,79.9999976158142,2|0,0:0|3:0,0:0:0:0:
222,377,26537,2,0,L|134:372,1,79.9999976158142,8|0,0:0|3:0,0:0:0:0:
254,309,26744,1,2,0:3:0:0:
363,384,26847,1,2,0:0:0:0:
487,343,26950,6,0,P|494:302|480:264,1,79.9999976158142,2|0,0:0|3:0,0:0:0:0:
313,171,27157,1,2,0:3:0:0:
403,203,27260,1,0,3:0:0:0:
481,147,27363,2,0,P|486:110|472:64,1,79.9999976158142,8|0,0:0|3:0,0:0:0:0:
313,171,27570,2,0,P|302:209|307:249,1,79.9999976158142,2|0,0:0|3:0,0:0:0:0:
361,96,27776,1,2,0:3:0:0:
361,96,27879,1,0,3:0:0:0:
180,49,27982,6,0,B|205:57|205:57|268:44,1,79.9999976158142,2|0,0:0|3:0,0:0:0:0:
99,192,28189,2,0,B|74:184|74:184|11:197,1,79.9999976158142,8|0,0:0|3:0,0:0:0:0:
180,335,28395,2,0,B|205:343|205:343|268:330,1,79.9999976158142,2|0,0:0|3:0,0:0:0:0:
63,284,28602,5,2,0:0:0:0:
63,284,28705,1,0,3:0:0:0:
63,284,28808,2,0,B|76:310|76:310|58:369,1,79.9999976158142,2|0,0:3|3:0,0:0:0:0:
97,117,29014,1,8,0:0:0:0:
97,117,29118,1,0,3:0:0:0:
97,117,29221,2,0,B|84:143|84:143|102:202,1,79.9999976158142,2|0,0:0|3:0,0:0:0:0:
8,5,29427,1,2,0:3:0:0:
8,5,29530,1,0,3:0:0:0:
182,30,29634,6,0,P|144:38|105:29,1,79.9999976158142,2|0,0:0|3:0,0:0:0:0:
256,192,29840,2,0,P|247:153|256:114,1,79.9999976158142,8|8,0:0|0:0,0:0:0:0:
104,299,30046,2,0,P|142:290|181:299,1,79.9999976158142,2|8,0:0|0:0,0:0:0:0:
280,352,30253,6,0,P|271:313|280:274,2,79.9999976158142,2|0|2,0:0|3:0|0:3,0:0:0:0:
350,314,30563,1,0,3:0:0:0:
173,150,30666,2,0,P|181:192|177:233,1,79.9999976158142,8|0,0:0|3:0,0:0:0:0:
339,150,30872,2,0,P|331:192|335:233,1,79.9999976158142,2|0,0:0|3:0,0:0:0:0:
255,114,31079,2,0,L|256:35,2,79.9999976158142,2|0|2,0:3|3:0|0:0,0:0:0:0:
256,192,31388,1,0,3:0:0:0:
84,327,31491,2,0,P|122:315|162:314,1,79.9999976158142,8|0,0:0|3:0,0:0:0:0:
350,314,31698,2,0,P|389:315|427:327,1,79.9999976158142,2|0,0:0|3:0,0:0:0:0:
496,192,31904,5,2,0:0:0:0:
416,192,32007,1,0,3:0:0:0:
336,192,32111,1,2,0:3:0:0:
256,192,32214,1,0,3:0:0:0:
176,192,32317,2,0,L|85:192,1,79.9999976158142,8|0,0:0|3:0,0:0:0:0:
22,50,32523,2,0,P|18:95|31:134,1,79.9999976158142,2|0,0:0|3:0,0:0:0:0:
170,275,32730,5,2,0:0:0:0:
146,262,32799,1,2,0:0:0:0:
119,259,32867,1,2,0:0:0:0:
92,265,32936,1,2,0:0:0:0:
71,282,33005,1,2,0:0:0:0:
55,303,33074,1,2,0:0:0:0:
49,329,33143,2,0,P|44:356|48:381,5,53.3333317438762,10|2|2|2|2|2,0:0|0:0|0:0|0:0|0:0|0:0,0:0:0:0:
129,356,33556,5,2,0:0:0:0:
289,343,33659,2,0,L|130:356,1,159.999995231628,2|2,0:0|0:0,0:0:0:0:
258,270,33968,1,8,0:0:0:0:
337,279,34072,2,0,L|496:292,1,159.999995231628,2|2,0:0|0:0,0:0:0:0:
258,270,34381,1,2,0:0:0:0:
290,145,34484,2,0,P|234:196|149:194,1,159.999995231628,8|2,0:0|0:0,0:0:0:0:
86,150,34794,1,2,0:0:0:0:
86,150,34897,1,2,0:0:0:0:
86,150,35000,2,0,P|92:109|65:69,1,79.9999976158142,0|2,3:0|0:0,0:0:0:0:
11,129,35207,5,2,0:0:0:0:
166,70,35310,2,0,B|204:90|204:90|324:58,1,159.999995231628,2|2,0:0|0:0,0:0:0:0:
460,131,35620,1,8,0:0:0:0:
308,141,35723,2,0,B|422:111|422:111|460:131,1,159.999995231628,2|2,0:0|0:0,0:0:0:0:
256,192,36032,1,0,0:0:0:0:
203,242,36136,2,0,P|119:233|60:278,1,159.999995231628,8|4,0:3|0:3,0:0:0:0:
185,330,36445,1,2,0:0:0:0:
185,330,36548,1,2,0:0:0:0:
185,330,36652,2,0,P|142:325|113:347,1,79.9999976158142,0|2,3:0|0:0,0:0:0:0:
256,372,36858,5,2,0:0:0:0:
260,292,36961,2,0,L|424:300,1,159.999995231628,2|2,0:0|0:0,0:0:0:0:
499,141,37271,1,8,0:0:0:0:
495,221,37374,2,0,L|331:213,1,159.999995231628,2|2,0:0|0:0,0:0:0:0:
256,58,37684,1,2,0:0:0:0:
252,138,37787,2,0,L|88:130,1,159.999995231628,8|4,0:3|0:3,0:0:0:0:
13,107,38097,2,0,P|0:67|11:23,1,79.9999976158142,2|0,0:0|3:0,0:0:0:0:
242,220,38303,2,0,P|255:260|244:304,1,79.9999976158142,2|2,0:0|0:0,0:0:0:0:
168,351,38509,5,8,0:3:0:0:
165,266,38613,1,4,0:3:0:0:
332,255,38716,2,0,L|414:250,1,79.9999976158142,4|2,0:0|0:0,0:0:0:0:
115,213,38922,5,8,0:0:0:0:
168,351,39025,2,0,L|86:346,1,79.9999976158142,6|0,0:0|3:0,0:0:0:0:
12,343,39232,1,0,0:0:0:0:
115,213,39335,5,2,0:3:0:0:
90,244,39438,2,0,B|67:249|67:249|30:237|30:237|9:242,1,79.9999976158142,2|0,0:3|3:3,0:0:0:0:
87,139,39748,1,8,0:0:0:0:
122,121,39851,1,8,0:0:0:0:
161,125,39954,1,0,3:0:0:0:
188,153,40058,1,8,0:0:0:0:
205,188,40161,6,0,B|237:200|237:200|359:162,1,159.999995231628,6|0,0:0|3:0,0:0:0:0:
290,272,40470,2,0,B|410:234|410:234|442:246,1,159.999995231628,0|0,3:0|3:0,0:0:0:0:
357,341,40780,2,0,L|276:368,1,79.9999976158142,2|0,0:0|0:0,0:0:0:0:
512,279,40986,1,2,0:3:0:0:
498,199,41090,2,0,P|476:153|508:54,1,159.999995231628,0|0,3:0|3:0,0:0:0:0:
367,126,41399,2,0,L|453:130,1,79.9999976158142,8|0,0:0|3:0,0:0:0:0:
310,62,41606,1,2,0:0:0:0:
287,138,41709,1,0,0:0:0:0:
341,196,41812,6,0,P|290:216|211:156,1,159.999995231628,2|2,0:3|0:0,0:0:0:0:
68,273,42122,2,0,P|119:253|198:313,1,159.999995231628,0|0,3:0|3:0,0:0:0:0:
10,320,42431,2,0,P|-5:280|3:240,1,79.9999976158142,2|0,0:0|0:0,0:0:0:0:
138,99,42638,1,2,0:3:0:0:
70,167,42741,1,0,3:0:0:0:
11,90,42844,2,0,L|173:77,1,159.999995231628,6|0,0:0|0:0,0:0:0:0:
407,32,43154,2,0,P|329:47|256:19,1,159.999995231628,6|0,0:0|0:0,0:0:0:0:
489,146,43463,6,0,P|478:113|481:60,1,79.9999976158142,2|0,0:0|3:0,0:0:0:0:
365,221,43670,2,0,P|376:182|375:143,1,79.9999976158142,0|0,3:0|3:0,0:0:0:0:
491,330,43876,1,8,0:0:0:0:
482,250,43979,1,0,3:0:0:0:
482,250,44083,1,2,0:0:0:0:
228,301,44289,6,0,L|309:307,1,79.9999976158142,2|0,0:3|3:0,0:0:0:0:
102,372,44495,2,0,L|183:378,1,79.9999976158142,2|0,0:0|3:0,0:0:0:0:
1,255,44702,1,8,0:0:0:0:
80,263,44805,1,0,3:0:0:0:
80,263,44908,1,2,0:0:0:0:
393,72,45115,6,0,P|362:85|305:85,1,79.9999976158142,2|0,0:3|3:0,0:0:0:0:
119,72,45321,2,0,P|150:85|207:85,1,79.9999976158142,2|0,0:0|3:0,0:0:0:0:
256,34,45527,1,8,0:0:0:0:
256,201,45631,2,0,L|256:115,1,79.9999976158142,0|2,3:0|0:0,0:0:0:0:
365,292,45940,5,2,0:3:0:0:
302,353,46043,1,0,3:0:0:0:
256,277,46147,1,2,0:0:0:0:
210,353,46250,1,0,3:0:0:0:
147,292,46353,2,0,P|109:289|65:302,1,79.9999976158142,8|10,0:0|0:0,0:0:0:0:
365,292,46559,2,0,P|403:289|447:302,1,79.9999976158142,0|8,3:0|0:0,0:0:0:0:
359,184,46766,6,0,P|430:220|510:214,1,159.999995231628,2|0,0:0|3:0,0:0:0:0:
209,153,47076,2,0,P|288:148|359:184,1,159.999995231628,0|0,3:0|3:0,0:0:0:0:
134,137,47385,2,0,P|169:155|209:152,1,79.9999976158142,2|0,0:0|0:0,0:0:0:0:
63,178,47592,1,2,0:3:0:0:
168,56,47695,2,0,B|95:36|58:97|58:97|19:93,1,159.999995231628,0|0,3:0|3:0,0:0:0:0:
63,178,48004,2,0,P|52:211|48:264,1,79.9999976158142,8|0,0:0|3:0,0:0:0:0:
256,353,48211,2,0,P|267:320|271:267,1,79.9999976158142,2|0,0:0|0:0,0:0:0:0:
494,199,48417,6,0,P|431:211|334:186,1,159.999995231628,2|2,0:3|0:0,0:0:0:0:
134,137,48727,2,0,P|212:148|288:126,1,159.999995231628,0|0,3:0|3:0,0:0:0:0:
482,48,49036,1,2,0:0:0:0:
405,73,49140,1,0,0:0:0:0:
336,31,49243,2,0,B|313:20|313:20|259:32,1,79.9999976158142,2|0,0:3|3:0,0:0:0:0:
50,88,49449,2,0,P|123:40|193:58,1,159.999995231628,6|0,0:0|0:0,0:0:0:0:
189,328,49759,2,0,P|112:342|50:296,1,159.999995231628,6|0,0:0|0:0,0:0:0:0:
256,194,50069,5,2,0:0:0:0:
334,179,50172,1,0,3:0:0:0:
408,206,50275,2,0,P|436:233|449:271,1,79.9999976158142,0|0,3:0|3:0,0:0:0:0:
404,348,50481,2,0,P|373:316|362:276,1,79.9999976158142,8|0,0:0|3:0,0:0:0:0:
483,140,50688,1,2,0:0:0:0:
483,140,50894,6,0,L|490:55,1,79.9999976158142,2|0,0:3|3:0,0:0:0:0:
256,194,51101,2,0,L|262:273,1,79.9999976158142,2|0,0:0|3:0,0:0:0:0:
372,101,51307,1,8,0:0:0:0:
284,98,51410,1,0,3:0:0:0:
196,95,51513,2,0,P|193:54|213:18,1,79.9999976158142,2|0,0:0|0:0,0:0:0:0:
256,194,51720,5,2,0:3:0:0:
173,248,51823,2,0,B|120:256|120:256|69:233|69:233|18:241,1,159.999995231628,0|0,3:0|3:0,0:0:0:0:
110,161,52133,5,8,0:0:0:0:
48,313,52236,1,0,3:0:0:0:
110,161,52339,2,0,P|116:122|100:82,1,79.9999976158142,2|0,0:0|0:0,0:0:0:0:
36,334,52545,1,2,0:3:0:0:
100,381,52649,2,0,L|272:377,1,159.999995231628,0|0,3:0|3:0,0:0:0:0:
264,296,52958,1,8,0:0:0:0:
318,237,53061,1,10,0:0:0:0:
397,228,53165,1,0,3:0:0:0:
464,271,53268,1,8,0:0:0:0:
483,348,53371,6,0,B|445:368|445:368|373:344|373:344|334:365,1,159.999995231628,6|2,0:0|0:3,0:0:0:0:
264,296,53681,1,0,3:0:0:0:
390,149,53784,2,0,P|400:190|396:228,1,79.9999976158142,8|0,0:0|3:0,0:0:0:0:
153,117,53990,2,0,P|142:75|146:37,1,79.9999976158142,2|0,0:0|3:0,0:0:0:0:
95,195,54197,6,0,P|156:146|234:150,1,159.999995231628,2|2,0:3|0:0,0:0:0:0:
62,285,54506,1,0,3:0:0:0:
248,130,54610,2,0,L|330:124,1,79.9999976158142,8|0,0:0|3:0,0:0:0:0:
79,312,54816,2,0,L|-3:306,1,79.9999976158142,2|0,0:0|3:0,0:0:0:0:
208,376,55022,6,0,P|176:309|198:230,1,159.999995231628,2|2,0:0|0:3,0:0:0:0:
294,372,55332,1,0,3:0:0:0:
396,203,55435,2,0,P|407:241|394:288,1,79.9999976158142,8|0,0:0|3:0,0:0:0:0:
116,181,55642,2,0,P|105:143|118:96,1,79.9999976158142,2|0,0:0|3:0,0:0:0:0:
345,64,55848,6,0,P|264:82|191:47,1,159.999995231628,2|2,0:3|0:0,0:0:0:0:
222,251,56158,1,0,3:0:0:0:
498,285,56261,2,0,L|483:363,1,79.9999976158142,8|8,0:0|0:0,0:0:0:0:
413,111,56467,2,0,L|427:32,1,79.9999976158142,2|8,0:0|0:0,0:0:0:0:
337,198,56674,5,2,0:0:0:0:
409,232,56777,1,0,3:0:0:0:
484,205,56880,1,2,0:3:0:0:
510,129,56983,1,0,3:0:0:0:
409,232,57087,2,0,P|401:271|412:315,1,79.9999976158142,8|0,0:0|3:0,0:0:0:0:
510,129,57293,2,0,P|518:90|507:46,1,79.9999976158142,2|0,0:0|3:0,0:0:0:0:
404,12,57499,5,2,0:3:0:0:
404,12,57603,1,0,3:0:0:0:
318,84,57706,1,2,0:0:0:0:
318,84,57809,1,0,3:0:0:0:
225,21,57912,2,0,B|203:35|203:35|137:27,1,79.9999976158142,8|0,0:0|3:0,0:0:0:0:
5,113,58119,2,0,B|27:99|27:99|93:107,1,79.9999976158142,2|0,0:0|3:0,0:0:0:0:
187,183,58325,5,2,0:0:0:0:
30,219,58428,1,2,0:3:0:0:
150,337,58531,1,2,0:3:0:0:
126,254,58635,1,0,3:0:0:0:
19,305,58738,2,0,L|15:389,1,79.9999976158142,8|0,0:0|3:0,0:0:0:0:
187,183,58944,2,0,L|190:103,1,79.9999976158142,2|0,0:0|3:0,0:0:0:0:
303,64,59151,5,2,0:3:0:0:
305,160,59254,1,2,0:3:0:0:
307,255,59357,2,0,B|329:263|329:263|395:247,1,79.9999976158142,2|0,0:0|3:0,0:0:0:0:
512,139,59563,2,0,B|457:152|457:152|435:144,1,79.9999976158142,8|0,0:0|3:0,0:0:0:0:
303,64,59770,1,2,0:3:0:0:
397,45,59873,1,2,0:0:0:0:
189,24,59976,6,0,P|182:63|189:103,1,79.9999976158142,2|0,0:0|3:0,0:0:0:0:
256,170,60183,1,2,0:3:0:0:
256,265,60286,1,0,3:0:0:0:
141,205,60389,2,0,P|151:245|150:293,1,79.9999976158142,8|0,0:0|3:0,0:0:0:0:
371,205,60596,2,0,P|361:245|362:293,1,79.9999976158142,2|0,0:0|3:0,0:0:0:0:
181,371,60802,6,0,P|141:361|93:362,1,79.9999976158142,2|0,0:3|3:0,0:0:0:0:
331,371,61008,2,0,P|371:361|419:362,1,79.9999976158142,2|0,0:0|3:0,0:0:0:0:
163,358,61215,6,0,P|113:345|54:346,1,79.9999976158142,8|0,0:0|3:0,0:0:0:0:
347,358,61421,2,0,P|396:345|455:346,1,79.9999976158142,2|0,0:0|3:0,0:0:0:0:
499,225,61628,6,0,P|491:262|494:313,1,79.9999976158142,2|0,0:0|3:0,0:0:0:0:
415,191,61834,2,0,P|382:212|349:249,1,79.9999976158142,2|0,0:3|3:0,0:0:0:0:
365,107,62040,2,0,P|326:106|277:117,1,79.9999976158142,8|0,0:0|3:0,0:0:0:0:
474,40,62247,1,2,0:0:0:0:
469,120,62350,1,0,3:0:0:0:
277,193,62453,2,0,L|285:114,1,79.9999976158142,2|0,0:3|3:0,0:0:0:0:
142,215,62660,2,0,L|193:154,1,79.9999976158142,2|0,0:0|3:0,0:0:0:0:
19,147,62866,2,0,L|95:127,1,79.9999976158142,8|8,0:0|0:0,0:0:0:0:
285,113,63073,1,2,0:0:0:0:
138,40,63176,1,8,0:0:0:0:
142,215,63279,6,0,P|131:255|134:296,1,79.9999976158142,2|0,0:0|3:0,0:0:0:0:
378,293,63485,1,2,0:3:0:0:
378,293,63589,1,0,3:0:0:0:
378,293,63692,2,0,P|380:253|370:215,1,79.9999976158142,8|0,0:0|3:0,0:0:0:0:
256,273,63898,1,2,0:0:0:0:
256,352,64001,1,0,3:0:0:0:
256,192,64105,6,0,L|256:112,1,79.9999976158142,2|0,0:3|3:0,0:0:0:0:
97,74,64311,1,2,0:0:0:0:
97,74,64414,1,0,3:0:0:0:
97,74,64517,2,0,P|136:82|176:78,1,79.9999976158142,8|0,0:0|3:0,0:0:0:0:
414,74,64724,2,0,P|375:82|336:78,1,79.9999976158142,2|0,0:0|3:0,0:0:0:0:
256,192,64930,5,2,0:0:0:0:
180,166,65033,1,0,3:0:0:0:
111,207,65137,1,2,0:3:0:0:
98,285,65240,1,0,3:0:0:0:
312,240,65343,2,0,P|329:199|322:162,1,79.9999976158142,8|0,0:0|3:0,0:0:0:0:
404,305,65549,2,0,P|430:334|437:373,1,79.9999976158142,2|0,0:0|3:0,0:0:0:0:
483,220,65756,5,2,0:0:0:0:
478,193,65825,1,2,0:0:0:0:
473,166,65893,1,2,0:0:0:0:
468,139,65962,1,2,0:0:0:0:
463,112,66031,1,2,0:0:0:0:
459,85,66100,1,2,0:0:0:0:
455,58,66169,2,0,L|466:5,5,53.3333317438762,10|2|2|2|2|2,0:0|0:0|0:0|0:0|0:0|0:0,0:0:0:0:
382,24,66582,5,2,0:0:0:0:
237,47,66685,2,0,P|322:61|383:21,1,159.999995231628,2|2,0:0|0:0,0:0:0:0:
263,143,66994,1,8,0:0:0:0:
189,114,67098,2,0,P|104:100|43:140,1,159.999995231628,2|2,0:0|0:0,0:0:0:0:
109,23,67407,1,2,0:0:0:0:
128,197,67510,2,0,B|148:250|148:250|145:299|81:326,1,159.999995231628,8|2,0:0|0:0,0:0:0:0:
17,251,67820,2,0,L|107:257,1,79.9999976158142,2|2,0:0|0:0,0:0:0:0:
218,323,68026,2,0,L|308:329,1,79.9999976158142,0|2,3:0|0:0,0:0:0:0:
483,234,68233,5,2,0:0:0:0:
364,273,68336,2,0,P|444:269|499:325,1,159.999995231628,2|2,0:0|0:0,0:0:0:0:
447,384,68646,1,8,0:0:0:0:
297,328,68749,2,0,L|286:159,1,159.999995231628,2|2,0:0|0:0,0:0:0:0:
206,173,69058,1,2,0:0:0:0:
211,252,69162,2,0,L|42:263,1,159.999995231628,8|4,0:3|0:3,0:0:0:0:
3,197,69471,1,2,0:0:0:0:
3,197,69574,1,2,0:0:0:0:
50,132,69678,1,0,3:0:0:0:
50,132,69781,1,2,0:0:0:0:
3,67,69884,5,2,0:0:0:0:
3,67,69987,2,0,P|85:89|154:58,1,159.999995231628,2|2,0:0|0:0,0:0:0:0:
221,22,70297,1,8,0:0:0:0:
227,170,70400,2,0,P|249:94|220:21,1,159.999995231628,2|2,0:0|0:0,0:0:0:0:
156,193,70710,1,2,0:0:0:0:
337,132,70813,2,0,P|314:207|343:280,1,159.999995231628,8|4,0:3|0:3,0:0:0:0:
430,114,71123,1,2,0:0:0:0:
430,114,71226,1,0,3:0:0:0:
430,114,71329,2,0,L|421:32,1,79.9999976158142,2|2,0:0|0:0,0:0:0:0:
227,170,71535,5,8,0:3:0:0:
421,207,71639,1,4,0:3:0:0:
256,316,71742,2,0,L|239:237,1,79.9999976158142,4|2,0:0|0:0,0:0:0:0:
445,222,71948,1,8,0:0:0:0:
280,331,72051,2,0,L|263:252,1,79.9999976158142,6|0,0:0|3:0,0:0:0:0:
227,170,72258,1,0,0:0:0:0:
78,238,72361,5,2,0:3:0:0:
58,203,72464,2,0,P|50:162|67:122,1,79.9999976158142,2|0,0:3|3:0,0:0:0:0:
157,33,72774,1,8,0:0:0:0:
122,53,72877,1,8,0:0:0:0:
82,55,72980,1,0,3:0:0:0:
42,44,73084,1,8,0:0:0:0:
25,7,73187,1,4,0:0:0:0:
