osu file format v14

[General]
AudioFilename: audio.mp3
AudioLeadIn: 0
PreviewTime: 40161
Countdown: 0
SampleSet: Soft
StackLeniency: 0.7
Mode: 0
LetterboxInBreaks: 0
WidescreenStoryboard: 0

[Editor]
DistanceSpacing: 1
BeatDivisor: 2
GridSize: 4
TimelineZoom: 1

[Metadata]
Title:Battle Spirit
TitleUnicode:バトルスピリット
Artist:Yoshino Aoki
ArtistUnicode:青木佳乃
Creator:P o M u T a
Version:Easy
Source:バトルネットワーク ロックマンエグゼ2
Tags:electronic video Kyshiro forte megaman Mega Man pomuta Battle Network Rockman EXE 2 capcom game boy advance airman quickman cutman shadowman protoman knightman magnetman freezeman bass gospel gba instrumental
BeatmapID:1008716
BeatmapSetID:472007

[Difficulty]
HPDrainRate:2
CircleSize:3
OverallDifficulty:2
ApproachRate:4
SliderMultiplier:1.12
SliderTickRate:1

[Events]
//Background and Video events
0,0,"2070867_p0.jpg",0,0
//Break Periods
2,33755,38720
2,66781,71454
//Storyboard Layer 0 (Background)
//Storyboard Layer 1 (Fail)
//Storyboard Layer 2 (Pass)
//Storyboard Layer 3 (Foreground)
//Storyboard Layer 4 (Overlay)
//Storyboard Sound Samples

[TimingPoints]
530,412.825099766066,4,2,1,60,1,0
3006,-100,4,2,1,70,0,0
3832,-100,4,2,1,60,0,0
5483,-100,4,2,1,70,0,0
7135,-100,4,2,1,80,0,0
20345,-100,4,2,1,85,0,0
32730,-100,4,2,1,75,0,0
33143,-100,4,2,1,80,0,0
33556,-100,4,2,1,85,0,0
39335,-100,4,2,1,80,0,0
53371,-100,4,2,1,85,0,1
65756,-100,4,2,1,75,0,1
66169,-100,4,2,1,80,0,1
66582,-100,4,2,1,85,0,0
72774,-100,4,2,1,70,0,0
73187,-100,4,2,1,100,0,0

[Colours]
Combo1 : 191,255,191
Combo2 : 136,136,255
Combo3 : 255,198,140
Combo4 : 210,166,255

[HitObjects]
320,290,530,6,0,L|437:298,1,112,6|2,0:0|0:0,0:0:0:0:
374,201,1355,2,0,L|257:209,1,112,2|2,0:0|0:0,0:0:0:0:
154,178,2181,1,2,0:0:0:0:
91,271,2594,1,2,0:0:0:0:
154,362,3006,1,12,0:0:0:0:
28,180,3832,6,0,L|18:66,1,112,2|2,0:0|0:0,0:0:0:0:
124,103,4658,2,0,L|133:214,1,112,2|2,0:0|0:0,0:0:0:0:
64,302,5483,1,8,0:3:0:0:
446,68,7135,6,0,B|381:96|381:96|304:66|304:66|236:97,1,224,6|2,0:0|0:3,0:0:0:0:
165,179,8373,1,8,0:0:0:0:
255,245,8786,2,0,P|271:299|261:352,1,112,2|8,3:0|0:0,0:0:0:0:
155,303,9612,1,2,0:3:0:0:
372,356,10437,6,0,L|491:343,2,112,2|8|2,0:0|0:0|0:3,0:0:0:0:
260,352,11676,1,8,0:0:0:0:
313,253,12089,2,0,L|432:240,2,112,2|8|2,0:3|0:0|0:3,0:0:0:0:
201,249,13327,1,8,0:0:0:0:
89,245,13740,6,0,P|82:155|177:72,1,224,2|2,0:0|0:3,0:0:0:0:
285,94,14978,1,8,0:0:0:0:
379,155,15391,2,0,B|385:245|318:288|318:288|336:358,1,224,2|2,0:3|0:3,0:0:0:0:
489,192,17043,5,2,0:0:0:0:
442,90,17455,1,8,0:0:0:0:
330,82,17868,1,2,0:3:0:0:
175,244,18694,1,2,0:3:0:0:
63,236,19107,1,8,0:0:0:0:
16,134,19519,2,0,P|0:77|16:19,1,112,2|8,0:3|0:0,0:0:0:0:
115,76,20345,6,0,B|225:37|225:101|335:76,1,224,6|2,0:0|0:3,0:0:0:0:
494,233,21996,2,0,B|384:272|384:208|274:233,1,224,2|2,0:0|0:3,0:0:0:0:
85,353,23648,2,0,L|209:343,1,112,2|8,0:0|0:0,0:0:0:0:
148,242,24473,2,0,L|24:232,1,112,2|8,0:3|0:0,0:0:0:0:
2,125,25299,1,2,0:0:0:0:
64,32,25712,1,8,0:0:0:0:
170,67,26125,2,0,L|287:60,1,112,2|8,0:3|0:0,0:0:0:0:
386,20,26950,6,0,P|468:93|445:199,1,224,2|2,0:0|0:3,0:0:0:0:
354,257,28189,1,8,0:0:0:0:
261,193,28602,2,0,P|155:165|52:204,1,224,2|2,0:0|0:3,0:0:0:0:
2,305,29840,1,8,0:0:0:0:
107,342,30253,6,0,B|220:350|220:350|390:211|390:211|505:223,2,448,2|2|2,0:0|0:0|0:0,0:0:0:0:
481,60,40161,6,0,L|241:72,1,224,6|2,0:0|0:3,0:0:0:0:
145,78,41399,1,8,0:0:0:0:
58,149,41812,2,0,P|48:206|73:268,1,112,2|8,0:3|0:0,0:0:0:0:
141,338,42638,1,2,0:3:0:0:
363,369,43463,6,0,L|482:354,1,112,2|8,0:0|0:0,0:0:0:0:
512,251,44289,2,0,P|512:193|487:147,1,112,2|8,0:3|0:0,0:0:0:0:
377,122,45115,2,0,L|258:137,1,112,2|8,0:3|0:0,0:0:0:0:
228,240,45940,2,0,P|228:298|253:344,1,112,2|8,0:3|0:0,0:0:0:0:
363,369,46766,5,2,0:0:0:0:
474,356,47179,1,8,0:0:0:0:
403,267,47592,2,0,P|399:212|418:160,1,112,2|8,0:3|0:0,0:0:0:0:
498,82,48417,2,0,P|402:49|315:120,1,224,2|2,0:3|0:3,0:0:0:0:
130,248,50069,6,0,L|14:261,2,112,2|8|2,0:0|0:0|0:3,0:0:0:0:
227,192,51307,1,8,0:0:0:0:
130,135,51720,2,0,L|14:148,2,112,2|8|2,0:3|0:0|0:3,0:0:0:0:
227,79,52958,1,8,0:0:0:0:
324,134,53371,6,0,P|430:137|482:238,1,224,6|2,0:0|0:3,0:0:0:0:
258,239,55022,2,0,P|309:332|416:336,1,224,2|2,0:0|0:3,0:0:0:0:
324,134,56674,6,0,P|271:144|212:131,1,112,2|8,0:0|0:0,0:0:0:0:
111,89,57499,2,0,P|64:119|32:164,1,112,2|8,0:3|0:0,0:0:0:0:
21,276,58325,2,0,L|0:385,2,112,2|8|2,0:0|0:0|0:3,0:0:0:0:
120,223,59563,1,8,0:0:0:0:
218,169,59976,6,0,B|285:141|285:141|437:171,1,224,2|2,0:0|0:3,0:0:0:0:
492,265,61215,1,8,0:0:0:0:
426,355,61628,2,0,B|359:383|359:383|207:353,1,224,2|2,0:0|0:3,0:0:0:0:
149,259,62866,1,8,0:0:0:0:
218,169,63279,6,0,P|178:65|49:235,2,448,2|2|2,0:0|0:0|0:0,0:0:0:0:
256,192,72774,6,0,L|256:304,1,112,8|4,0:0|0:0,0:0:0:0:
